osu file format v14

[General]
AudioFilename: audio.mp3
AudioLeadIn: 0
PreviewTime: 53140
Countdown: 0
SampleSet: Soft
StackLeniency: 0.7
Mode: 3
LetterboxInBreaks: 0
SpecialStyle: 0
WidescreenStoryboard: 0

[Editor]
Bookmarks: 27717
DistanceSpacing: 1.2
BeatDivisor: 4
GridSize: 32
TimelineZoom: 1.8

[Metadata]
Title:Seishun Prologue
TitleUnicode:青春プロローグ
Artist:Moso Calibration
ArtistUnicode:妄想キャリブレーション
Creator:dudehacker
Version:Tofu's 4K Easy 'Michiru'
Source:冴えない彼女の育てかた♭
Tags:Tofu1222 1164530434 Mousou Saenai Heroine no Sodatekata Flat Saekano How to Raise a Boring Girlfriend TV Size 加藤恵 Kato Megumi
BeatmapID:1375219
BeatmapSetID:648170

[Difficulty]
HPDrainRate:7
CircleSize:4
OverallDifficulty:7
ApproachRate:5
SliderMultiplier:1.4
SliderTickRate:1

[Events]
//Background and Video events
0,0,"4K.jpg",0,0
//Break Periods
//Storyboard Layer 0 (Background)
//Storyboard Layer 1 (Fail)
//Storyboard Layer 2 (Pass)
//Storyboard Layer 3 (Foreground)
//Storyboard Sound Samples
Sample,1224,0,"LR_NBell_E6.wav",30
Sample,2198,0,"LR_NBell_B6.wav",30
Sample,2782,0,"DB_F#7.wav",30
Sample,3366,0,"DB_E7.wav",30
Sample,4340,0,"F#4S_Gb4S.wav",15
Sample,4340,0,"DB_C#7.wav",30
Sample,4925,0,"LR_NBell_B6.wav",30
Sample,5509,0,"LR_Tom Hit 3.wav",70
Sample,13496,0,"B6S.wav",70
Sample,13886,0,"B6S.wav",70
Sample,14081,0,"B6S.wav",70
Sample,15249,0,"soft-hitfinish.wav",20
Sample,15639,0,"LR2_HatCM.wav",30
Sample,16029,0,"LR2_HatCM.wav",30
Sample,16418,0,"LR2_HatCM.wav",30
Sample,16808,0,"LR2_HatCM.wav",30
Sample,17198,0,"LR2_HatCM.wav",30
Sample,17587,0,"LR2_HatCM.wav",30
Sample,17977,0,"LR2_HatCM.wav",30
Sample,18366,0,"LR2_HatCM.wav",30
Sample,18756,0,"LR2_HatCM.wav",30
Sample,19146,0,"LR2_HatCM.wav",30
Sample,19535,0,"LR2_HatCM.wav",30
Sample,19925,0,"LR2_HatCM.wav",30
Sample,20314,0,"LR2_HatCM.wav",30
Sample,20704,0,"LR2_HatCM.wav",30
Sample,21094,0,"LR_Drum Hit Open.wav",30
Sample,21483,0,"LR2_HatCM.wav",30
Sample,21873,0,"LR2_HatCM.wav",30
Sample,22262,0,"LR2_HatCM.wav",30
Sample,22652,0,"LR2_HatCM.wav",30
Sample,23042,0,"LR2_HatCM.wav",30
Sample,23431,0,"LR2_HatCM.wav",30
Sample,23821,0,"LR2_HatCM.wav",30
Sample,24211,0,"LR2_HatCM.wav",30
Sample,24600,0,"LR2_HatCM.wav",30
Sample,24990,0,"LR2_HatCM.wav",30
Sample,25379,0,"LR2_HatCM.wav",30
Sample,25769,0,"LR2_HatCM.wav",30
Sample,26159,0,"LR2_HatCM.wav",30
Sample,26548,0,"LR2_HatCM.wav",30
Sample,26743,0,"LR_Drum Hit Open.wav",30
Sample,40769,0,"LR_HiHat SClick.wav",50
Sample,40964,0,"LR2_HatCM.wav",50
Sample,41548,0,"LR_Drum Hit HAT.wav",50
Sample,44081,0,"LR2_HatCM.wav",50
Sample,44665,0,"LR_Drum Hit HAT.wav",30
Sample,45055,0,"LR2_HatCM.wav",50
Sample,45444,0,"LR_HiHat SClick.wav",50
Sample,45639,0,"LR_Drum Hit Open.wav",40
Sample,46029,0,"LR_Drum Hit Open.wav",40
Sample,46808,0,"LR_Drum Hit Open.wav",40
Sample,47587,0,"LR_Drum Hit Open.wav",40
Sample,47977,0,"LR_Drum Hit Open.wav",40
Sample,48366,0,"LR_Drum Hit Open.wav",40
Sample,49146,0,"LR_Drum Hit Open.wav",40
Sample,52068,0,"LR_Tom Hit.wav",70
Sample,52262,0,"LR_Tom Hit 2.wav",70
Sample,52457,0,"LR_Tom Hit 3.wav",70
Sample,52847,0,"LR_Tom Hit 3.wav",70
Sample,53042,0,"LR_Tom Hit 3.wav",70
Sample,54600,0,"LR2_HatCM.wav",50
Sample,54990,0,"LR2_HatCM.wav",50
Sample,55379,0,"LR2_HatCM.wav",50
Sample,55379,0,"soft-hitclap.wav",50
Sample,55574,0,"LR_Drum Hit HAT.wav",30
Sample,56159,0,"LR2_HatCM.wav",50
Sample,56548,0,"LR2_HatCM.wav",50
Sample,56938,0,"LR2_HatCM.wav",50
Sample,56938,0,"soft-hitclap.wav",50
Sample,57327,0,"LR2_HatCM.wav",50
Sample,57717,0,"LR2_HatCM.wav",50
Sample,58496,0,"LR2_HatCM.wav",50
Sample,58691,0,"LR_Drum Hit Open.wav",30
Sample,59081,0,"LR_Drum Hit Open.wav",30
Sample,59665,0,"LR2_HatCM.wav",50
Sample,60055,0,"LR2_HatCM.wav",50
Sample,60444,0,"LR2_HatCM.wav",50
Sample,60834,0,"LR2_HatCM.wav",50
Sample,61224,0,"LR2_HatCM.wav",50
Sample,61613,0,"LR2_HatCM.wav",50
Sample,61613,0,"soft-hitclap.wav",50
Sample,61808,0,"LR_Drum Hit HAT.wav",30
Sample,62392,0,"LR2_HatCM.wav",50
Sample,62782,0,"LR2_HatCM.wav",50
Sample,63172,0,"LR2_HatCM.wav",50
Sample,63172,0,"soft-hitclap.wav",50
Sample,63561,0,"LR2_HatCM.wav",50
Sample,63951,0,"LR2_HatCM.wav",50
Sample,64340,0,"LR2_HatCM.wav",50
Sample,65509,0,"LR2_HatCM.wav",50
Sample,65899,0,"LR2_HatCM.wav",50
Sample,67068,0,"LR2_HatCM.wav",50
Sample,67457,0,"LR2_HatCM.wav",50
Sample,67847,0,"soft-hitclap.wav",50
Sample,67847,0,"LR2_HatCM.wav",50
Sample,68042,0,"LR_Drum Hit HAT.wav",30
Sample,68626,0,"LR2_HatCM.wav",50
Sample,69016,0,"LR2_HatCM.wav",50
Sample,69405,0,"LR2_HatCM.wav",50
Sample,69405,0,"soft-hitclap.wav",50
Sample,69795,0,"LR2_HatCM.wav",50
Sample,70185,0,"LR2_HatCM.wav",50
Sample,70964,0,"LR2_HatCM.wav",50
Sample,71159,0,"LR_Drum Hit Open.wav",30
Sample,71548,0,"LR_Drum Hit Open.wav",30
Sample,72522,0,"LR2_HatCM.wav",50
Sample,72912,0,"LR2_HatCM.wav",50
Sample,73301,0,"LR2_HatCM.wav",50
Sample,73691,0,"LR2_HatCM.wav",50
Sample,74081,0,"soft-hitclap.wav",50
Sample,74081,0,"LR2_HatCM.wav",50
Sample,74275,0,"LR_Drum Hit HAT.wav",30
Sample,74860,0,"LR2_HatCM.wav",50
Sample,75249,0,"LR2_HatCM.wav",50
Sample,75639,0,"LR2_HatCM.wav",50
Sample,75639,0,"soft-hitclap.wav",50
Sample,76613,0,"LR_Drum Hit Open.wav",70
Sample,85185,0,"B6S.wav",70
Sample,85574,0,"B6S.wav",70
Sample,85769,0,"B6S.wav",70
Sample,86548,0,"soft-hitclap.wav",30
Sample,86938,0,"B4S.wav",40
Sample,86938,0,"E4S.wav",40

[TimingPoints]
1224,389.61038961039,4,2,1,50,1,0
54211,-100,4,2,1,50,0,1
78756,-100,4,2,1,50,0,0

[HitObjects]
64,192,1224,5,0,0:0:0:30:A4S.wav
192,192,2198,1,0,0:0:0:30:E5S.wav
448,192,2782,1,0,0:0:0:30:G#4S_Ab4S.wav
320,192,3366,1,0,0:0:0:30:C#5S_Db5S.wav
192,192,4340,1,0,0:0:0:15:A4S.wav
448,192,4925,1,0,0:0:0:70:LR_Tom Hit.wav
320,192,5120,1,0,0:0:0:70:LR_Tom Hit 3.wav
64,192,5314,1,0,0:0:0:70:LR_Tom Hit 2.wav
192,192,5509,128,10,5899:0:0:0:0:
320,192,5899,1,2,0:0:0:0:
448,192,5899,1,4,0:0:0:0:
64,192,6288,1,8,0:0:0:0:
320,192,6483,1,2,0:0:0:0:
448,192,6873,1,2,0:0:0:0:
192,192,7068,1,8,0:0:0:0:
64,192,7457,1,2,0:0:0:0:
320,192,7652,1,2,0:0:0:0:
192,192,7847,1,8,0:0:0:0:
448,192,8042,1,2,0:0:0:0:
320,192,8431,1,2,0:0:0:0:
64,192,8626,1,8,0:0:0:0:
448,192,9016,1,2,0:0:0:0:
64,192,9405,1,8,0:0:0:0:
320,192,9600,1,2,0:0:0:0:
448,192,9990,1,2,0:0:0:0:
192,192,10185,1,8,0:0:0:0:
64,192,10574,1,2,0:0:0:0:
192,192,10769,1,2,0:0:0:0:
448,192,10964,1,8,0:0:0:0:
320,192,11159,1,2,0:0:0:0:
64,192,11548,1,2,0:0:0:0:
448,192,11743,1,8,0:0:0:0:
192,192,12133,1,2,0:0:0:0:
320,192,12133,1,4,0:0:0:0:
64,192,12522,1,8,0:0:0:0:
448,192,12717,1,2,0:0:0:0:
192,192,13107,1,2,0:0:0:0:
320,192,13301,1,8,0:0:0:0:
64,192,13496,1,14,0:0:0:0:
448,192,13886,1,10,0:0:0:0:
64,192,14081,1,10,0:0:0:0:
320,192,14860,1,0,0:0:0:30:LR_Drum Hit Open.wav
64,192,15249,1,2,0:0:0:0:
448,192,15639,1,2,0:0:0:0:
192,192,16029,1,2,0:0:0:0:
320,192,16418,1,2,0:0:0:0:
448,192,16808,1,2,0:0:0:0:
64,192,17198,1,2,0:0:0:0:
320,192,17587,1,2,0:0:0:0:
192,192,17977,1,2,0:0:0:0:
448,192,18366,1,2,0:0:0:0:
320,192,18756,1,2,0:0:0:0:
64,192,19146,1,2,0:0:0:0:
192,192,19535,1,2,0:0:0:0:
448,192,19925,1,2,0:0:0:0:
320,192,20314,1,2,0:0:0:0:
64,192,20704,1,2,0:0:0:0:
192,192,21094,1,2,0:0:0:0:
448,192,21483,1,2,0:0:0:0:
192,192,21873,1,2,0:0:0:0:
320,192,22262,1,2,0:0:0:0:
64,192,22652,1,2,0:0:0:0:
192,192,23042,1,2,0:0:0:0:
320,192,23431,1,2,0:0:0:0:
64,192,23821,1,2,0:0:0:0:
448,192,24211,1,2,0:0:0:0:
192,192,24600,1,2,0:0:0:0:
320,192,24990,1,2,0:0:0:0:
64,192,25379,1,2,0:0:0:0:
192,192,25769,1,2,0:0:0:0:
448,192,26159,1,2,0:0:0:0:
192,192,26548,1,2,0:0:0:0:
320,192,26743,1,8,0:0:0:0:
64,192,26938,1,2,0:0:0:0:
192,192,27133,1,0,0:0:0:70:LR_Tom Hit.wav
320,192,27327,1,0,0:0:0:70:LR_Tom Hit 2.wav
448,192,27522,1,0,0:0:0:70:LR_Tom Hit 3.wav
64,192,27717,128,4,28107:0:0:0:0:
320,192,27717,1,2,0:0:0:0:
448,192,28107,1,2,0:0:0:0:
192,192,28301,1,8,0:0:0:0:
320,192,28691,1,2,0:0:0:0:
64,192,28886,1,0,0:0:0:70:LR_Tom Hit.wav
192,192,29275,1,2,0:0:0:0:
448,192,29665,1,2,0:0:0:0:
64,192,29860,1,8,0:0:0:0:
192,192,30249,1,2,0:0:0:0:
320,192,30444,1,2,0:0:0:70:LR_Tom Hit 3.wav
448,192,30834,1,2,0:0:0:0:
64,192,31224,1,2,0:0:0:0:
320,192,31418,1,8,0:0:0:0:
192,192,31808,1,2,0:0:0:0:
448,192,32003,1,0,0:0:0:70:LR_Tom Hit 2.wav
320,192,32392,1,2,0:0:0:0:
64,192,32782,1,2,0:0:0:0:
448,192,32977,1,8,0:0:0:0:
320,192,33561,1,0,0:0:0:70:LR_Tom Hit 3.wav
64,192,33951,1,2,0:0:0:0:
448,192,34340,1,2,0:0:0:0:
192,192,34535,1,8,0:0:0:0:
320,192,34925,1,2,0:0:0:0:
64,192,35120,1,0,0:0:0:70:LR_Tom Hit 2.wav
192,192,35509,1,2,0:0:0:0:
320,192,35899,1,2,0:0:0:0:
64,192,36094,1,8,0:0:0:0:
192,192,36483,1,2,0:0:0:0:
320,192,36678,1,8,0:0:0:0:
64,192,36873,1,0,0:0:0:70:LR_Tom Hit 2.wav
192,192,37068,128,4,37457:0:0:0:0:
448,192,37068,1,2,0:0:0:0:
320,192,37457,1,8,0:0:0:0:
448,192,37847,1,2,0:0:0:0:
64,192,38042,1,2,0:0:0:0:
320,192,38236,1,8,0:0:0:0:
192,192,38431,1,2,0:0:0:0:
192,192,38821,1,2,0:0:0:0:
448,192,39016,1,8,0:0:0:0:
64,192,39405,1,10,0:0:0:0:
320,192,39600,1,0,0:0:0:70:LR_Tom Hit 3.wav
192,192,39795,1,0,0:0:0:70:LR_Tom Hit.wav
448,192,39990,1,0,0:0:0:70:LR_Tom Hit 2.wav
64,192,40185,128,4,40379:0:0:0:0:
320,192,40185,1,2,0:0:0:0:
448,192,40769,1,2,0:0:0:0:
192,192,40964,1,8,0:0:0:0:
320,192,41159,1,0,0:0:0:50:LR_HiHat SClick.wav
448,192,41548,1,2,0:0:0:0:
64,192,41938,1,8,0:0:0:0:
192,192,42327,1,2,0:0:0:0:
448,192,42522,1,8,0:0:0:0:
320,192,42717,1,2,0:0:0:0:
64,192,42912,1,0,0:0:0:50:LR2_HatCM.wav
192,192,43301,1,2,0:0:0:0:
320,192,43886,1,2,0:0:0:0:
64,192,44081,1,8,0:0:0:0:
192,192,44275,1,0,0:0:0:0:
448,192,44665,1,2,0:0:0:0:
192,192,45055,1,8,0:0:0:0:
448,192,45249,1,0,0:0:0:50:LR_HiHat SClick.wav
320,192,45444,1,2,0:0:0:0:
64,192,45639,1,8,0:0:0:0:
448,192,45834,1,2,0:0:0:0:
64,192,46029,1,8,0:0:0:0:
192,192,46418,1,6,0:0:0:0:
320,192,46808,1,8,0:0:0:0:
64,192,47003,1,2,0:0:0:0:
192,192,47392,1,2,0:0:0:0:
448,192,47587,1,8,0:0:0:0:
320,192,47977,1,2,0:0:0:0:
448,192,48366,1,8,0:0:0:0:
192,192,48561,1,2,0:0:0:0:
64,192,48951,1,2,0:0:0:0:
320,192,49146,1,8,0:0:0:0:
448,192,49535,1,6,0:0:0:0:
64,192,49925,1,2,0:0:0:0:
320,192,50120,1,12,0:0:0:0:
448,192,50509,1,2,0:0:0:0:
192,192,50704,1,8,0:0:0:0:
64,192,51094,1,14,0:0:0:0:
448,192,51483,1,2,0:0:0:0:
192,192,51678,1,12,0:0:0:0:
64,192,52068,1,2,0:0:0:0:
320,192,52262,1,2,0:0:0:0:
192,192,52457,1,10,0:0:0:0:
448,192,52847,1,10,0:0:0:0:
64,192,53042,1,10,0:0:0:0:
64,192,54211,1,4,0:0:0:0:
448,192,54211,1,2,0:0:0:0:
320,192,54600,1,8,0:0:0:0:
192,192,54990,1,2,0:0:0:0:
64,192,55379,1,0,0:0:0:70:LR_Clap Fast Low.wav
448,192,55574,1,2,0:0:0:0:
64,192,55964,1,2,0:0:0:0:
320,192,56159,1,8,0:0:0:0:
192,192,56548,1,2,0:0:0:0:
448,192,56743,1,0,0:0:0:70:LR_Clap Fast Low.wav
64,192,56938,1,0,0:0:0:70:LR_Clap Fast Low.wav
192,192,57327,1,2,0:0:0:0:
320,192,57717,1,8,0:0:0:0:
64,192,58107,1,0,0:0:0:50:LR2_HatCM.wav
448,192,58496,1,8,0:0:0:0:
64,192,58691,1,2,0:0:0:0:
320,192,59081,1,2,0:0:0:0:
192,192,59275,1,8,0:0:0:0:
320,192,59665,1,2,0:0:0:0:
64,192,60055,1,8,0:0:0:0:
448,192,60444,1,2,0:0:0:0:
192,192,60834,1,8,0:0:0:0:
320,192,61224,1,2,0:0:0:0:
448,192,61613,1,0,0:0:0:70:LR_Clap Fast Low.wav
64,192,61808,1,2,0:0:0:0:
192,192,62198,1,2,0:0:0:0:
320,192,62392,1,8,0:0:0:0:
192,192,62782,1,2,0:0:0:0:
448,192,62977,1,0,0:0:0:70:LR_Clap Fast Low.wav
64,192,63172,1,0,0:0:0:70:LR_Clap Fast Low.wav
192,192,63561,1,2,0:0:0:0:
320,192,63951,1,8,0:0:0:0:
64,192,64340,1,2,0:0:0:0:
192,192,64535,1,8,0:0:0:0:
320,192,64730,1,8,0:0:0:0:
64,192,64925,1,4,0:0:0:0:
448,192,64925,1,2,0:0:0:0:
192,192,65314,1,2,0:0:0:0:
320,192,65509,1,8,0:0:0:0:
64,192,65899,1,2,0:0:0:0:
448,192,66094,128,0,66288:0:0:0:0:
192,192,66288,1,10,0:0:0:0:
320,192,66483,128,0,66678:0:0:0:0:
64,192,66678,1,4,0:0:0:0:
448,192,66678,1,2,0:0:0:0:
192,192,67068,1,8,0:0:0:0:
320,192,67457,1,2,0:0:0:0:
448,192,67847,1,0,0:0:0:70:LR_Clap Fast Low.wav
64,192,68042,1,2,0:0:0:0:
448,192,68431,1,2,0:0:0:0:
192,192,68626,1,8,0:0:0:0:
320,192,69016,1,2,0:0:0:0:
64,192,69211,1,0,0:0:0:70:LR_Clap Fast Low.wav
448,192,69405,1,0,0:0:0:70:LR_Clap Fast Low.wav
320,192,69795,1,2,0:0:0:0:
192,192,70185,1,8,0:0:0:0:
448,192,70574,1,0,0:0:0:50:LR2_HatCM.wav
64,192,70964,1,8,0:0:0:0:
448,192,71159,1,2,0:0:0:0:
192,192,71548,1,2,0:0:0:0:
320,192,71743,1,8,0:0:0:0:
192,192,72133,1,0,0:0:0:50:LR2_HatCM.wav
448,192,72522,1,8,0:0:0:0:
64,192,72912,1,2,0:0:0:0:
320,192,73301,1,10,0:0:0:0:
192,192,73691,1,2,0:0:0:0:
64,192,74081,1,0,0:0:0:70:LR_Clap Fast Low.wav
448,192,74275,1,2,0:0:0:0:
320,192,74665,1,2,0:0:0:0:
192,192,74860,1,8,0:0:0:0:
320,192,75249,1,2,0:0:0:0:
64,192,75444,1,0,0:0:0:70:LR_Clap Fast Low.wav
448,192,75639,1,0,0:0:0:70:LR_Clap Fast Low.wav
192,192,76029,1,14,0:0:0:0:
320,192,76418,1,2,0:0:0:0:
448,192,76613,1,12,0:0:0:0:
64,192,76808,128,2,77198:0:0:0:0:
448,192,77198,128,10,77587:0:0:0:0:
64,192,77587,1,2,0:0:0:0:
192,192,77587,1,4,0:0:0:0:
448,192,77977,1,8,0:0:0:0:
192,192,78172,1,2,0:0:0:0:
64,192,78561,1,2,0:0:0:0:
320,192,78756,1,8,0:0:0:0:
448,192,79146,1,2,0:0:0:0:
192,192,79340,1,2,0:0:0:0:
320,192,79535,1,8,0:0:0:0:
64,192,79730,1,2,0:0:0:0:
192,192,80120,1,2,0:0:0:0:
448,192,80314,1,8,0:0:0:0:
64,192,80704,1,2,0:0:0:0:
448,192,81094,1,8,0:0:0:0:
192,192,81288,1,2,0:0:0:0:
64,192,81678,1,2,0:0:0:0:
320,192,81873,1,8,0:0:0:0:
448,192,82262,1,2,0:0:0:0:
320,192,82457,1,2,0:0:0:0:
64,192,82652,1,8,0:0:0:0:
192,192,82847,1,2,0:0:0:0:
448,192,83236,1,2,0:0:0:0:
64,192,83431,1,8,0:0:0:0:
192,192,83821,1,2,0:0:0:0:
320,192,83821,1,4,0:0:0:0:
64,192,84211,1,8,0:0:0:0:
448,192,84405,1,2,0:0:0:0:
192,192,84795,1,2,0:0:0:0:
320,192,84990,1,8,0:0:0:0:
64,192,85185,1,14,0:0:0:0:
448,192,85574,1,10,0:0:0:0:
64,192,85769,1,10,0:0:0:0:
320,192,86159,128,2,86548:0:0:0:0:
192,192,86548,128,2,86938:0:0:0:0:
64,192,86938,128,6,89665:0:0:0:0:
448,192,86938,1,0,0:0:0:40:G#4S_Ab4S.wav
