osu file format v14

[General]
AudioFilename: audio.mp3
AudioLeadIn: 0
PreviewTime: 53140
Countdown: 0
SampleSet: Soft
StackLeniency: 0.9
Mode: 0
LetterboxInBreaks: 0
WidescreenStoryboard: 0

[Editor]
Bookmarks: 1225,5900,15250,27718,40186,54212,66679,77588,86939
DistanceSpacing: 1.2
BeatDivisor: 8
GridSize: 32
TimelineZoom: 2.5

[Metadata]
Title:Seishun Prologue
TitleUnicode:青春プロローグ
Artist:Moso Calibration
ArtistUnicode:妄想キャリブレーション
Creator:Left
Version:Shad0w1and's Insane
Source:冴えない彼女の育てかた♭
Tags:Mousou Saenai Heroine no Sodatekata Flat Saekano How to Raise a Boring Girlfriend TV Size Shad0w1and 加藤恵 Kato Megumi
BeatmapID:1346600
BeatmapSetID:634231

[Difficulty]
HPDrainRate:6
CircleSize:4
OverallDifficulty:7.6
ApproachRate:8.6
SliderMultiplier:1.4
SliderTickRate:1

[Events]
//Background and Video events
0,0,"BG_Shad0w1and.jpg",0,0
Video,0,"optc.flv"
//Break Periods
//Storyboard Layer 0 (Background)
//Storyboard Layer 1 (Fail)
//Storyboard Layer 2 (Pass)
//Storyboard Layer 3 (Foreground)
//Storyboard Sound Samples

[TimingPoints]
1225,389.61038961039,4,2,33,30,1,0
1225,-125,4,2,33,30,0,0
5900,-83.3333333333333,4,2,33,50,0,0
13497,-66.6666666666667,4,2,33,50,0,0
13887,-50,4,2,33,50,0,0
14082,-100,4,2,33,50,0,0
14666,-83.3333333333333,4,2,33,40,0,0
14861,-100,4,2,33,40,0,0
15250,-100,4,2,33,30,0,0
26160,-133.333333333333,4,2,33,40,0,0
27718,-100,4,2,33,50,0,0
40186,-133.333333333333,4,2,33,50,0,0
42523,-66.6666666666667,4,2,33,50,0,0
43302,-133.333333333333,4,2,33,50,0,0
45640,-66.6666666666667,4,2,33,50,0,0
46419,-83.3333333333333,4,2,33,50,0,0
52458,-83.3333333333333,4,2,33,60,0,0
54212,-83.3333333333333,4,2,33,60,0,1
64536,-83.3333333333333,4,2,33,50,0,1
64926,-83.3333333333333,4,2,33,60,0,1
65900,-83.3333333333333,4,2,33,50,0,1
66679,-83.3333333333333,4,2,33,60,0,1
77588,-83.3333333333333,4,2,33,50,0,0
85186,-66.6666666666667,4,2,33,50,0,0
85575,-50,4,2,33,50,0,0
85770,-100,4,2,33,50,0,0
86160,-100,4,2,33,40,0,0
86549,-100,4,2,33,50,0,0
87036,-100,4,2,33,20,0,0
89276,-100,4,2,33,5,0,0

[Colours]
Combo1 : 255,245,121
Combo2 : 45,255,182
Combo3 : 106,173,255
Combo4 : 254,129,163

[HitObjects]
40,71,250,6,0,P|43:106|49:159,2,70
117,9,835,1,0,0:0:0:0:
142,161,1030,1,0,0:0:0:0:
197,76,1225,6,0,L|317:51,1,112,2|0,0:0|0:0,0:0:0:0:
253,164,2004,2,0,L|141:160,1,112,2|0,0:0|0:0,0:0:0:0:
67,228,2588,6,0,P|74:279|144:317,1,112,2|0,0:0|0:0,0:0:0:0:
207,264,3173,2,0,P|235:266|267:273,1,56,2|0,0:0|0:0,0:0:0:0:
330,345,3562,2,0,P|332:288|352:176,1,168,2|0,0:0|0:0,0:0:0:0:
351,178,4341,5,2,0:0:0:0:
253,164,4536,2,0,P|214:141|190:91,1,84,2|0,0:0|0:0,0:0:0:0:
274,89,4926,5,8,0:3:0:0:
274,89,5023,1,8,0:3:0:0:
274,89,5121,1,4,0:3:0:0:
141,160,5315,1,4,0:3:0:0:
262,271,5510,6,0,L|294:281,3,28,6|0|2|0,0:3|0:0|0:0|0:0,0:0:0:0:
314,285,5900,6,0,P|377:232|338:142,1,167.999994873047,6|8,0:0|0:0,0:0:0:0:
274,89,6484,1,8,0:3:0:0:
141,160,6679,2,0,L|138:264,2,83.9999974365235,2|0|8,0:0|0:0|0:0,0:0:0:0:
83,67,7263,1,0,0:0:0:0:
54,249,7458,6,0,L|164:242,1,83.9999974365235,10|0,0:3|0:0,0:0:0:0:
205,156,7848,1,8,0:0:0:0:
236,295,8043,2,0,L|346:288,1,83.9999974365235,8|2,0:3|0:0,0:0:0:0:
387,202,8432,1,0,0:0:0:0:
418,341,8627,2,0,L|528:334,1,83.9999974365235,8|0,0:0|0:0,0:0:0:0:
387,202,9017,6,0,P|311:213|319:289,1,167.999994873047,10|8,0:3|0:0,0:0:0:0:
387,202,9601,2,0,P|372:138|356:14,1,167.999994873047,8|0,0:3|0:0,0:0:0:0:
467,31,10186,2,0,P|461:75|452:113,1,83.9999974365235,8|0,0:0|0:0,0:0:0:0:
299,133,10575,5,10,0:3:0:0:
357,36,10770,1,0,0:0:0:0:
387,202,10965,1,8,0:0:0:0:
196,153,11160,2,0,B|157:92|199:29|199:29|237:58,1,167.999994873047,10|0,0:3|0:0,0:0:0:0:
97,103,11744,1,10,0:0:0:0:
138,243,11939,1,8,0:3:0:0:
138,243,12036,1,8,0:3:0:0:
138,243,12134,6,0,P|210:229|323:214,1,167.999994873047,6|8,0:0|0:0,0:0:0:0:
405,321,12718,2,0,P|326:318|219:306,1,167.999994873047,8|0,0:3|0:0,0:0:0:0:
303,215,13302,1,8,0:0:0:0:
467,224,13497,6,0,B|521:132|521:132|446:133,1,157.500006008148,6|0,0:0|0:0,0:0:0:0:
395,251,13887,6,0,L|404:320,1,70,6|0,0:0|0:0,0:0:0:0:
467,224,14082,6,0,P|407:175|336:203,1,140,12|0,0:0|0:0,0:0:0:0:
237,308,14666,6,0,L|243:339,3,20.9999993591309,2|0|0|0,0:0|0:0|0:0|0:0,0:0:0:0:
247,350,14861,6,0,P|188:339|135:334,1,105,2|0,0:0|0:0,0:0:0:0:
107,266,15250,5,10,0:3:0:0:
173,175,15640,1,0,0:0:0:0:
106,84,16029,1,0,0:0:0:0:
0,118,16419,1,0,0:0:0:0:
107,266,16809,6,0,P|173:254|274:249,1,140,10|0,0:3|0:0,0:0:0:0:
335,208,17393,1,0,0:0:0:0:
263,83,17588,2,0,P|251:122|253:174,1,70,2|0,0:0|0:0,0:0:0:0:
335,208,17978,2,0,P|342:249|334:293,1,70
245,248,18367,5,10,0:3:0:0:
154,182,18757,1,0,0:0:0:0:
63,249,19146,1,0,0:0:0:0:
97,355,19536,1,0,0:0:0:0:
245,248,19926,6,0,P|233:182|228:81,1,140,10|0,0:3|0:0,0:0:0:0:
309,170,20510,1,0,0:0:0:0:
245,248,20705,2,0,L|152:265,1,70,2|0,0:0|0:0,0:0:0:0:
118,181,21095,2,0,L|34:165,1,70
212,171,21484,6,0,P|234:114|169:105,1,140,10|0,0:3|0:0,0:0:0:0:
118,181,22069,2,0,P|119:219|117:256,1,70,2|0,0:0|0:0,0:0:0:0:
230,103,22458,2,0,L|220:139|210:175,1,70,2|0,0:0|0:0,0:0:0:0:
402,116,22848,1,2,0:0:0:0:
402,116,23043,6,0,P|349:173|295:225,1,140,10|0,0:3|0:0,0:0:0:0:
384,285,23627,2,0,P|412:280|455:278,1,70,2|0,0:0|0:0,0:0:0:0:
326,362,24017,2,0,P|290:354|256:342,2,70,2|0|0,0:0|0:0|0:0,0:0:0:0:
305,217,24601,6,0,P|242:249|166:269,1,140,10|0,0:3|0:0,0:0:0:0:
78,132,25186,2,0,P|156:146|223:177,1,140,2|0,0:0|0:0,0:0:0:0:
318,131,25770,2,0,P|343:108|356:54,1,70,2|0,0:0|0:0,0:0:0:0:
181,72,26160,6,0,B|189:115|189:115|203:127|203:127|211:177,1,105.000004005432,10|8,0:3|0:3,0:0:0:0:
269,55,26744,1,8,0:0:0:0:
122,187,26939,5,8,0:3:0:0:
190,252,27134,1,4,0:3:0:0:
101,282,27328,1,4,0:3:0:0:
169,347,27523,1,4,0:3:0:0:
246,181,27718,6,0,P|183:157|121:186,1,140,6|8,0:0|0:3,0:0:0:0:
190,252,28302,1,8,0:0:0:0:
190,252,28692,5,8,0:3:0:0:
289,100,28887,1,4,0:3:0:0:
289,100,29276,6,0,P|328:93|370:102,1,70,10|0,0:3|0:0,0:0:0:0:
326,196,29666,1,8,0:3:0:0:
237,145,29861,2,0,P|259:117|289:100,1,70,8|0,0:0|0:0,0:0:0:0:
326,196,30250,1,8,0:3:0:0:
242,244,30445,1,4,0:3:0:0:
242,244,30835,6,0,B|145:217|145:217|168:269,1,140,10|8,0:3|0:3,0:0:0:0:
49,296,31419,2,0,P|61:241|76:145,1,140,8|8,0:0|0:3,0:0:0:0:
160,252,32004,1,4,0:3:0:0:
160,252,32393,6,0,L|251:273,1,70,10|0,0:3|0:0,0:0:0:0:
320,216,32783,1,8,0:3:0:0:
347,114,32978,2,0,L|497:107,1,140,8|8,0:0|0:3,0:0:0:0:
422,190,33562,1,4,0:3:0:0:
246,136,33757,1,0,0:0:0:0:
246,136,33854,1,0,0:0:0:0:
246,136,33952,6,0,P|248:72|303:17,1,140,6|8,0:0|0:3,0:0:0:0:
422,190,34536,2,0,P|399:260|381:354,1,140,8|8,0:0|0:3,0:0:0:0:
320,216,35121,1,4,0:3:0:0:
320,216,35510,6,0,P|251:232|176:244,1,140,10|8,0:3|0:3,0:0:0:0:
123,155,36095,1,8,0:0:0:0:
123,155,36484,5,8,0:3:0:0:
268,311,36679,1,4,0:3:0:0:
76,253,36874,1,8,0:3:0:0:
278,171,37069,6,0,L|266:337,1,140,6|8,0:0|0:0,0:0:0:0:
267,310,37848,5,4,0:3:0:0:
422,190,38043,1,8,0:3:0:0:
278,171,38237,1,8,0:0:0:0:
458,276,38432,6,0,P|506:228|511:159,1,140,10|0,0:3|0:0,0:0:0:0:
434,86,39017,1,8,0:0:0:0:
434,86,39406,5,8,0:0:0:0:
352,152,39601,1,8,0:3:0:0:
511,159,39796,1,4,0:3:0:0:
336,48,39991,1,0,0:0:0:0:
336,48,40088,1,0,0:0:0:0:
336,48,40186,6,0,P|341:108|356:167,1,105.000004005432,6|0,0:0|0:0,0:0:0:0:
440,183,40770,1,8,0:3:0:0:
268,231,40965,2,0,L|258:160,2,52.5000020027161,8|0|0,0:0|0:0|0:0,0:0:0:0:
163,163,41549,6,0,L|188:47,1,105.000004005432,10|8,0:3|0:0,0:0:0:0:
260,179,42134,1,0,0:0:0:0:
71,146,42328,1,8,0:3:0:0:
71,146,42523,6,0,B|54:223|54:223|94:223,1,105.000004005432,8|4,0:0|0:3,0:0:0:0:
80,223,43302,6,0,P|117:249|102:315,1,105.000004005432,10|0,0:3|0:0,0:0:0:0:
18,306,43887,1,8,0:3:0:0:
168,384,44082,2,0,L|229:369,2,52.5000020027161,8|0|0,0:0|0:0|0:0,0:0:0:0:
211,298,44666,6,0,L|321:317,1,105.000004005432,8|8,0:3|0:0,0:0:0:0:
385,253,45250,1,0,0:0:0:0:
297,216,45445,1,8,0:3:0:0:
297,216,45640,6,0,B|272:143|272:143|312:143,1,105.000004005432,8|4,0:0|0:3,0:0:0:0:
401,155,46030,2,0,B|426:82|426:82|386:82,1,105.000004005432,8|0,0:0|0:0,0:0:0:0:
219,80,46419,6,0,P|248:162|272:239,1,167.999994873047,6|8,0:0|0:0,0:0:0:0:
137,299,47004,2,0,P|145:254|170:204,1,83.9999974365235,8|0,0:3|0:0,0:0:0:0:
272,239,47393,1,8,0:3:0:0:
365,312,47588,2,0,P|408:306|455:267,1,83.9999974365235,8|0,0:0|0:0,0:0:0:0:
425,76,47978,5,10,0:3:0:0:
375,205,48173,1,0,0:0:0:0:
512,159,48367,1,8,0:0:0:0:
302,79,48562,2,0,L|182:80,1,83.9999974365235,8|0,0:3|0:0,0:0:0:0:
160,219,48952,1,8,0:3:0:0:
307,114,49147,1,8,0:0:0:0:
113,136,49341,1,0,0:0:0:0:
113,136,49439,1,0,0:0:0:0:
112,136,49536,6,0,P|87:205|159:218,1,167.999994873047,6|8,0:0|0:3,0:0:0:0:
375,205,50121,2,0,P|399:274|327:287,1,167.999994873047,12|8,0:0|0:3,0:0:0:0:
218,79,50705,1,8,0:0:0:0:
375,205,50900,1,0,0:0:0:0:
159,218,51095,6,0,L|68:179,1,83.9999974365235,14|0,0:0|0:0,0:0:0:0:
375,205,51484,1,8,0:3:0:0:
175,246,51679,2,0,L|87:208,1,83.9999974365235,12|0,0:0|0:0,0:0:0:0:
375,205,52069,1,8,0:3:0:0:
191,274,52263,1,8,0:0:0:0:
307,114,52458,1,6,0:3:0:0:
307,114,52848,5,8,0:3:0:0:
81,184,53043,1,14,0:0:0:0:
81,184,54017,1,0,0:0:0:0:
81,184,54114,1,0,0:0:0:0:
81,184,54212,6,0,P|66:113|45:46,1,125.999996154785,6|0,0:0|0:0,0:0:0:0:
107,11,54601,2,0,P|161:7|209:33,1,83.9999974365235,8|0,0:0|0:0,0:0:0:0:
263,119,54991,1,10,0:3:0:0:
142,113,55186,1,0,0:0:0:0:
314,9,55380,1,12,0:1:0:0:
375,174,55575,6,0,P|453:145|474:69,1,167.999994873047,10|0,0:3|0:0,0:0:0:0:
314,9,56160,1,8,0:0:0:0:
280,241,56354,1,0,0:0:0:0:
280,241,56452,1,0,0:0:0:0:
280,241,56549,1,10,0:3:0:0:
383,79,56744,1,10,0:1:0:0:
142,113,56939,1,12,0:1:0:0:
142,113,57328,6,0,L|150:216,1,83.9999974365235,10|0,0:3|0:0,0:0:0:0:
280,241,57718,1,8,0:0:0:0:
176,116,57913,1,0,0:0:0:0:
78,279,58108,2,0,P|32:277|-15:244,1,83.9999974365235,10|0,0:3|0:0,0:0:0:0:
61,176,58497,1,8,0:0:0:0:
183,308,58692,6,0,P|239:295|351:280,1,167.999994873047,10|0,0:3|0:0,0:0:0:0:
348,280,59276,1,8,0:0:0:0:
148,196,59471,1,0,0:0:0:0:
148,196,59569,1,0,0:0:0:0:
148,196,59666,1,10,0:3:0:0:
375,174,59861,1,8,0:3:0:0:
210,120,60056,1,8,0:0:0:0:
348,280,60250,1,0,0:0:0:0:
348,280,60348,1,0,0:0:0:0:
348,280,60445,6,0,P|392:283|469:215,1,125.999996154785,6|0,0:0|0:0,0:0:0:0:
508,182,60835,2,0,P|487:141|466:89,1,83.9999974365235,8|0,0:0|0:0,0:0:0:0:
489,35,61127,1,0,0:0:0:0:
489,35,61225,1,10,0:3:0:0:
375,174,61419,1,0,0:0:0:0:
314,9,61614,1,12,0:1:0:0:
208,193,61809,6,0,P|251:186|380:173,1,167.999994873047,10|0,0:3|0:0,0:0:0:0:
260,99,62393,1,8,0:0:0:0:
348,280,62588,1,0,0:0:0:0:
348,280,62686,1,0,0:0:0:0:
348,280,62783,1,10,0:3:0:0:
208,193,62978,1,10,0:1:0:0:
444,123,63173,1,12,0:1:0:0:
444,123,63562,6,0,P|442:185|445:231,1,83.9999974365235,10|0,0:3|0:0,0:0:0:0:
348,280,63952,1,8,0:0:0:0:
292,170,64147,2,0,L|336:168,2,41.9999987182618,0|0|10,0:0|0:0|0:3,0:0:0:0:
184,98,64536,5,8,0:0:0:0:
155,116,64634,1,8,0:0:0:0:
139,145,64731,1,8,0:0:0:0:
140,178,64828,1,8,0:0:0:0:
156,207,64926,6,0,P|177:265|185:374,1,167.999994873047,14|8,0:0|0:3,0:0:0:0:
264,284,65510,2,0,P|300:279|365:281,1,83.9999974365235,8|0,0:0|0:0,0:0:0:0:
423,363,65900,5,10,0:0:0:0:
448,330,65997,1,8,0:0:0:0:
460,289,66094,1,8,0:0:0:0:
456,248,66192,1,8,0:0:0:0:
437,211,66289,1,8,0:0:0:0:
318,134,66484,1,8,0:0:0:0:
318,134,66582,1,8,0:0:0:0:
318,134,66679,6,0,P|377:131|465:119,1,125.999996154785,6|0,0:0|0:0,0:0:0:0:
507,165,67069,2,0,L|487:287,1,83.9999974365235,8|0,0:0|0:0,0:0:0:0:
347,279,67458,1,10,0:3:0:0:
512,326,67653,1,0,0:0:0:0:
443,122,67848,1,12,0:1:0:0:
384,364,68043,6,0,P|286:351|254:266,1,167.999994873047,10|0,0:3|0:0,0:0:0:0:
318,134,68627,1,8,0:0:0:0:
493,247,68822,1,0,0:0:0:0:
493,247,68919,1,0,0:0:0:0:
493,247,69017,1,10,0:3:0:0:
347,279,69212,1,10,0:1:0:0:
443,122,69406,1,12,0:1:0:0:
443,122,69796,6,0,L|343:139,1,83.9999974365235,10|0,0:3|0:0,0:0:0:0:
262,55,70186,1,8,0:0:0:0:
259,222,70380,1,0,0:0:0:0:
166,135,70575,2,0,L|66:152,1,83.9999974365235,10|0,0:3|0:0,0:0:0:0:
22,37,70965,1,8,0:0:0:0:
262,55,71160,6,0,L|259:236,1,167.999994873047,10|0,0:3|0:0,0:0:0:0:
259,222,71744,1,8,0:0:0:0:
360,136,71939,1,0,0:0:0:0:
360,136,72036,1,0,0:0:0:0:
360,136,72134,1,10,0:3:0:0:
166,135,72328,1,8,0:3:0:0:
347,279,72523,1,8,0:0:0:0:
457,139,72718,1,0,0:0:0:0:
457,139,72815,1,0,0:0:0:0:
457,139,72913,6,0,P|439:82|365:37,1,125.999996154785,6|0,0:0|0:0,0:0:0:0:
316,21,73302,2,0,P|289:62|243:108,1,83.9999974365235,8|0,0:0|0:0,0:0:0:0:
259,222,73692,1,10,0:3:0:0:
360,136,73887,1,0,0:0:0:0:
166,135,74082,1,12,0:1:0:0:
325,300,74276,6,0,P|343:228|362:119,1,167.999994873047,10|0,0:3|0:0,0:0:0:0:
259,222,74861,1,8,0:0:0:0:
461,217,75056,1,0,0:0:0:0:
461,217,75153,1,0,0:0:0:0:
461,217,75250,1,10,0:3:0:0:
325,300,75445,1,10,0:2:0:0:
512,341,75640,1,12,0:1:0:0:
512,341,76030,6,0,P|493:257|481:176,1,167.999994873047,6|8,0:0|0:3,0:0:0:0:
481,176,76614,1,8,0:0:0:0:
325,300,76809,1,10,0:3:0:0:
265,87,77004,5,8,0:0:0:0:
294,57,77101,1,8,0:0:0:0:
334,49,77198,1,8,0:0:0:0:
373,65,77296,1,8,0:0:0:0:
396,99,77393,1,8,0:0:0:0:
397,141,77491,1,8,0:0:0:0:
374,175,77588,6,0,P|272:161|203:149,1,167.999994873047,6|8,0:0|0:0,0:0:0:0:
116,237,78173,1,8,0:3:0:0:
227,295,78367,2,0,P|266:281|318:264,2,83.9999974365235,2|0|8,0:0|0:0|0:0,0:0:0:0:
116,237,78952,1,0,0:0:0:0:
306,267,79147,6,0,P|352:298|397:338,1,83.9999974365235,10|0,0:3|0:0,0:0:0:0:
496,288,79536,1,8,0:0:0:0:
492,161,79731,2,0,P|441:171|374:195,1,83.9999974365235,8|2,0:3|0:0,0:0:0:0:
306,267,80121,1,0,0:0:0:0:
188,221,80315,2,0,P|152:180|141:132,1,83.9999974365235,8|0,0:0|0:0,0:0:0:0:
327,100,80705,6,0,P|316:195|301:296,1,167.999994873047,10|8,0:3|0:0,0:0:0:0:
470,312,81289,2,0,P|475:236|397:178,1,167.999994873047,8|0,0:3|0:0,0:0:0:0:
181,137,81874,2,0,P|187:197|188:232,1,83.9999974365235,8|0,0:0|0:0,0:0:0:0:
302,362,82263,5,6,0:0:0:0:
410,179,82458,1,0,0:0:0:0:
187,220,82653,1,8,0:0:0:0:
470,312,82848,2,0,P|484:239|496:144,1,167.999994873047,6|0,0:0|0:0,0:0:0:0:
327,100,83432,1,14,0:0:0:0:
227,295,83627,1,8,0:3:0:0:
227,295,83724,1,8,0:3:0:0:
227,295,83822,6,0,P|131:270|49:258,1,167.999994873047,6|8,0:0|0:0,0:0:0:0:
3,148,84406,2,0,P|48:79|141:78,1,167.999994873047,8|0,0:3|0:0,0:0:0:0:
127,71,84991,1,8,0:0:0:0:
197,173,85186,6,0,L|206:7,1,157.500006008148,6|0,0:0|0:0,0:0:0:0:
259,147,85575,6,0,P|230:167|196:172,1,70,6|0,0:0|0:0,0:0:0:0:
127,71,85770,6,0,P|156:28|205:15,1,105,12|0,0:0|0:0,0:0:0:0:
203,93,86160,5,8,0:0:0:0:
243,105,86257,1,8,0:0:0:0:
283,95,86354,1,8,0:0:0:0:
314,66,86452,1,8,0:0:0:0:
355,72,86549,5,8,0:0:0:0:
388,97,86647,1,8,0:0:0:0:
404,135,86744,1,8,0:0:0:0:
399,176,86841,1,8,0:0:0:0:
373,209,86939,5,14,0:0:0:0:
256,192,87036,12,0,89276,0:0:0:0:
