osu file format v14

[General]
AudioFilename: audio.mp3
AudioLeadIn: 0
PreviewTime: 53140
Countdown: 0
SampleSet: Soft
StackLeniency: 0.7
Mode: 0
LetterboxInBreaks: 0
WidescreenStoryboard: 1

[Editor]
DistanceSpacing: 1.2
BeatDivisor: 4
GridSize: 32
TimelineZoom: 1

[Metadata]
Title:Seishun Prologue
TitleUnicode:青春プロローグ
Artist:Moso Calibration
ArtistUnicode:妄想キャリブレーション
Creator:Left
Version:Hard
Source:冴えない彼女の育てかた♭
Tags:Mousou Saenai Heroine no Sodatekata Flat Saekano How to Raise a Boring Girlfriend TV Size Shad0w1and 加藤恵 Kato Megumi
BeatmapID:1346351
BeatmapSetID:634231

[Difficulty]
HPDrainRate:5
CircleSize:4
OverallDifficulty:6
ApproachRate:7.5
SliderMultiplier:1.5
SliderTickRate:1

[Events]
//Background and Video events
0,0,"BG.jpg",0,0
Video,0,"optc.flv"
//Break Periods
//Storyboard Layer 0 (Background)
//Storyboard Layer 1 (Fail)
//Storyboard Layer 2 (Pass)
//Storyboard Layer 3 (Foreground)
//Storyboard Sound Samples

[TimingPoints]
1225,389.61038961039,4,2,1,45,1,0
1225,-133.333333333333,4,2,1,45,0,0
4926,-133.333333333333,4,2,1,55,0,0
5900,-100,4,2,1,70,0,0
15250,-117.647058823529,4,2,1,50,0,0
27328,-117.647058823529,4,2,1,40,0,0
27718,-117.647058823529,4,2,1,60,0,0
37069,-105.263157894737,4,2,1,60,0,0
40186,-111.111111111111,4,2,1,60,0,0
46419,-105.263157894737,4,2,1,60,0,0
52458,-100,4,2,1,65,0,0
54212,-100,4,2,1,75,0,1
56744,-100,4,2,2,75,0,1
57134,-100,4,2,1,75,0,1
62978,-100,4,2,2,75,0,1
63367,-100,4,2,1,75,0,1
69212,-100,4,2,2,75,0,1
69601,-100,4,2,1,75,0,1
75445,-100,4,2,2,75,0,1
75835,-100,4,2,1,75,0,1
77588,-100,4,2,1,70,0,0
89276,-100,4,2,1,5,0,0

[Colours]
Combo1 : 255,245,121
Combo2 : 45,255,182
Combo3 : 106,173,255
Combo4 : 254,129,163

[HitObjects]
37,146,1225,6,0,B|82:115|137:156|137:156|196:199|272:145|238:37|129:75,1,337.500012874604,6|0,0:0|0:0,0:0:0:0:
77,217,2783,2,0,P|122:259|230:236,2,168.750006437302,2|2|0,0:0|0:0|0:0,0:0:0:0:
280,183,4341,6,0,P|303:225|292:294,1,112.500004291535,2|0,0:0|0:0,0:0:0:0:
236,346,4926,2,0,L|241:396,2,28.1250010728836,0|0|4,1:0|1:0|0:3,0:0:0:0:
173,295,5315,1,0,1:0:0:0:
173,295,5510,2,0,P|156:249|171:194,1,84.3750032186509,8|0,0:0|0:0,0:0:0:0:
172,197,5900,6,0,B|127:207|100:181|100:181|54:168|16:209,1,150,4|8,1:0|0:0,0:0:0:0:
4,106,6484,2,0,P|57:60|140:78,1,150,2|0,1:2|1:0,0:0:0:0:
208,116,7069,2,0,P|258:120|294:90,1,75,10|0,0:0|0:0,0:0:0:0:
365,84,7458,5,2,1:2:0:0:
365,84,7653,2,0,L|358:176,1,75,0|8,1:0|0:0,0:0:0:0:
279,201,8043,2,0,L|295:367,1,150,2|0,1:2|1:1,0:0:0:0:
293,350,8627,1,10,0:0:0:0:
307,123,9017,6,0,B|262:110|229:133|229:133|194:153|131:127,1,150,6|8,1:2|0:0,0:0:0:0:
117,62,9601,2,0,P|76:119|94:192,1,150,2|0,1:2|1:0,0:0:0:0:
174,232,10186,2,0,P|190:274|181:319,1,75,10|0,0:0|0:0,0:0:0:0:
274,325,10575,5,2,1:2:0:0:
274,325,10770,2,0,P|295:275|317:255,1,75,0|8,1:0|0:0,0:0:0:0:
393,227,11160,2,0,L|372:67,1,150,2|2,1:2|1:2,0:0:0:0:
294,168,11744,2,0,L|284:94,1,75,10|0,0:0|1:0,0:0:0:0:
284,94,12036,1,0,1:0:0:0:
284,94,12134,6,0,B|244:78|209:98|209:98|171:120|107:94,1,150,6|8,1:2|0:0,0:0:0:0:
74,49,12718,2,0,B|48:38|36:20|36:20|53:80|51:150,1,150,2|0,1:2|1:0,0:0:0:0:
50,120,13302,1,8,0:0:0:0:
41,235,13497,6,0,P|92:197|176:219,1,150,12|2,0:1|1:2,0:0:0:0:
115,285,14082,1,10,0:0:0:0:
447,85,15250,6,0,P|389:49|321:72,1,127.50000243187,6|2,0:0|0:0,0:0:0:0:
274,119,15835,1,0,0:0:0:0:
274,119,16030,2,0,L|284:202,1,63.7500012159348,0|2,0:0|0:0,0:0:0:0:
199,194,16419,2,0,L|189:111,1,63.7500012159348,0|0,0:0|0:0,0:0:0:0:
118,90,16809,6,0,P|56:78|5:113,1,127.50000243187,2|0,0:0|0:0,0:0:0:0:
46,186,17393,2,0,P|88:184|120:156,2,63.7500012159348,2|0|0,0:0|0:0|0:0,0:0:0:0:
5,113,17978,1,2,0:0:0:0:
145,25,18367,6,0,L|287:34,1,127.50000243187,2|2,0:0|0:0,0:0:0:0:
307,108,18952,1,0,0:0:0:0:
307,108,19147,2,0,L|303:175,1,63.7500012159348,0|2,0:0|0:0,0:0:0:0:
385,178,19536,2,0,L|389:111,1,63.7500012159348,0|0,0:0|0:0,0:0:0:0:
355,38,19926,6,0,L|213:29,1,127.50000243187,2|0,0:0|0:0,0:0:0:0:
165,85,20510,2,0,P|145:41|148:7,2,63.7500012159348,2|0|0,0:0|0:0|0:0,0:0:0:0:
227,29,21095,1,2,0:0:0:0:
292,180,21484,6,0,P|353:189|403:152,1,127.50000243187,2|0,0:0|0:0,0:0:0:0:
467,206,22069,2,0,P|456:235|457:280,2,63.7500012159348,2|0|2,0:0|0:0|0:0,0:0:0:0:
482,124,22653,2,0,P|480:92|469:62,1,63.7500012159348,2|0,0:0|0:0,0:0:0:0:
401,14,23043,6,0,L|269:28,1,127.50000243187,2|0,0:0|0:0,0:0:0:0:
274,27,23627,1,2,0:0:0:0:
150,137,24017,1,2,0:0:0:0:
150,137,24212,2,0,L|160:209,1,63.7500012159348,2|0,0:0|0:0,0:0:0:0:
110,267,24601,6,0,P|157:237|230:257,1,127.50000243187,2|0,0:0|0:0,0:0:0:0:
291,300,25186,2,0,L|286:371,2,63.7500012159348,2|0|2,0:0|0:0|0:0,0:0:0:0:
297,217,25770,2,0,L|302:146,1,63.7500012159348,2|0,0:0|0:0,0:0:0:0:
307,70,26160,5,2,0:0:0:0:
146,29,26549,1,0,0:0:0:0:
146,29,26744,2,0,P|117:84|44:64,1,127.50000243187,8|4,0:0|0:3,0:0:0:0:
58,79,27328,2,0,P|74:124|69:153,1,63.7500012159348,8|4,0:3|0:3,0:0:0:0:
46,219,27718,6,0,L|200:208,1,127.50000243187,6|0,1:2|1:0,0:0:0:0:
178,292,28302,2,0,L|24:303,1,127.50000243187,10|2,0:0|1:2,0:0:0:0:
173,209,28887,2,0,L|327:198,1,127.50000243187,8|2,0:0|1:2,0:0:0:0:
307,282,29471,6,0,L|234:288,2,63.7500012159348,4|0|10,0:3|0:0|0:0,0:0:0:0:
376,235,30056,2,0,P|381:195|373:165,1,63.7500012159348,0|2,0:0|1:2,0:0:0:0:
318,113,30445,1,8,0:3:0:0:
168,41,30835,6,0,L|160:187,1,127.50000243187,2|0,1:2|1:0,0:0:0:0:
81,139,31419,2,0,L|89:-7,1,127.50000243187,10|2,0:0|1:2,0:0:0:0:
161,168,32004,2,0,L|153:314,1,127.50000243187,4|2,0:3|1:2,0:0:0:0:
71,311,32588,6,0,L|76:220,1,63.7500012159348,2|0,0:0|1:0,0:0:0:0:
161,168,32978,2,0,P|239:161|270:222,1,127.50000243187,10|2,0:0|1:2,0:0:0:0:
348,197,33562,2,0,P|361:161|353:116,1,63.7500012159348,8|2,0:0|0:0,0:0:0:0:
345,53,33952,6,0,L|203:68,1,127.50000243187,2|0,1:2|1:0,0:0:0:0:
232,149,34536,2,0,L|374:134,1,127.50000243187,10|2,0:0|1:2,0:0:0:0:
414,198,35121,2,0,P|425:246|420:275,1,63.7500012159348,4|0,0:3|0:0,0:0:0:0:
365,319,35510,6,0,P|300:323|244:267,1,127.50000243187,2|0,1:2|1:0,0:0:0:0:
266,203,36095,1,10,0:0:0:0:
102,227,36484,1,2,1:2:0:0:
102,227,36679,2,0,L|111:309,1,63.7500012159348,8|2,0:0|1:2,0:0:0:0:
34,328,37069,6,0,L|11:160,1,142.49999619484,4|10,1:2|0:0,0:0:0:0:
54,108,37653,2,0,P|89:92|131:99,1,71.2499980974198,0|2,0:0|1:2,0:0:0:0:
192,146,38043,1,0,1:0:0:0:
192,146,38237,1,8,0:0:0:0:
260,200,38432,6,0,P|339:210|388:153,1,142.49999619484,6|0,1:2|1:0,0:0:0:0:
293,62,39017,2,0,L|310:154,1,71.2499980974198,10|0,0:0|0:0,0:0:0:0:
213,83,39406,2,0,L|230:175,1,71.2499980974198,10|8,0:0|0:3,0:0:0:0:
132,104,39796,2,0,L|149:196,1,71.2499980974198,4|0,0:3|1:0,0:0:0:0:
82,228,40186,6,0,P|123:208|205:251,1,134.999995880127,4|0,1:0|0:0,0:0:0:0:
257,308,40770,1,0,1:0:0:0:
257,308,40965,2,0,L|249:388,1,67.4999979400635,10|4,0:0|0:3,0:0:0:0:
416,319,41549,2,0,L|401:169,2,134.999995880127,2|10|0,1:2|0:0|1:0,0:0:0:0:
332,290,42523,2,0,P|322:252|334:202,1,67.4999979400635,10|0,0:0|0:3,0:0:0:0:
402,184,42913,2,0,P|403:149|391:117,1,67.4999979400635,2|0,1:2|0:0,0:0:0:0:
319,69,43302,6,0,L|175:77,1,134.999995880127,6|0,1:2|0:0,0:0:0:0:
98,56,43887,1,0,1:0:0:0:
98,56,44082,2,0,L|106:123,1,67.4999979400635,10|4,0:0|0:3,0:0:0:0:
173,286,44666,2,0,L|18:270,2,134.999995880127,2|10|0,1:2|0:0|1:0,0:0:0:0:
250,245,45640,2,0,P|260:293|250:330,1,67.4999979400635,8|4,0:0|3:0,0:0:0:0:
193,372,46030,1,8,0:0:0:0:
377,367,46419,6,0,L|384:218,1,142.49999619484,6|10,1:2|0:0,0:0:0:0:
450,167,47004,2,0,P|382:189|309:139,1,142.49999619484,2|0,1:2|1:0,0:0:0:0:
356,77,47588,2,0,P|398:71|447:102,1,71.2499980974198,10|0,0:0|0:0,0:0:0:0:
321,158,47978,6,0,B|283:189|283:189|169:178,1,142.49999619484,2|8,1:2|0:0,0:0:0:0:
133,112,48562,2,0,P|80:110|40:204,1,142.49999619484,2|0,1:2|1:0,0:0:0:0:
107,227,49147,2,0,P|143:264|145:299,1,71.2499980974198,8|0,0:0|1:0,0:0:0:0:
78,337,49536,6,0,L|246:324,1,142.49999619484,6|2,1:2|1:2,0:0:0:0:
227,238,50121,2,0,L|369:248,1,142.49999619484,10|0,0:0|1:0,0:0:0:0:
381,335,50705,2,0,L|459:323,1,71.2499980974198,10|0,0:0|0:0,0:0:0:0:
511,220,51095,6,0,P|526:149|459:100,1,142.49999619484,14|0,0:0|1:2,0:0:0:0:
395,125,51679,2,0,P|380:196|447:245,1,142.49999619484,10|2,0:0|1:2,0:0:0:0:
511,220,52263,1,0,1:0:0:0:
473,95,52458,6,0,B|432:107|403:88|403:88|362:63|317:88,1,150,14|10,0:1|0:1,0:0:0:0:
329,82,53043,1,10,0:1:0:0:
79,328,54212,6,0,L|71:247,1,75,4|0,1:0|0:0,0:0:0:0:
158,223,54601,2,0,L|166:304,1,75,10|0,0:0|0:0,0:0:0:0:
165,297,54893,1,0,1:0:0:0:
165,297,54991,2,0,P|233:313|266:295,1,75,4|0,0:3|1:0,0:0:0:0:
357,263,55380,1,10,0:0:0:0:
318,347,55575,6,0,L|298:186,1,150,2|0,1:2|1:2,0:0:0:0:
363,131,56160,2,0,P|406:128|448:168,1,75,10|0,0:0|0:0,0:0:0:0:
432,143,56452,1,0,1:0:0:0:
432,143,56549,1,4,0:3:0:0:
393,232,56744,1,2,1:0:0:0:
393,232,56939,1,10,0:1:0:0:
302,214,57134,1,0,0:0:0:0:
238,277,57328,6,0,P|186:298|157:294,1,75,2|0,1:2|1:2,0:0:0:0:
146,208,57718,2,0,P|198:187|227:191,1,75,8|2,0:0|1:2,0:0:0:0:
222,96,58108,2,0,P|142:101|68:157,1,150,2|10,0:0|0:0,0:0:0:0:
144,200,58692,6,0,P|196:179|225:183,1,75,2|0,1:2|0:0,0:0:0:0:
239,270,59082,2,0,P|187:291|158:287,1,75,2|8,1:2|0:0,0:0:0:0:
303,203,59471,1,2,1:2:0:0:
303,203,59666,2,0,P|355:182|384:186,1,75,4|2,0:3|1:2,0:0:0:0:
398,273,60056,2,0,P|346:294|317:290,1,75,10|0,0:0|1:2,0:0:0:0:
328,292,60348,1,0,1:0:0:0:
328,292,60445,6,0,L|342:384,1,75,6|0,1:2|0:0,0:0:0:0:
246,365,60835,2,0,L|232:273,1,75,10|0,0:0|0:0,0:0:0:0:
234,290,61127,1,0,1:0:0:0:
234,290,61225,2,0,P|190:274|149:284,1,75,4|0,0:3|1:0,0:0:0:0:
39,313,61614,1,10,0:0:0:0:
97,384,61809,6,0,L|76:216,1,150,2|2,1:2|1:2,0:0:0:0:
157,188,62393,2,0,P|169:143|163:106,1,75,8|2,0:0|0:0,0:0:0:0:
166,115,62686,1,0,1:0:0:0:
166,115,62783,1,4,0:3:0:0:
114,38,62978,1,2,1:0:0:0:
114,38,63173,2,0,P|161:22|214:42,1,75,10|0,0:1|0:0,0:0:0:0:
252,88,63562,6,0,L|246:164,1,75,4|2,1:2|1:2,0:0:0:0:
338,170,63952,2,0,L|344:94,1,75,8|2,0:0|0:0,0:0:0:0:
431,123,64341,1,2,1:2:0:0:
431,123,64439,1,4,0:3:0:0:
431,123,64536,2,0,L|426:179,2,37.5,8|8|8,0:3|0:3|0:0,0:0:0:0:
343,95,64926,6,0,P|290:85|234:161,1,150,4|0,1:0|1:0,0:0:0:0:
288,226,65510,2,0,L|280:303,1,75,8|2,0:0|0:0,0:0:0:0:
187,309,65900,2,0,L|195:232,1,75,0|10,1:0|0:0,0:0:0:0:
102,243,66289,2,0,L|94:320,1,75,4|10,0:3|0:0,0:0:0:0:
56,164,66679,6,0,P|97:150|138:162,1,75,4|0,1:0|0:0,0:0:0:0:
191,222,67069,2,0,P|232:236|273:224,1,75,10|0,0:0|0:0,0:0:0:0:
262,229,67361,1,0,1:0:0:0:
262,229,67458,2,0,L|266:143,1,75,4|0,0:3|1:0,0:0:0:0:
289,25,67848,1,10,0:0:0:0:
212,77,68043,6,0,P|290:121|356:91,1,150,2|0,1:2|1:0,0:0:0:0:
415,47,68627,2,0,P|433:94|426:135,1,75,10|0,0:0|0:0,0:0:0:0:
431,117,68919,1,0,1:0:0:0:
431,117,69017,1,4,0:3:0:0:
373,189,69212,1,2,1:0:0:0:
373,189,69406,1,10,0:1:0:0:
282,171,69601,1,0,0:0:0:0:
254,82,69796,6,0,L|161:77,1,75,2|0,1:2|1:0,0:0:0:0:
144,163,70186,2,0,L|50:168,1,75,10|2,0:0|1:2,0:0:0:0:
4,102,70575,2,0,L|31:270,1,150,2|10,0:0|0:0,0:0:0:0:
102,305,71160,6,0,P|149:304|176:283,1,75,2|0,1:2|0:0,0:0:0:0:
241,228,71549,2,0,P|288:229|315:250,1,75,2|8,1:2|0:0,0:0:0:0:
156,198,71939,1,2,0:0:0:0:
156,198,72134,2,0,P|142:148|154:110,1,75,4|2,0:3|1:2,0:0:0:0:
226,81,72523,2,0,P|240:131|228:169,1,75,10|2,0:0|1:2,0:0:0:0:
345,238,72913,6,0,L|443:227,1,75,6|0,1:2|0:0,0:0:0:0:
402,138,73302,2,0,L|304:149,1,75,10|0,0:0|0:0,0:0:0:0:
327,146,73595,1,0,1:0:0:0:
327,146,73692,2,0,P|309:96|315:66,1,75,4|0,0:3|1:0,0:0:0:0:
424,5,74082,1,10,0:0:0:0:
461,89,74276,6,0,L|295:74,1,150,2|0,1:2|1:0,0:0:0:0:
245,141,74861,2,0,P|187:159|160:151,1,75,8|2,0:0|0:0,0:0:0:0:
174,156,75153,1,0,1:0:0:0:
174,156,75250,1,4,0:3:0:0:
99,102,75445,1,2,1:0:0:0:
99,102,75640,2,0,P|84:148|92:187,1,75,10|0,0:1|0:0,0:0:0:0:
146,284,76030,6,0,L|315:272,1,150,12|0,0:1|1:0,0:0:0:0:
383,302,76614,1,12,0:1:0:0:
402,211,76809,1,2,1:2:0:0:
402,211,76906,1,4,0:3:0:0:
402,211,77004,2,0,L|411:149,2,37.5,4|8|4,0:3|0:3|0:3,0:0:0:0:
314,181,77393,1,8,0:3:0:0:
314,181,77491,1,8,0:3:0:0:
314,181,77588,6,0,L|333:30,1,150,4|8,1:0|0:0,0:0:0:0:
249,67,78173,2,0,P|184:82|104:50,1,150,2|0,1:2|1:0,0:0:0:0:
20,33,78757,2,0,L|28:118,1,75,10|0,0:0|0:0,0:0:0:0:
97,164,79147,5,2,1:2:0:0:
97,164,79341,2,0,L|89:249,1,75,0|8,1:0|0:0,0:0:0:0:
17,293,79731,2,0,P|94:274|154:328,1,150,2|0,1:2|1:0,0:0:0:0:
146,313,80315,1,10,0:0:0:0:
325,333,80705,6,0,L|335:178,1,150,6|8,1:2|0:0,0:0:0:0:
247,161,81289,2,0,L|237:316,1,150,2|0,1:2|1:0,0:0:0:0:
147,320,81874,2,0,L|152:221,1,75,10|0,0:0|0:0,0:0:0:0:
17,202,82263,5,2,1:2:0:0:
17,202,82458,2,0,P|64:180|105:188,1,75,0|8,1:0|0:0,0:0:0:0:
150,245,82848,2,0,P|117:177|150:98,1,150,2|0,1:2|1:0,0:0:0:0:
229,206,83432,2,0,P|235:161|199:111,1,75,10|2,0:0|1:2,0:0:0:0:
224,134,83725,1,0,1:0:0:0:
224,134,83822,6,0,L|397:119,1,150,4|8,1:2|0:0,0:0:0:0:
381,28,84406,2,0,L|208:43,1,150,0|0,1:0|1:0,0:0:0:0:
231,40,84991,1,8,0:0:0:0:
129,147,85186,6,0,P|150:81|98:13,1,150,12|2,0:1|1:2,0:0:0:0:
58,92,85770,1,10,0:0:0:0:
88,269,86160,5,2,1:2:0:0:
88,269,86257,1,4,0:3:0:0:
88,269,86354,2,0,L|152:262,4,37.5,4|8|8|8|4,0:3|0:3|0:0|0:3|0:3,0:0:0:0:
8,226,86939,1,4,1:0:0:0:
256,192,87036,12,0,89276,0:0:0:0:
