osu file format v14

[General]
AudioFilename: audio.mp3
AudioLeadIn: 0
PreviewTime: 53140
Countdown: 0
SampleSet: Soft
StackLeniency: 0.4
Mode: 0
LetterboxInBreaks: 0
WidescreenStoryboard: 0

[Editor]
DistanceSpacing: 1.3
BeatDivisor: 4
GridSize: 32
TimelineZoom: 1

[Metadata]
Title:Seishun Prologue
TitleUnicode:青春プロローグ
Artist:Moso Calibration
ArtistUnicode:妄想キャリブレーション
Creator:Left
Version:Flat
Source:冴えない彼女の育てかた♭
Tags:Mousou Saenai Heroine no Sodatekata Flat Saekano How to Raise a Boring Girlfriend TV Size Shad0w1and 加藤恵 Kato Megumi
BeatmapID:1345821
BeatmapSetID:634231

[Difficulty]
HPDrainRate:6
CircleSize:4.2
OverallDifficulty:8
ApproachRate:8.8
SliderMultiplier:1.7
SliderTickRate:1

[Events]
//Background and Video events
0,0,"BG.jpg",0,0
Video,0,"optc.flv"
//Break Periods
//Storyboard Layer 0 (Background)
//Storyboard Layer 1 (Fail)
//Storyboard Layer 2 (Pass)
//Storyboard Layer 3 (Foreground)
//Storyboard Sound Samples

[TimingPoints]
1225,389.61038961039,4,2,1,45,1,0
1225,-111.111111111111,4,2,1,45,0,0
2783,-128.205128205128,4,2,1,45,0,0
4341,-181.818181818182,4,2,1,45,0,0
4926,-181.818181818182,4,2,1,55,0,0
5510,-66.6666666666667,4,2,1,55,0,0
5900,-80,4,2,1,70,0,0
6484,-90.9090909090909,4,2,1,70,0,0
8043,-80,4,2,1,70,0,0
9601,-90.9090909090909,4,2,1,70,0,0
11160,-76.9230769230769,4,2,1,70,0,0
12718,-90.9090909090909,4,2,1,70,0,0
13497,-71.4285714285714,4,2,1,70,0,0
13789,-71.4285714285714,4,2,1,5,0,0
13887,-71.4285714285714,4,2,1,70,0,0
13984,-71.4285714285714,4,2,1,5,0,0
14082,-71.4285714285714,4,2,1,70,0,0
15250,-117.647058823529,4,2,1,50,0,0
27328,-117.647058823529,4,2,1,40,0,0
27718,-117.647058823529,4,2,1,60,0,0
29179,-117.647058823529,4,2,1,5,0,0
29276,-117.647058823529,4,2,1,60,0,0
35413,-117.647058823529,4,2,1,5,0,0
35510,-117.647058823529,4,2,1,60,0,0
36387,-117.647058823529,4,2,1,5,0,0
36484,-117.647058823529,4,2,1,60,0,0
38432,-111.111111111111,4,2,1,60,0,0
39017,-142.857142857143,4,2,1,60,0,0
39406,-86.9565217391304,4,2,1,60,0,0
40186,-200,4,2,1,60,0,0
41160,-133.333333333333,4,2,1,60,0,0
41549,-200,4,2,1,60,0,0
44276,-133.333333333333,4,2,1,60,0,0
44471,-200,4,2,1,60,0,0
46322,-200,4,2,1,5,0,0
46419,-100,4,2,1,65,0,0
52458,-76.9230769230769,4,2,1,65,0,0
52750,-76.9230769230769,4,2,1,5,0,0
52848,-76.9230769230769,4,2,1,65,0,0
54212,-76.9230769230769,4,2,1,75,0,1
54504,-76.9230769230769,4,2,1,5,0,1
54601,-86.9565217391304,4,2,1,75,0,1
55575,-80,4,2,1,75,0,1
56160,-86.9565217391304,4,2,1,75,0,1
56744,-86.9565217391304,4,2,2,75,0,1
57134,-86.9565217391304,4,2,1,75,0,1
58692,-80,4,2,1,75,0,1
58984,-80,4,2,1,5,0,1
59082,-80,4,2,1,75,0,1
59276,-86.9565217391304,4,2,1,75,0,1
60445,-80,4,2,1,75,0,1
60737,-80,4,2,1,5,0,1
60835,-86.9565217391304,4,2,1,75,0,1
61809,-80,4,2,1,75,0,1
62393,-86.9565217391304,4,2,1,75,0,1
62978,-86.9565217391304,4,2,2,75,0,1
63367,-86.9565217391304,4,2,1,75,0,1
64926,-76.9230769230769,4,2,1,75,0,1
66971,-76.9230769230769,4,2,1,5,0,1
67069,-86.9565217391304,4,2,1,75,0,1
68043,-80,4,2,1,75,0,1
68627,-86.9565217391304,4,2,1,75,0,1
69212,-86.9565217391304,4,2,2,75,0,1
69796,-86.9565217391304,4,2,1,75,0,1
71160,-80,4,2,1,75,0,1
71452,-80,4,2,1,5,0,1
71549,-80,4,2,1,75,0,1
71744,-86.9565217391304,4,2,1,75,0,1
72913,-80,4,2,1,75,0,1
73205,-80,4,2,1,5,0,1
73302,-86.9565217391304,4,2,1,75,0,1
74276,-80,4,2,1,75,0,1
74861,-86.9565217391304,4,2,1,75,0,1
75445,-86.9565217391304,4,2,2,75,0,1
76030,-76.9230769230769,4,2,1,75,0,1
77588,-76.9230769230769,4,2,1,70,0,0
78173,-90.9090909090909,4,2,1,70,0,0
80705,-80,4,2,1,70,0,0
81289,-90.9090909090909,4,2,1,70,0,0
82848,-76.9230769230769,4,2,1,70,0,0
84406,-90.9090909090909,4,2,1,70,0,0
85186,-71.4285714285714,4,2,1,70,0,0
85478,-71.4285714285714,4,2,1,5,0,0
85575,-71.4285714285714,4,2,1,70,0,0
85673,-71.4285714285714,4,2,1,5,0,0
85770,-71.4285714285714,4,2,1,70,0,0
89276,-71.4285714285714,4,2,1,5,0,0

[Colours]
Combo1 : 255,245,121
Combo2 : 45,255,182
Combo3 : 106,173,255
Combo4 : 254,129,163

[HitObjects]
80,177,1225,6,0,B|117:203|234:332|12:490|-55:223|90:211|124:227|165:261|165:261|205:292|259:269,1,458.999985992432,6|0,0:0|0:0,0:0:0:0:
276,140,2783,6,0,P|211:111|238:201,2,198.900006676941,2|2|0,0:0|0:0|0:0,0:0:0:0:
119,219,4341,6,0,P|98:166|112:121,1,93.5000028533936,2|0,0:0|0:0,0:0:0:0:
182,103,4926,2,0,L|186:63,2,23.3750007133484,0|0|4,1:0|1:0|0:3,0:0:0:0:
162,257,5315,1,0,1:0:0:0:
115,195,5510,6,0,P|191:184|237:233,1,127.500004863739,8|0,0:0|0:0,0:0:0:0:
294,301,5802,1,0,0:0:0:0:
294,301,5900,6,0,P|246:219|331:179,1,212.5,4|8,1:0|0:0,0:0:0:0:
409,218,6484,2,0,B|426:170|401:128|401:128|364:83|399:14,1,187.000005706787,0|2,1:2|1:2,0:0:0:0:
493,199,7069,2,0,P|455:223|394:208,1,93.5000028533936,8|0,0:0|0:0,0:0:0:0:
276,153,7458,5,2,1:2:0:0:
326,363,7653,2,0,P|346:308|316:255,1,93.5000028533936,0|8,1:0|0:0,0:0:0:0:
61,230,8043,2,0,B|99:186|159:208|159:208|201:261|282:231,1,212.5,2|0,1:2|1:0,0:0:0:0:
326,186,8627,1,10,0:0:0:0:
260,331,8822,1,0,0:0:0:0:
263,135,9017,6,0,B|235:125|216:95|216:95|259:172|251:275,1,212.5,6|8,1:2|0:0,0:0:0:0:
408,298,9601,2,0,P|357:267|303:301,1,93.5000028533936,2|0,1:2|0:0,0:0:0:0:
257,327,9991,1,2,1:2:0:0:
215,161,10186,2,0,P|253:208|239:264,1,93.5000028533936,8|0,0:0|0:0,0:0:0:0:
0,294,10575,5,2,1:2:0:0:
133,131,10770,1,0,1:0:0:0:
257,327,10965,1,8,0:0:0:0:
42,218,11160,2,0,B|95:194|143:225|143:225|198:264|256:236,1,220.999989883423,2|0,1:2|1:0,0:0:0:0:
302,84,11744,1,10,0:0:0:0:
420,292,11939,1,0,1:0:0:0:
420,292,12036,1,0,1:0:0:0:
420,292,12134,6,0,P|367:270|280:387,1,220.999989883423,6|8,1:2|0:0,0:0:0:0:
367,362,12718,2,0,P|449:376|504:270,1,187.000005706787,2|0,1:2|1:0,0:0:0:0:
473,215,13302,1,8,0:0:0:0:
224,285,13497,6,0,B|222:242|210:221|210:221|226:175|226:175|211:145|210:67,1,178.499994552612,12|0,0:1|0:0,0:0:0:0:
289,87,13887,6,0,P|302:123|306:175,1,59.4999981842042,2|0,1:2|0:0,0:0:0:0:
308,311,14082,1,10,0:0:0:0:
48,299,15250,6,0,P|87:318|127:308,1,72.2500013780594,6|0,0:0|0:0,0:0:0:0:
186,281,15640,1,2,0:0:0:0:
120,232,15835,5,0,0:0:0:0:
122,324,16030,1,0,0:0:0:0:
195,277,16225,1,2,0:0:0:0:
112,239,16419,5,0,0:0:0:0:
129,328,16614,1,0,0:0:0:0:
198,269,16809,1,2,0:0:0:0:
104,245,17004,5,0,0:0:0:0:
136,329,17199,1,0,0:0:0:0:
193,259,17394,1,2,0:0:0:0:
97,254,17588,5,0,0:0:0:0:
143,331,17783,1,0,0:0:0:0:
187,252,17978,1,2,0:0:0:0:
416,82,18367,6,0,P|434:134|424:168,1,72.2500013780594,2|0,0:0|0:0,0:0:0:0:
379,213,18757,1,2,0:0:0:0:
353,136,18951,5,0,0:0:0:0:
434,159,19146,1,0,0:0:0:0:
373,217,19341,1,2,0:0:0:0:
360,130,19536,5,0,0:0:0:0:
435,166,19731,1,0,0:0:0:0:
365,213,19926,1,2,0:0:0:0:
369,126,20121,5,0,0:0:0:0:
436,174,20316,1,0,0:0:0:0:
359,208,20511,1,2,0:0:0:0:
377,125,20705,5,0,0:0:0:0:
434,183,20900,1,0,0:0:0:0:
352,204,21095,1,2,0:0:0:0:
259,89,21484,6,0,B|223:64|183:75|183:75|161:106|106:103,1,144.500002756119,2|0,0:0|0:0,0:0:0:0:
53,51,22069,2,0,P|93:108|63:186,2,144.500002756119,2|2|0,0:0|0:0|0:0,0:0:0:0:
0,219,23043,6,0,P|66:207|121:278,1,144.500002756119,2|0,0:0|0:0,0:0:0:0:
42,286,23627,1,2,0:0:0:0:
256,350,24017,1,2,0:0:0:0:
256,350,24212,2,0,P|270:311|299:292,1,72.2500013780594,2|0,0:0|0:0,0:0:0:0:
368,260,24601,6,0,L|217:244,1,144.500002756119,2|0,0:0|0:0,0:0:0:0:
177,175,25186,2,0,P|202:127|296:140,1,144.500002756119,2|2,0:0|0:0,0:0:0:0:
371,158,25770,2,0,P|357:116|364:80,1,72.2500013780594,2|0,0:0|0:0,0:0:0:0:
435,49,26160,6,0,P|471:96|447:182,1,144.500002756119,2|0,0:0|0:0,0:0:0:0:
175,147,26744,5,8,0:0:0:0:
177,127,26939,1,8,0:3:0:0:
180,108,27134,1,4,0:3:0:0:
101,128,27328,5,8,0:3:0:0:
103,108,27523,1,4,0:3:0:0:
27,108,27718,6,0,B|61:121|95:106|95:106|141:79|188:110,1,144.500002756119,6|0,1:2|1:0,0:0:0:0:
207,235,28302,2,0,P|172:198|172:151,1,72.2500013780594,10|0,0:0|0:0,0:0:0:0:
166,98,28692,1,2,1:2:0:0:
98,141,28887,2,0,P|42:142|-1:89,1,108.375002067089,8|0,0:0|0:0,0:0:0:0:
13,92,29276,5,2,1:2:0:0:
161,250,29471,2,0,L|169:161,1,72.2500013780594,4|0,0:3|0:0,0:0:0:0:
213,41,29861,2,0,L|219:112,1,72.2500013780594,10|0,0:0|0:0,0:0:0:0:
243,263,30250,1,2,1:2:0:0:
243,263,30445,2,0,L|251:174,1,72.2500013780594,8|0,0:3|0:0,0:0:0:0:
368,61,30835,6,0,P|424:112|494:88,1,144.500002756119,2|0,1:2|1:0,0:0:0:0:
395,180,31419,2,0,P|411:106|355:57,1,144.500002756119,10|2,0:0|1:2,0:0:0:0:
484,96,32004,2,0,P|415:117|395:183,1,144.500002756119,4|2,0:3|1:2,0:0:0:0:
421,334,32588,5,2,0:0:0:0:
346,306,32783,1,0,1:0:0:0:
239,357,32978,2,0,P|286:379|321:370,1,72.2500013780594,10|0,0:0|0:0,0:0:0:0:
474,276,33367,1,2,1:2:0:0:
474,276,33562,2,0,P|443:256|408:256,1,72.2500013780594,8|2,0:0|0:0,0:0:0:0:
264,181,33952,6,0,L|275:29,1,144.500002756119,2|0,1:2|1:0,0:0:0:0:
190,81,34536,2,0,P|122:98|57:33,1,144.500002756119,10|2,0:0|1:2,0:0:0:0:
264,181,35121,2,0,P|311:148|373:167,1,108.375002067089,4|0,0:3|0:0,0:0:0:0:
274,198,35510,6,0,P|206:215|141:150,1,144.500002756119,2|0,1:2|1:0,0:0:0:0:
350,297,36095,2,0,P|397:264|459:283,1,108.375002067089,10|0,0:0|0:0,0:0:0:0:
457,282,36484,1,2,1:2:0:0:
350,297,36679,1,8,0:0:0:0:
246,312,36874,1,2,1:2:0:0:
244,329,36971,1,0,1:0:0:0:
241,347,37069,5,4,1:2:0:0:
164,340,37263,1,2,0:0:0:0:
88,331,37458,2,0,P|73:293|96:234,1,72.2500013780594,10|0,0:0|0:0,0:0:0:0:
139,214,37848,1,2,1:2:0:0:
139,214,38043,2,0,P|154:252|131:311,1,72.2500013780594,0|8,1:0|0:0,0:0:0:0:
65,188,38432,6,0,B|123:202|156:166|156:166|196:158|228:183,1,152.999995330811,6|0,1:2|1:0,0:0:0:0:
277,211,39017,6,0,P|287:178|282:142,1,59.4999981842042,10|0,0:0|0:0,0:0:0:0:
357,240,39406,6,0,P|372:194|362:124,1,97.7500018644333,10|8,0:0|0:3,0:0:0:0:
436,271,39796,5,4,0:3:0:0:
467,203,39991,5,0,1:0:0:0:
448,132,40186,6,0,P|427:69|453:13,1,127.5,4|0,1:0|1:0,0:0:0:0:
395,270,40965,5,10,0:0:0:0:
395,270,41160,2,0,P|371:286|334:290,1,63.7500024318696,4|0,0:3|0:0,0:0:0:0:
206,213,41549,6,0,P|247:209|296:244,2,85,2|10|0,1:2|0:0|1:0,0:0:0:0:
73,318,42523,1,10,0:0:0:0:
98,249,42718,1,0,0:3:0:0:
89,208,42913,1,2,1:2:0:0:
68,179,43108,1,0,0:0:0:0:
49,169,43302,6,0,P|113:178|164:130,1,127.5,6|0,1:2|1:0,0:0:0:0:
144,6,44082,5,10,0:0:0:0:
144,6,44276,2,0,P|170:41|173:78,1,63.7500024318696,4|0,0:3|0:0,0:0:0:0:
79,150,44666,6,0,P|77:108|94:70,2,85,2|10|0,1:2|0:0|1:0,0:0:0:0:
263,254,45640,1,8,0:0:0:0:
263,234,45835,1,4,3:0:0:0:
269,217,46030,2,0,P|223:232|198:227,1,63.75,8|0,0:0|0:0,0:0:0:0:
186,218,46419,6,0,P|203:267|197:307,1,85,6|0,1:2|0:0,0:0:0:0:
95,171,46809,1,10,0:0:0:0:
95,171,47004,2,0,P|174:187|231:129,1,170,2|0,1:2|1:0,0:0:0:0:
369,222,47588,2,0,P|320:193|280:203,1,85,10|0,0:0|0:0,0:0:0:0:
172,345,47978,6,0,P|213:344|246:319,1,85,2|0,1:2|1:0,0:0:0:0:
149,175,48367,1,8,0:0:0:0:
119,257,48562,2,0,B|160:271|201:246|201:246|242:220|292:246,1,170,2|0,1:2|1:0,0:0:0:0:
407,335,49147,1,8,0:0:0:0:
368,115,49341,5,0,1:0:0:0:
368,115,49439,1,0,1:0:0:0:
368,115,49536,2,0,P|348:160|359:212,1,85,6|0,1:2|0:0,0:0:0:0:
477,287,49926,1,2,1:2:0:0:
368,115,50121,2,0,B|321:79|273:96|273:96|252:129|193:136,1,170,10|0,0:0|1:0,0:0:0:0:
118,35,50705,2,0,P|182:36|209:73,1,85,10|0,0:0|0:0,0:0:0:0:
213,260,51095,5,14,0:0:0:0:
10,193,51289,1,2,1:2:0:0:
10,193,51387,1,0,1:2:0:0:
10,193,51484,1,0,1:2:0:0:
174,17,51679,2,0,P|198:78|184:115,1,85,10|0,0:0|0:0,0:0:0:0:
133,161,52069,1,2,1:2:0:0:
111,78,52263,1,0,1:0:0:0:
387,175,52458,6,0,P|404:231|321:302,1,165.749992412568,14|0,0:0|0:0,0:0:0:0:
320,295,52848,1,10,0:0:0:0:
338,25,53043,1,10,0:0:0:0:
92,71,54212,6,0,B|113:64|128:42|128:42|106:97|107:181,1,165.749992412568,4|0,1:0|0:0,0:0:0:0:
98,176,54601,2,0,P|48:177|11:135,1,97.7500018644333,10|0,0:0|0:0,0:0:0:0:
15,145,54893,1,0,1:0:0:0:
15,145,54991,1,4,0:3:0:0:
143,24,55186,2,0,P|169:85|147:135,1,97.7500018644333,2|8,1:2|0:0,0:0:0:0:
77,295,55575,6,0,B|115:239|188:261|188:261|216:298|270:295,1,212.5,2|0,1:2|1:0,0:0:0:0:
341,182,56160,2,0,P|281:183|253:231,1,97.7500018644333,8|2,0:0|0:0,0:0:0:0:
258,208,56452,1,0,1:0:0:0:
258,208,56549,1,4,0:3:0:0:
218,28,56744,5,2,1:0:0:0:
218,28,56939,2,0,L|238:138,1,97.7500018644333,10|0,0:1|0:0,0:0:0:0:
216,232,57328,5,2,1:2:0:0:
333,90,57523,1,0,1:0:0:0:
140,156,57718,1,10,0:0:0:0:
313,195,57913,1,0,1:0:0:0:
140,156,58108,5,2,0:0:0:0:
157,237,58302,1,0,1:0:0:0:
173,316,58497,1,10,0:0:0:0:
216,108,58692,6,0,B|169:91|136:116|136:116|96:139|35:115,1,159.375,2|0,1:2|0:0,0:0:0:0:
51,108,59082,1,2,1:2:0:0:
203,186,59276,2,0,P|264:181|290:145,1,97.7500018644333,8|2,0:0|1:2,0:0:0:0:
285,155,59569,1,0,1:0:0:0:
285,155,59666,1,4,0:3:0:0:
147,121,59861,1,2,1:2:0:0:
232,336,60056,1,10,0:0:0:0:
453,258,60250,5,2,1:2:0:0:
453,258,60348,1,0,1:0:0:0:
453,258,60445,2,0,P|391:208|314:244,1,159.375,6|0,1:2|0:0,0:0:0:0:
313,249,60835,2,0,P|310:299|347:348,1,97.7500018644333,10|0,0:0|0:0,0:0:0:0:
334,338,61127,1,0,1:0:0:0:
334,338,61225,1,4,0:3:0:0:
470,232,61419,2,0,P|420:198|365:206,1,97.7500018644333,2|8,1:2|0:0,0:0:0:0:
239,286,61809,6,0,B|302:240|277:170|277:170|242:146|247:98,1,212.5,2|0,1:2|1:0,0:0:0:0:
340,18,62393,2,0,P|352:59|311:117,1,97.7500018644333,8|2,0:0|0:0,0:0:0:0:
329,107,62686,1,0,1:0:0:0:
329,107,62783,1,4,0:3:0:0:
162,31,62978,5,2,1:0:0:0:
162,31,63173,2,0,L|283:51,1,97.7500018644333,10|0,0:1|0:0,0:0:0:0:
105,132,63562,5,4,1:2:0:0:
340,65,63757,1,2,1:2:0:0:
258,272,63952,1,10,0:0:0:0:
208,24,64147,1,2,0:0:0:0:
60,70,64342,1,2,1:2:0:0:
34,100,64439,1,4,0:3:0:0:
27,140,64536,1,8,0:3:0:0:
41,178,64634,1,8,0:3:0:0:
72,204,64731,1,8,0:0:0:0:
111,211,64829,1,8,0:0:0:0:
151,192,64926,6,0,P|248:220|227:333,1,220.999989883423,4|0,1:0|1:0,0:0:0:0:
178,266,65510,1,10,0:0:0:0:
365,186,65705,1,2,0:0:0:0:
342,354,65900,1,0,1:0:0:0:
314,353,65997,1,4,0:3:0:0:
287,348,66094,1,10,0:0:0:0:
261,337,66192,1,8,0:3:0:0:
238,322,66289,1,4,0:3:0:0:
315,83,66484,1,10,0:0:0:0:
361,84,66582,1,8,0:3:0:0:
401,109,66679,6,0,B|363:94|324:114|324:114|280:139|238:122,1,165.749992412568,4|0,1:0|0:0,0:0:0:0:
220,118,67069,2,0,P|253:172|236:222,1,97.7500018644333,10|0,0:0|0:0,0:0:0:0:
247,203,67361,1,0,1:0:0:0:
247,203,67458,1,4,0:3:0:0:
98,230,67653,2,0,P|154:265|199:255,1,97.7500018644333,2|8,1:2|0:0,0:0:0:0:
372,277,68043,6,0,P|308:266|251:388,1,212.5,2|0,1:2|1:0,0:0:0:0:
434,331,68627,2,0,P|457:290|430:223,1,97.7500018644333,8|2,0:0|0:0,0:0:0:0:
447,242,68919,1,0,1:0:0:0:
447,242,69017,1,4,0:3:0:0:
363,95,69212,5,2,1:0:0:0:
363,95,69406,2,0,L|376:199,1,97.7500018644333,10|0,0:1|0:0,0:0:0:0:
396,319,69796,5,2,1:2:0:0:
285,155,69991,1,0,1:0:0:0:
466,228,70186,1,10,0:0:0:0:
279,272,70380,1,0,1:0:0:0:
466,228,70575,5,2,0:0:0:0:
446,150,70770,1,0,1:0:0:0:
425,76,70965,1,10,0:0:0:0:
285,155,71160,6,0,P|205:164|161:87,1,159.375,2|0,1:2|0:0,0:0:0:0:
169,88,71549,1,2,1:2:0:0:
115,231,71744,2,0,P|169:235|194:279,1,97.7500018644333,8|2,0:0|0:0,0:0:0:0:
192,267,72036,1,0,1:0:0:0:
192,267,72134,1,4,0:3:0:0:
63,303,72328,1,2,1:2:0:0:
139,94,72523,1,10,0:0:0:0:
346,199,72718,1,2,1:2:0:0:
346,199,72815,1,0,1:0:0:0:
346,199,72913,6,0,B|303:160|251:185|251:185|236:220|167:231,1,159.375,6|0,1:2|0:0,0:0:0:0:
192,218,73302,2,0,P|214:270|199:316,1,97.7500018644333,10|0,0:0|0:0,0:0:0:0:
204,308,73595,1,0,1:0:0:0:
204,308,73692,1,4,0:3:0:0:
109,198,73887,2,0,P|57:237|52:295,1,97.7500018644333,2|8,1:2|0:0,0:0:0:0:
104,57,74276,6,0,P|171:132|268:103,1,212.5,2|0,1:2|1:0,0:0:0:0:
104,57,74861,2,0,P|59:90|-12:67,1,97.7500018644333,8|2,0:0|0:0,0:0:0:0:
19,87,75153,1,0,1:0:0:0:
19,87,75250,1,4,0:3:0:0:
57,258,75445,5,2,1:0:0:0:
57,258,75640,2,0,L|79:154,1,97.7500018644333,10|0,0:1|0:0,0:0:0:0:
214,382,76030,6,0,B|148:367|130:313|130:313|90:361|0:344,1,220.999989883423,12|0,0:1|1:0,0:0:0:0:
98,72,76614,1,12,0:1:0:0:
161,139,76809,1,2,1:2:0:0:
198,156,76906,1,4,0:3:0:0:
239,160,77004,1,4,0:3:0:0:
279,148,77101,1,8,0:3:0:0:
313,125,77199,1,4,0:3:0:0:
348,103,77296,1,4,0:3:0:0:
387,91,77393,1,8,0:3:0:0:
428,94,77490,1,8,0:3:0:0:
466,111,77588,6,0,B|488:190|443:247|443:247|406:216|405:168,1,220.999989883423,4|8,1:0|0:0,0:0:0:0:
297,306,78173,2,0,B|345:285|390:315|390:315|438:348|492:315,1,187.000005706787,2|0,1:2|1:0,0:0:0:0:
329,214,78757,2,0,P|274:217|242:246,1,93.5000028533936,10|0,0:0|0:0,0:0:0:0:
106,190,79147,5,2,1:2:0:0:
133,336,79341,2,0,P|164:288|152:233,1,93.5000028533936,0|8,1:0|0:0,0:0:0:0:
15,165,79731,2,0,B|55:209|106:191|106:191|142:152|205:176,1,187.000005706787,2|0,1:2|1:0,0:0:0:0:
244,284,80315,2,0,P|208:256|140:261,1,93.5000028533936,10|0,0:0|0:0,0:0:0:0:
247,81,80705,6,0,B|269:71|294:43|294:43|259:121|271:208,1,212.5,6|8,1:2|0:0,0:0:0:0:
120,270,81289,2,0,P|171:239|225:273,1,93.5000028533936,2|0,1:2|0:0,0:0:0:0:
284,278,81679,1,2,1:2:0:0:
306,113,81874,2,0,P|268:160|282:216,1,93.5000028533936,8|0,0:0|0:0,0:0:0:0:
512,249,82263,5,2,1:2:0:0:
374,79,82458,1,0,1:0:0:0:
284,278,82653,1,8,0:0:0:0:
475,164,82848,2,0,B|416:138|368:181|368:181|316:220|248:180,1,220.999989883423,2|0,1:2|1:0,0:0:0:0:
56,101,83432,1,10,0:0:0:0:
112,347,83627,1,2,1:2:0:0:
112,347,83725,1,0,1:0:0:0:
112,347,83822,6,0,P|180:265|281:305,1,220.999989883423,4|8,1:2|0:0,0:0:0:0:
359,331,84406,2,0,P|314:378|200:340,1,187.000005706787,2|0,1:2|1:0,0:0:0:0:
175,266,84991,1,8,0:0:0:0:
430,130,85186,6,0,B|437:174|421:207|421:207|443:251|443:251|431:322,1,178.499994552612,12|0,0:1|0:0,0:0:0:0:
359,331,85575,6,0,L|352:252,1,59.4999981842042,2|0,1:2|0:0,0:0:0:0:
339,94,85770,1,10,0:0:0:0:
339,94,86160,5,2,1:2:0:0:
367,113,86257,1,4,0:3:0:0:
377,145,86354,1,4,0:3:0:0:
364,175,86452,1,8,0:3:0:0:
334,190,86549,1,8,0:0:0:0:
302,182,86647,1,8,0:3:0:0:
282,156,86744,1,4,0:3:0:0:
284,122,86841,1,0,1:0:0:0:
328,142,86939,5,4,1:0:0:0:
256,192,87036,12,0,89276,0:0:0:0:
