osu file format v14

[General]
AudioFilename: audio.mp3
AudioLeadIn: 0
PreviewTime: 53140
Countdown: 0
SampleSet: Soft
StackLeniency: 0.7
Mode: 0
LetterboxInBreaks: 0
WidescreenStoryboard: 1

[Editor]
DistanceSpacing: 1
BeatDivisor: 4
GridSize: 32
TimelineZoom: 1

[Metadata]
Title:Seishun Prologue
TitleUnicode:青春プロローグ
Artist:Moso Calibration
ArtistUnicode:妄想キャリブレーション
Creator:Left
Version:Easy
Source:冴えない彼女の育てかた♭
Tags:Mousou Saenai Heroine no Sodatekata Flat Saekano How to Raise a Boring Girlfriend TV Size Shad0w1and 加藤恵 Kato Megumi
BeatmapID:1346264
BeatmapSetID:634231

[Difficulty]
HPDrainRate:2
CircleSize:3
OverallDifficulty:2
ApproachRate:3
SliderMultiplier:0.899999999999999
SliderTickRate:1

[Events]
//Background and Video events
0,0,"BG.jpg",0,0
Video,0,"optc.flv"
//Break Periods
//Storyboard Layer 0 (Background)
//Storyboard Layer 1 (Fail)
//Storyboard Layer 2 (Pass)
//Storyboard Layer 3 (Foreground)
//Storyboard Sound Samples

[TimingPoints]
1225,389.61038961039,4,2,1,45,1,0
4926,-100,4,2,1,55,0,0
5900,-100,4,2,1,70,0,0
15250,-100,4,2,1,50,0,0
27328,-100,4,2,1,40,0,0
27718,-100,4,2,1,60,0,0
52458,-100,4,2,1,65,0,0
54212,-100,4,2,1,75,0,1
77588,-100,4,2,1,70,0,0
89276,-100,4,2,1,5,0,0

[Colours]
Combo1 : 255,245,121
Combo2 : 45,255,182
Combo3 : 106,173,255
Combo4 : 254,129,163

[HitObjects]
23,100,1225,6,0,B|87:71|149:111|149:111|228:156|293:109,1,270,6|0,0:0|0:0,0:0:0:0:
330,43,2783,2,0,P|368:100|346:178,2,135,2|2|0,0:0|0:0|0:0,0:0:0:0:
242,63,4341,2,0,P|232:116|282:194,2,135,2|2|8,0:0|0:0|0:0,0:0:0:0:
155,36,5900,6,0,L|114:225,1,180,4|0,1:0|0:0,0:0:0:0:
94,299,7069,1,8,0:0:0:0:
181,277,7458,2,0,P|244:279|314:323,2,135,2|2|10,1:2|1:2|0:0,0:0:0:0:
128,203,9017,2,0,P|198:146|289:138,1,180,6|0,1:2|0:0,0:0:0:0:
368,169,10186,1,10,0:0:0:0:
419,242,10575,2,0,P|455:177|431:109,2,135,2|2|10,1:2|1:2|0:0,0:0:0:0:
335,276,12134,6,0,L|104:254,1,225,6|0,1:2|1:0,0:0:0:0:
96,165,13497,2,0,L|248:180,1,135,12|10,0:1|0:0,0:0:0:0:
470,47,15250,6,0,B|421:30|380:61|380:61|342:85|291:65,1,180,6|0,0:0|0:0,0:0:0:0:
215,31,16419,1,0,0:0:0:0:
178,113,16809,2,0,L|196:304,1,180,2|0,0:0|0:0,0:0:0:0:
247,365,17978,1,2,0:0:0:0:
284,283,18367,2,0,L|266:92,1,180,2|0,0:0|0:0,0:0:0:0:
193,51,19536,1,0,0:0:0:0:
137,121,19926,2,0,P|85:149|27:55,1,180,2|0,0:0|0:0,0:0:0:0:
105,35,21095,1,2,0:0:0:0:
193,51,21484,6,0,L|339:49,2,135,2|2|2,0:0|0:0|0:0,0:0:0:0:
157,134,23043,2,0,L|11:132,1,135,2|2,0:0|0:0,0:0:0:0:
50,264,24212,1,0,0:0:0:0:
79,348,24601,2,0,L|225:346,2,135,2|2|2,0:0|0:0|0:0,0:0:0:0:
103,261,26160,2,0,P|205:211|295:331,1,270,2|8,0:0|0:3,0:0:0:0:
385,328,27718,6,0,L|403:184,2,135,6|10|8,1:2|0:0|0:0,0:0:0:0:
301,360,29276,2,0,P|237:364|166:329,1,135,2|10,1:2|0:0,0:0:0:0:
139,204,30445,1,10,0:0:0:0:
209,148,30835,2,0,L|199:14,2,135,2|10|4,1:2|0:0|0:3,0:0:0:0:
267,216,32393,2,0,P|347:222|402:188,1,135,2|10,1:2|0:0,0:0:0:0:
448,73,33562,1,10,0:0:0:0:
368,30,33952,6,0,P|298:22|233:68,1,135,2|10,1:2|0:0,0:0:0:0:
187,175,35121,1,4,0:3:0:0:
100,149,35510,2,0,L|113:6,1,135,2|10,1:2|0:0,0:0:0:0:
244,41,36679,1,8,0:0:0:0:
330,64,37069,2,0,L|323:169,1,89.9999999999999,4|10,1:2|0:0,0:0:0:0:
253,209,37848,2,0,P|209:212|163:178,1,89.9999999999999,2|8,1:2|0:0,0:0:0:0:
109,254,38627,2,0,P|188:296|291:287,1,180,0|10,0:0|0:0,0:0:0:0:
354,247,39796,1,4,0:3:0:0:
430,199,40186,6,0,L|414:3,1,180,4|10,1:0|0:0,0:0:0:0:
281,39,41549,2,0,L|267:190,1,135,2|0,1:2|0:0,0:0:0:0:
211,242,42523,2,0,P|261:263|310:249,1,89.9999999999999,10|2,0:0|1:2,0:0:0:0:
355,190,43302,2,0,P|448:170|510:225,1,180,6|10,1:2|0:0,0:0:0:0:
472,350,44666,2,0,L|328:326,1,135,2|0,1:2|0:0,0:0:0:0:
256,290,45640,1,8,0:0:0:0:
174,327,46030,1,8,0:0:0:0:
98,277,46419,6,0,P|64:200|97:115,1,180,6|0,1:2|0:0,0:0:0:0:
169,61,47588,1,10,0:0:0:0:
252,94,47978,2,0,L|407:94,2,135,2|2|8,1:2|1:2|0:0,0:0:0:0:
255,184,49536,2,0,P|321:203|391:179,1,135,6|10,1:2|0:0,0:0:0:0:
447,66,50705,1,10,0:0:0:0:
362,36,51095,2,0,P|290:36|230:87,2,135,14|10|0,0:0|0:0|1:0,0:0:0:0:
398,62,52458,2,0,L|380:204,1,135,14|10,0:1|0:1,0:0:0:0:
154,343,54212,6,0,P|170:311|166:250,1,89.9999999999999,4|10,1:0|0:0,0:0:0:0:
86,221,54991,1,2,1:2:0:0:
171,116,55575,2,0,L|319:102,1,135,2|10,1:2|0:0,0:0:0:0:
376,47,56549,2,0,P|394:94|384:145,1,89.9999999999999,2|8,1:2|0:0,0:0:0:0:
325,196,57328,2,0,P|385:170|477:241,1,180,2|2,1:2|0:0,0:0:0:0:
389,260,58497,1,10,0:0:0:0:
302,284,58887,2,0,L|207:269,1,89.9999999999999,2|8,0:0|0:0,0:0:0:0:
144,211,59666,2,0,P|127:159|140:111,1,89.9999999999999,2|8,1:2|0:0,0:0:0:0:
196,61,60445,6,0,P|158:39|100:46,1,89.9999999999999,6|10,1:2|0:0,0:0:0:0:
48,103,61225,1,2,1:2:0:0:
85,232,61809,2,0,L|226:217,1,135,2|8,1:2|0:0,0:0:0:0:
223,127,62783,2,0,L|131:138,1,89.9999999999999,2|8,1:2|0:0,0:0:0:0:
86,61,63562,2,0,P|162:12|255:49,1,180,4|2,1:2|1:2,0:0:0:0:
342,127,64926,2,0,L|329:272,1,135,4|10,1:0|0:0,0:0:0:0:
273,331,65900,2,0,P|230:337|182:306,1,89.9999999999999,2|4,1:2|0:3,0:0:0:0:
130,247,66679,6,0,P|87:241|39:272,1,89.9999999999999,4|10,1:0|0:0,0:0:0:0:
102,333,67458,1,2,1:2:0:0:
222,271,68043,2,0,L|206:129,1,135,2|8,1:2|0:0,0:0:0:0:
296,147,69017,2,0,L|308:247,1,89.9999999999999,2|8,1:2|0:0,0:0:0:0:
222,271,69796,2,0,B|168:285|135:261|135:261|92:232|36:258,1,180,2|2,1:2|0:0,0:0:0:0:
22,166,70965,1,10,0:0:0:0:
111,155,71354,2,0,L|204:144,1,89.9999999999999,2|8,0:0|0:0,0:0:0:0:
275,195,72134,2,0,P|290:145|280:104,1,89.9999999999999,2|8,1:2|0:0,0:0:0:0:
221,42,72913,6,0,P|263:21|320:28,1,89.9999999999999,6|10,1:2|0:0,0:0:0:0:
370,84,73692,1,2,1:2:0:0:
311,205,74276,2,0,L|173:193,1,135,2|8,1:2|0:0,0:0:0:0:
90,167,75250,2,0,L|96:266,1,89.9999999999999,4|10,0:3|0:0,0:0:0:0:
126,341,76030,2,0,B|56:345|56:345|0:280,2,135,12|12|4,0:1|0:1|0:3,0:0:0:0:
185,273,77588,6,0,P|261:254|335:332,1,180,4|0,1:0|0:0,0:0:0:0:
414,281,78757,1,8,0:0:0:0:
494,240,79147,2,0,L|475:105,2,135,2|0|10,1:2|1:0|0:0,0:0:0:0:
423,296,80705,2,0,P|344:214|360:138,1,180,6|0,1:2|0:0,0:0:0:0:
390,75,81874,1,10,0:0:0:0:
312,31,82263,2,0,B|277:11|277:11|179:24,2,135,2|2|10,1:2|1:2|0:0,0:0:0:0:
372,98,83822,6,0,L|353:323,1,225,6|0,1:2|1:0,0:0:0:0:
269,288,85186,2,0,L|281:150,1,135,12|8,0:1|0:0,0:0:0:0:
256,192,86939,12,0,89276,0:0:0:0:
