osu file format v14

[General]
AudioFilename: audio.mp3
AudioLeadIn: 0
PreviewTime: 53279
Countdown: 0
SampleSet: Soft
StackLeniency: 0.7
Mode: 0
LetterboxInBreaks: 0
WidescreenStoryboard: 1

[Editor]
DistanceSpacing: 0.9
BeatDivisor: 4
GridSize: 4
TimelineZoom: 1

[Metadata]
Title:Seishun Prologue
TitleUnicode:青春プロローグ
Artist:Moso Calibration
ArtistUnicode:妄想キャリブレーション
Creator:Del05
Version:Normal
Source:冴えない彼女の育てかた♭
Tags:
BeatmapID:1348653
BeatmapSetID:635515

[Difficulty]
HPDrainRate:4
CircleSize:3.5
OverallDifficulty:3
ApproachRate:5
SliderMultiplier:1
SliderTickRate:1

[Events]
//Background and Video events
0,0,"BG.jpg",0,0
Video,0,"video.flv"
//Break Periods
//Storyboard Layer 0 (Background)
//Storyboard Layer 1 (Fail)
//Storyboard Layer 2 (Pass)
//Storyboard Layer 3 (Foreground)
//Storyboard Sound Samples

[TimingPoints]
1461,389.61038961039,4,2,1,30,1,0
1461,-100,4,2,1,30,0,0
6136,-100,4,2,1,55,0,0
15486,-100,4,2,1,45,0,0
27954,-100,4,2,1,50,0,0
37305,-100,4,2,1,55,0,0
40422,-100,4,2,1,50,0,0
46655,-100,4,2,1,55,0,0
54448,-100,4,2,1,65,0,1
56980,-100,4,2,1,80,0,1
57370,-100,4,2,1,65,0,1
63214,-100,4,2,1,80,0,1
63603,-100,4,2,1,65,0,1
69448,-100,4,2,1,80,0,1
69837,-100,4,2,1,65,0,1
75681,-100,4,2,1,80,0,1
76071,-100,4,2,1,65,0,1
77824,-100,4,2,1,55,0,0
89902,-100,4,2,1,5,0,0

[Colours]
Combo1 : 255,134,134
Combo2 : 38,147,255
Combo3 : 255,128,255
Combo4 : 238,238,0
Combo5 : 0,255,0

[HitObjects]
272,328,6136,6,0,L|156:316,1,100
132,296,6721,2,0,P|114:245|131:187,1,100
144,160,7305,1,0,0:0:0:0:
228,196,7695,2,0,L|236:248,2,50
252,160,8279,2,0,P|308:160|356:136,1,100
380,112,8863,1,0,0:0:0:0:
436,184,9253,6,0,L|424:296,1,100
396,316,9837,2,0,P|346:305|292:312,1,100
256,328,10422,1,0,0:0:0:0:
188,268,10811,2,0,L|200:212,2,50
160,304,11396,2,0,P|104:312|60:296,1,100
44,260,11980,2,0,L|56:204,1,50
88,184,12370,6,0,L|64:84,1,100
100,60,12954,2,0,P|151:72|204:54,1,100
236,36,13539,1,0,0:0:0:0:
236,36,13734,2,0,L|356:48,1,100
376,28,14318,1,0,0:0:0:0:
456,188,15097,1,0,0:0:0:0:
388,248,15486,6,0,L|276:236,1,100
216,180,16266,2,0,L|116:190,1,100
48,248,17045,2,0,P|45:312|80:350,1,100
148,376,17824,2,0,L|216:364,1,50
244,372,18214,1,0,0:0:0:0:
316,316,18603,6,0,P|332:266|319:212,1,100
248,172,19383,2,0,L|132:184,1,100
96,256,20162,2,0,L|212:268,1,100
268,320,20941,2,0,L|326:315,1,50
360,328,21331,1,0,0:0:0:0:
436,280,21720,6,0,P|455:224|437:177,1,100
412,156,22305,2,0,L|300:168,1,100
276,192,22889,1,0,0:0:0:0:
200,148,23279,2,0,P|180:96|204:44,1,100
232,36,23863,2,0,L|348:48,1,100
372,32,24448,1,0,0:0:0:0:
432,100,24837,6,0,P|434:153|424:200,1,100
392,228,25422,2,0,P|343:214|288:212,1,100
252,228,26006,1,0,0:0:0:0:
280,312,26396,2,0,P|324:334|384:324,1,100
412,304,26980,1,0,0:0:0:0:
412,304,27175,2,0,L|400:236,1,50
372,220,27564,2,0,L|384:152,1,50
356,132,27954,6,0,P|298:134|243:105,1,100
224,92,28538,2,0,L|112:104,1,100
80,92,29123,1,0,0:0:0:0:
20,160,29512,2,0,P|12:216|44:264,1,100
68,276,30097,2,0,L|180:264,1,100
208,284,30681,1,0,0:0:0:0:
264,212,31071,6,0,L|248:112,1,100
280,84,31655,2,0,P|330:86|384:64,1,100
404,36,32240,1,0,0:0:0:0:
460,108,32629,2,0,P|452:160|449:219,1,100
412,236,33214,2,0,P|359:225|304:236,1,100
280,264,33798,1,0,0:0:0:0:
208,212,34188,6,0,L|216:112,1,100
184,80,34772,2,0,P|132:99|68:88,1,100
48,76,35357,1,0,0:0:0:0:
8,156,35746,2,0,L|20:264,1,100
52,284,36331,2,0,P|111:283|156:307,1,100
180,328,36915,1,0,0:0:0:0:
244,264,37305,6,0,L|360:276,1,100
412,332,38084,2,0,L|404:388,2,50
448,304,38668,2,0,P|463:252|448:192,1,100
432,168,39253,1,0,0:0:0:0:
352,204,39642,2,0,L|302:196,2,50
312,284,40422,6,0,P|239:254|220:176,1,150
188,156,41201,2,0,L|88:164,1,100
52,192,41785,1,0,0:0:0:0:
8,116,42175,2,0,B|40:80|40:80|108:72,1,100
128,48,42759,1,0,0:0:0:0:
212,80,43149,1,0,0:0:0:0:
284,24,43538,6,0,P|302:84|256:160,1,150
236,196,44317,2,0,P|248:250|256:308,1,100
248,340,44901,1,0,0:0:0:0:
156,336,45292,2,0,P|144:287|137:237,1,100
136,192,45875,1,0,0:0:0:0:
236,196,46265,1,0,0:0:0:0:
276,276,46655,6,0,P|309:246|323:183,1,100
348,156,47240,2,0,L|452:164,1,100
488,148,47824,1,0,0:0:0:0:
512,240,48214,2,0,L|496:304,1,50
460,312,48603,1,0,0:0:0:0:
460,312,48798,2,0,P|404:295|348:304,1,100
324,320,49383,2,0,L|268:308,1,50
240,280,49772,6,0,P|228:231|236:176,1,100
264,148,50357,2,0,L|374:154,1,100
404,176,50941,1,0,0:0:0:0:
488,140,51331,2,0,P|503:84|478:29,1,100
452,20,51915,2,0,L|292:32,1,150
268,64,52694,6,0,L|152:55,1,100
132,28,53279,1,0,0:0:0:0:
36,280,54448,5,0,0:0:0:0:
108,332,54837,1,0,0:0:0:0:
184,284,55227,1,0,0:0:0:0:
184,284,55422,2,0,L|180:232,1,50
204,196,55811,2,0,P|256:208|308:196,1,100
328,164,56396,2,0,P|322:112|324:52,1,100
352,28,56980,1,0,0:0:0:0:
352,28,57175,1,0,0:0:0:0:
428,76,57564,6,0,P|433:127|432:188,1,100
384,252,58344,2,0,L|400:320,2,50
348,224,58928,2,0,P|295:236|244:224,1,100
216,200,59512,1,0,0:0:0:0:
160,272,59902,2,0,L|168:328,1,50
208,340,60292,2,0,P|233:328|264:324,1,50
300,336,60681,5,0,0:0:0:0:
372,284,61071,1,0,0:0:0:0:
320,212,61461,1,0,0:0:0:0:
320,212,61655,2,0,L|258:218,1,50
228,204,62045,2,0,P|208:152|224:93,1,100
252,84,62629,2,0,L|352:92,1,100
392,76,63214,1,0,0:0:0:0:
392,76,63409,1,0,0:0:0:0:
440,152,63798,6,0,P|428:208|420:268,1,100
360,316,64578,2,0,P|365:343|371:376,2,50
324,288,65162,2,0,L|224:300,1,100
180,292,65746,2,0,P|148:248|160:196,1,100
184,172,66331,1,0,0:0:0:0:
184,172,66525,2,0,L|248:176,1,50
272,200,66915,5,0,0:0:0:0:
344,148,67305,1,0,0:0:0:0:
408,212,67694,1,0,0:0:0:0:
408,212,67889,2,0,L|400:276,1,50
372,296,68279,2,0,P|320:280|268:288,1,100
240,312,68863,2,0,L|140:304,1,100
96,320,69448,1,0,0:0:0:0:
96,320,69642,1,0,0:0:0:0:
36,252,70032,6,0,P|47:195|56:144,1,100
124,96,70811,2,0,P|116:68|112:24,2,50
156,128,71396,2,0,L|260:120,1,100
296,96,71980,1,0,0:0:0:0:
356,164,72370,2,0,L|348:220,1,50
316,244,72759,2,0,L|324:300,1,50
308,336,73149,5,0,0:0:0:0:
228,296,73538,1,0,0:0:0:0:
152,340,73928,1,0,0:0:0:0:
152,340,74123,2,0,L|92:332,1,50
64,308,74512,2,0,P|56:248|56:204,1,100
88,180,75097,2,0,P|136:188|205:185,1,100
228,172,75681,1,0,0:0:0:0:
228,172,75876,1,0,0:0:0:0:
300,224,76266,6,0,L|288:344,1,100
380,308,77045,2,0,L|398:137,1,150
372,120,77824,6,0,P|316:128|264:112,1,100
236,92,78409,2,0,L|132:104,1,100
92,92,78993,1,0,0:0:0:0:
52,172,79383,2,0,L|-16:164,2,50
80,208,79967,2,0,P|71:264|68:316,1,100
80,352,80551,1,0,0:0:0:0:
168,328,80941,6,0,L|272:340,1,100
304,312,81525,2,0,P|324:264|311:212,1,100
292,180,82110,1,0,0:0:0:0:
204,204,82499,2,0,L|196:256,2,50
184,164,83084,2,0,P|174:116|190:63,1,100
224,44,83668,2,0,L|280:52,1,50
304,84,84058,6,0,L|424:65,1,100
440,96,84642,2,0,P|428:150|424:208,1,100
432,240,85227,1,0,0:0:0:0:
432,240,85422,2,0,P|372:236|320:256,1,100
304,280,86006,1,0,0:0:0:0:
224,240,86396,2,0,B|220:200|220:200|224:172|224:172|200:136|220:76,1,150
236,52,87175,5,0,0:0:0:0:
256,192,87272,12,0,89902,0:0:0:0:
