osu file format v14

[General]
AudioFilename: audio.mp3
AudioLeadIn: 0
PreviewTime: 53279
Countdown: 0
SampleSet: None
StackLeniency: 0.7
Mode: 0
LetterboxInBreaks: 0
WidescreenStoryboard: 1

[Editor]
DistanceSpacing: 0.9
BeatDivisor: 4
GridSize: 4
TimelineZoom: 1

[Metadata]
Title:Seishun Prologue
TitleUnicode:青春プロローグ
Artist:Moso Calibration
ArtistUnicode:妄想キャリブレーション
Creator:Del05
Version:Easy
Source:冴えない彼女の育てかた♭
Tags:
BeatmapID:1358117
BeatmapSetID:635515

[Difficulty]
HPDrainRate:3
CircleSize:3
OverallDifficulty:2
ApproachRate:4
SliderMultiplier:0.9
SliderTickRate:1

[Events]
//Background and Video events
0,0,"BG.jpg",0,0
Video,0,"video.flv"
//Break Periods
//Storyboard Layer 0 (Background)
//Storyboard Layer 1 (Fail)
//Storyboard Layer 2 (Pass)
//Storyboard Layer 3 (Foreground)
//Storyboard Sound Samples

[TimingPoints]
1461,389.61038961039,4,2,1,30,1,0
1461,-100,4,2,1,30,0,0
6136,-100,4,2,1,55,0,0
15486,-100,4,2,1,45,0,0
27954,-100,4,2,1,50,0,0
37305,-100,4,2,1,55,0,0
40422,-100,4,2,1,50,0,0
46655,-100,4,2,1,55,0,0
54448,-100,4,2,1,65,0,1
56980,-100,4,2,1,80,0,1
57370,-100,4,2,1,65,0,1
63214,-100,4,2,1,80,0,1
63603,-100,4,2,1,65,0,1
69448,-100,4,2,1,80,0,1
69837,-100,4,2,1,65,0,1
75681,-100,4,2,1,80,0,1
76071,-100,4,2,1,65,0,1
77824,-100,4,2,1,55,0,0
89902,-100,4,2,1,5,0,0

[Colours]
Combo1 : 255,134,134
Combo2 : 38,147,255
Combo3 : 255,128,255
Combo4 : 238,238,0
Combo5 : 0,255,0

[HitObjects]
132,88,6136,6,0,L|-20:64,2,135
184,148,7694,2,0,P|176:224|188:284,2,135
244,92,9253,6,0,P|292:100|364:60,1,135
408,128,10227,1,0,0:0:0:0:
204,168,10811,2,0,L|320:268,2,135
272,124,12370,6,0,P|344:176|328:204,1,135
252,212,13344,1,0,0:0:0:0:
168,96,13733,2,0,L|144:236,1,135
288,132,15097,1,0,0:0:0:0:
216,92,15486,6,0,P|152:100|116:96,1,90
84,168,16266,2,0,L|184:176,1,90
252,164,17045,2,0,L|232:264,1,90
316,264,17824,2,0,L|312:168,1,90
100,84,18603,6,0,L|104:200,1,100
204,248,19383,2,0,L|184:132,1,100
288,84,20162,2,0,L|280:184,1,100
400,192,20941,2,0,L|384:136,1,50
368,88,21331,1,0,0:0:0:0:
252,116,21720,6,0,P|192:136|144:128,1,100
124,80,22305,2,0,L|112:192,1,100
104,240,22889,1,0,0:0:0:0:
224,252,23279,2,0,L|256:152,1,100
296,112,23863,2,0,P|332:176|364:172,1,100
408,168,24448,1,0,0:0:0:0:
292,140,24837,6,0,L|284:240,1,100
232,268,25422,2,0,L|136:236,1,100
100,284,26006,1,0,0:0:0:0:
100,164,26396,2,0,L|200:112,1,100
248,128,26980,1,0,0:0:0:0:
248,128,27175,2,0,L|248:192,1,50
296,216,27564,2,0,L|272:264,1,50
80,72,27954,6,0,L|84:184,1,100
104,228,28538,2,0,P|148:196|200:208,1,100
236,244,29123,1,0,0:0:0:0:
332,172,29512,2,0,L|344:280,1,100
288,292,30097,2,0,P|356:256|392:268,1,100
424,292,30681,1,0,0:0:0:0:
80,72,31071,6,0,L|84:184,1,100
104,228,31655,2,0,P|148:196|200:208,1,100
236,244,32240,1,0,0:0:0:0:
332,172,32629,2,0,L|344:280,1,100
288,292,33214,2,0,P|356:256|392:268,1,100
424,292,33798,1,0,0:0:0:0:
80,72,34188,6,0,L|84:184,1,100
104,228,34772,2,0,P|148:196|200:208,1,100
236,244,35357,1,0,0:0:0:0:
332,172,35746,2,0,L|344:280,1,100
288,292,36331,2,0,P|356:256|392:268,1,100
424,292,36915,1,0,0:0:0:0:
128,88,37305,6,0,L|120:200,1,100
236,228,38084,2,0,L|200:280,2,50
288,196,38668,2,0,P|336:232|392:232,1,100
432,220,39253,1,0,0:0:0:0:
432,100,39642,2,0,L|368:112,2,50
100,64,40422,6,0,L|100:216,1,150
144,256,41201,2,0,P|204:236|252:252,1,100
280,284,41785,1,0,0:0:0:0:
376,212,42175,2,0,L|368:100,1,100
328,68,42759,1,0,0:0:0:0:
208,76,43149,1,0,0:0:0:0:
100,64,43538,6,0,L|100:216,1,150
144,256,44317,2,0,P|204:236|252:252,1,100
280,284,44901,1,0,0:0:0:0:
376,212,45291,2,0,L|368:100,1,100
328,68,45875,1,0,0:0:0:0:
208,76,46265,1,0,0:0:0:0:
304,104,46655,6,0,L|296:216,1,100
264,256,47240,2,0,P|224:184|212:180,1,100
152,192,47824,1,0,0:0:0:0:
260,248,48214,2,0,L|264:312,2,50
296,200,48798,2,0,P|328:240|376:240,1,100
420,204,49383,2,0,L|416:140,1,50
376,108,49772,6,0,P|340:112|280:76,1,100
236,48,50357,2,0,L|120:68,1,100
112,120,50941,1,0,0:0:0:0:
128,192,51331,2,0,L|228:172,1,100
260,220,51915,2,0,P|304:264|384:224,1,150
388,196,52694,6,0,L|392:84,1,100
436,56,53279,1,0,0:0:0:0:
176,64,54448,5,0,0:0:0:0:
180,184,54837,1,0,0:0:0:0:
264,232,55227,1,0,0:0:0:0:
264,232,55422,2,0,L|256:288,1,50
288,332,55811,2,0,P|332:360|392:344,1,100
432,332,56396,2,0,P|428:260|428:220,1,100
424,172,56980,1,0,0:0:0:0:
424,172,57175,1,0,0:0:0:0:
328,104,57564,6,0,L|216:88,1,100
112,64,58344,2,0,L|48:44,2,50
140,116,58928,2,0,P|148:172|124:216,1,100
104,264,59512,1,0,0:0:0:0:
212,316,59902,2,0,L|208:260,1,50
160,232,60292,2,0,L|192:180,1,50
236,156,60681,5,0,0:0:0:0:
344,104,61071,1,0,0:0:0:0:
304,216,61461,1,0,0:0:0:0:
188,120,61655,2,0,L|188:68,1,50
240,40,62045,2,0,P|272:72|328:64,1,100
368,28,62629,2,0,L|368:144,1,100
364,188,63214,1,0,0:0:0:0:
364,188,63409,1,0,0:0:0:0:
328,104,63798,6,0,L|216:88,1,100
112,64,64578,2,0,L|48:44,2,50
140,116,65162,2,0,P|148:172|124:216,1,100
104,264,65746,2,0,P|128:292|200:304,1,100
220,276,66331,1,0,0:0:0:0:
168,176,66525,2,0,L|188:124,1,50
236,92,66915,5,0,0:0:0:0:
332,164,67305,1,0,0:0:0:0:
216,188,67694,1,0,0:0:0:0:
216,188,67889,2,0,L|208:252,1,50
224,296,68279,2,0,P|276:256|312:280,1,100
336,316,68863,2,0,L|436:292,1,100
488,268,69448,1,0,0:0:0:0:
488,268,69642,1,0,0:0:0:0:
444,156,70032,6,0,L|328:168,1,100
224,148,70811,2,0,L|248:80,2,50
176,184,71396,2,0,P|148:148|80:152,1,100
48,176,71980,1,0,0:0:0:0:
120,272,72370,2,0,L|100:208,1,50
160,196,72759,2,0,L|208:168,1,50
220,112,73149,5,0,0:0:0:0:
332,156,73538,1,0,0:0:0:0:
260,252,73928,1,0,0:0:0:0:
260,252,74123,2,0,L|200:252,1,50
152,236,74512,2,0,P|160:176|160:132,1,100
200,92,75097,2,0,P|280:104|316:104,1,100
348,68,75681,1,0,0:0:0:0:
348,68,75876,1,0,0:0:0:0:
468,56,76266,6,0,L|456:176,1,100
392,256,77045,2,0,P|360:220|276:260,1,150
256,312,77824,6,0,L|136:292,1,100
108,264,78409,2,0,P|96:212|104:152,1,100
116,108,78993,1,0,0:0:0:0:
220,168,79383,2,0,L|212:236,2,50
264,128,79967,2,0,P|316:168|360:164,1,100
404,148,80551,1,0,0:0:0:0:
464,252,80941,6,0,L|360:228,1,100
324,188,81525,2,0,L|224:224,1,100
196,272,82110,1,0,0:0:0:0:
100,200,82499,2,0,L|120:148,2,50
92,260,83084,2,0,P|160:248|184:272,1,100
220,312,83668,2,0,L|280:296,1,50
316,264,84058,6,0,P|304:200|300:152,1,100
360,156,84642,2,0,P|444:192|464:200,1,100
496,152,85227,1,0,0:0:0:0:
496,152,85422,2,0,L|496:260,1,100
460,300,86006,1,0,0:0:0:0:
392,200,86396,2,0,P|316:184|280:248,1,150
260,292,87175,5,0,0:0:0:0:
256,192,87272,12,0,89902,0:0:0:0:
