osu file format v14

[General]
AudioFilename: audio.mp3
AudioLeadIn: 0
PreviewTime: 53176
Countdown: 0
SampleSet: Soft
StackLeniency: 0.7
Mode: 0
LetterboxInBreaks: 0
WidescreenStoryboard: 0

[Editor]
DistanceSpacing: 1.6
BeatDivisor: 4
GridSize: 4
TimelineZoom: 1

[Metadata]
Title:Sakurairo Diary
TitleUnicode:桜色ダイアリー
Artist:Moso Calibration
ArtistUnicode:妄想キャリブレーション
Creator:Del05
Version:Hard
Source:冴えない彼女の育てかた♭
Tags:saenai heroine no sodatekata flat saekano how to raise boring girlfriend
BeatmapID:1325149
BeatmapSetID:628554

[Difficulty]
HPDrainRate:5
CircleSize:4
OverallDifficulty:6
ApproachRate:7
SliderMultiplier:1.4
SliderTickRate:1

[Events]
//Background and Video events
0,0,"BG.jpg",0,0
Video,0,"video.avi"
//Break Periods
//Storyboard Layer 0 (Background)
//Storyboard Layer 1 (Fail)
//Storyboard Layer 2 (Pass)
//Storyboard Layer 3 (Foreground)
//Storyboard Sound Samples

[TimingPoints]
39,392.156862745098,4,2,1,30,1,0
39,-142.857142857143,4,2,1,30,0,0
3176,-100,4,2,1,70,0,0
9450,-133.333333333333,4,2,1,55,0,0
21999,-111.111111111111,4,2,1,60,0,0
34548,-133.333333333333,4,2,1,55,0,0
43960,-100,4,2,1,65,0,0
53372,-100,4,2,1,75,0,1
78470,-100,4,2,1,70,0,0
90235,-100,4,2,1,5,0,0

[Colours]
Combo1 : 255,134,134
Combo2 : 38,147,255
Combo3 : 255,128,255
Combo4 : 238,238,0
Combo5 : 0,255,0

[HitObjects]
100,104,39,6,0,P|92:84|74:53,2,48.9999985046387
160,156,627,2,0,L|276:148,1,97.9999970092774
324,192,1215,1,0,0:0:0:0:
296,260,1411,6,0,L|180:252,1,97.9999970092774
136,292,1999,1,0,0:0:0:0:
188,352,2195,1,8,0:0:0:0:
188,352,2293,1,8,0:0:0:0:
188,352,2391,2,0,L|256:344,1,48.9999985046387,8|0,0:0|0:0,0:0:0:0:
308,368,2784,1,2,0:0:0:0:
364,320,2980,1,8,0:0:0:0:
364,320,3078,1,8,0:0:0:0:
364,320,3176,6,0,P|387:268|346:183,1,140,6|8,0:0|0:0,0:0:0:0:
296,260,3764,2,0,L|468:248,1,140,2|2,0:0|0:0,0:0:0:0:
496,192,4352,2,0,P|488:156|476:124,1,70,8|0,0:0|0:0,0:0:0:0:
400,88,4744,6,0,L|328:104,1,70,2|2,0:0|0:0,0:0:0:0:
272,164,5137,1,8,0:0:0:0:
200,120,5333,2,0,P|120:100|74:137,1,140,2|2,0:0|0:0,0:0:0:0:
36,204,5921,1,8,0:0:0:0:
104,256,6117,6,0,P|170:245|248:240,1,140,6|2,0:0|0:0,0:0:0:0:
308,292,6705,2,0,L|296:376,1,70,8|0,0:0|0:0,0:0:0:0:
391,310,7097,2,0,L|379:226,1,70,2|2,0:0|0:0,0:0:0:0:
352,208,7391,1,8,0:0:0:0:
352,208,7489,1,8,0:0:0:0:
280,164,7686,5,8,0:0:0:0:
139,251,8078,2,0,P|58:267|-6:290,2,140,6|2|2,0:0|0:0|0:0,0:0:0:0:
212,288,9058,2,0,L|200:357,1,70,8|0,0:0|0:0,0:0:0:0:
272,380,9450,6,0,P|319:349|379:357,1,105.000004005432
432,380,10039,1,0,0:0:0:0:
432,380,10235,1,0,0:0:0:0:
484,328,10431,2,0,P|492:281|498:220,1,105.000004005432
444,176,11019,6,0,L|380:184,1,52.5000020027161,2|0,0:0|0:0,0:0:0:0:
336,228,11411,2,0,L|283:221,1,52.5000020027161
228,172,11803,2,0,L|112:188,1,105.000004005432
8,276,12588,6,0,L|124:292,1,105.000004005432,2|0,0:0|0:0,0:0:0:0:
168,340,13177,1,0,0:0:0:0:
168,340,13373,1,0,0:0:0:0:
224,292,13569,2,0,P|268:280|331:301,1,105.000004005432
388,332,14157,6,0,L|456:320,1,52.5000020027161,2|0,0:0|0:0,0:0:0:0:
496,276,14549,2,0,P|495:243|478:207,1,52.5000020027161
424,188,14941,2,0,P|366:197|299:197,1,105.000004005432
184,144,15725,6,0,P|239:126|299:95,1,105.000004005432,2|0,0:0|0:0,0:0:0:0:
344,68,16313,2,0,L|472:80,1,105.000004005432
500,132,16901,1,0,0:0:0:0:
500,132,17097,1,2,0:0:0:0:
436,164,17293,6,0,P|376:171|322:150,1,105.000004005432,2|0,0:0|0:0,0:0:0:0:
281,105,17882,2,0,L|160:120,1,105.000004005432
132,176,18470,2,0,L|140:232,1,52.5000020027161
200,268,18862,6,0,P|248:240|307:257,1,105.000004005432,2|0,0:0|0:0,0:0:0:0:
352,296,19450,2,0,P|354:249|360:180,1,105.000004005432
396,128,20039,1,0,0:0:0:0:
452,176,20235,6,0,P|468:126|439:69,2,105.000004005432,12|8|8,0:0|0:0|0:0,0:0:0:0:
352,296,21411,1,8,0:0:0:0:
280,292,21607,1,2,0:0:0:0:
320,232,21803,1,8,0:0:0:0:
311,356,21999,6,0,P|240:352|210:304,1,125.999996154785,6|2,0:0|0:0,0:0:0:0:
160,256,22588,2,0,L|80:268,1,62.9999980773926,8|2,0:0|0:0,0:0:0:0:
36,308,22980,1,2,0:0:0:0:
0,240,23176,2,0,P|8:201|24:160,1,62.9999980773926,8|0,0:0|0:0,0:0:0:0:
80,140,23568,6,0,P|143:147|216:144,1,125.999996154785,2|2,0:0|0:0,0:0:0:0:
264,96,24156,2,0,L|248:20,1,62.9999980773926,8|2,0:0|0:0,0:0:0:0:
328,36,24548,1,2,0:0:0:0:
344,112,24744,2,0,L|328:188,1,62.9999980773926,8|0,0:0|0:0,0:0:0:0:
380,232,25137,6,0,P|442:216|488:256,1,125.999996154785,2|2,0:0|0:0,0:0:0:0:
480,328,25725,2,0,L|396:308,1,62.9999980773926,8|2,0:0|0:0,0:0:0:0:
360,360,26117,1,2,0:0:0:0:
300,316,26313,2,0,L|308:236,1,62.9999980773926,8|0,0:0|0:0,0:0:0:0:
236,224,26705,6,0,L|222:356,1,125.999996154785,2|2,0:0|0:0,0:0:0:0:
152,320,27293,1,8,0:0:0:0:
152,320,27489,2,0,L|159:257,1,62.9999980773926,2|2,0:0|0:0,0:0:0:0:
116,196,27882,2,0,L|109:133,1,62.9999980773926,8|0,0:0|0:0,0:0:0:0:
176,96,28274,6,0,P|224:112|316:76,1,125.999996154785,2|2,0:0|0:0,0:0:0:0:
364,68,28862,2,0,L|440:80,1,62.9999980773926,8|2,0:0|0:0,0:0:0:0:
440,152,29254,1,2,0:0:0:0:
440,152,29450,2,0,L|364:164,1,62.9999980773926,8|0,0:0|0:0,0:0:0:0:
356,232,29842,6,0,L|286:222,1,62.9999980773926,6|0,0:0|0:0,0:0:0:0:
239,153,30235,2,0,L|309:143,1,62.9999980773926,8|0,0:0|0:0,0:0:0:0:
213,229,30627,2,0,L|143:219,1,62.9999980773926,6|0,0:0|0:0,0:0:0:0:
96,150,31020,2,0,L|166:140,1,62.9999980773926,8|0,0:0|0:0,0:0:0:0:
71,223,31411,6,0,P|24:177|33:104,1,125.999996154785,2|8,0:0|0:0,0:0:0:0:
88,76,31999,2,0,L|232:54,1,125.999996154785,2|2,0:0|0:0,0:0:0:0:
158,141,32588,2,0,L|96:150,1,62.9999980773926,8|0,0:0|0:0,0:0:0:0:
187,212,32980,6,0,P|223:185|236:136,2,94.499997116089,2|2|2,0:0|0:0|0:0,0:0:0:0:
158,141,33764,1,8,0:0:0:0:
72,264,34156,2,0,P|79:288|86:325,1,62.9999980773926,8|0,0:2|0:0,0:0:0:0:
148,364,34548,6,0,P|196:344|264:352,1,105.000004005432,6|0,0:0|0:0,0:0:0:0:
312,380,35137,1,2,0:0:0:0:
360,328,35333,2,0,B|371:248|371:248|362:214,1,105.000004005432,8|0,0:0|0:0,0:0:0:0:
300,188,35921,1,0,0:0:0:0:
232,216,36117,6,0,P|227:176|249:133,2,78.7500030040742,2|2|2,0:0|0:0|0:0,0:0:0:0:
300,188,36901,1,8,0:0:0:0:
172,260,37293,2,0,P|140:253|112:252,1,52.5000020027161
52,220,37686,6,0,P|30:173|57:115,1,105.000004005432,2|0,0:0|0:0,0:0:0:0:
108,84,38274,1,2,0:0:0:0:
160,136,38470,2,0,P|212:149|264:116,1,105.000004005432,8|0,0:0|0:0,0:0:0:0:
300,68,39058,1,0,0:0:0:0:
360,112,39254,6,0,P|396:104|460:100,2,78.7500030040742,2|2|2,0:0|0:0|0:0,0:0:0:0:
316,172,40039,1,8,0:0:0:0:
202,75,40431,2,0,P|206:45|218:10,1,52.5000020027161,2|0,0:0|0:0,0:0:0:0:
255,126,40823,6,0,P|209:149|160:136,1,105.000004005432,6|0,0:0|0:0,0:0:0:0:
96,100,41411,1,2,0:0:0:0:
60,164,41607,2,0,P|69:214|80:284,1,105.000004005432,8|0,0:0|0:0,0:0:0:0:
116,332,42195,1,0,0:0:0:0:
180,296,42391,6,0,L|258:302,2,78.7500030040742,2|2|2,0:0|0:0|0:0,0:0:0:0:
180,368,43176,1,8,0:0:0:0:
324,340,43568,2,0,P|333:309|331:287,1,52.5000020027161
276,228,43960,6,0,L|130:214,1,140,6|8,0:0|0:0,0:0:0:0:
60,244,44548,1,0,0:0:0:0:
4,184,44744,2,0,P|7:149|19:100,1,70,2|2,0:0|0:0,0:0:0:0:
76,56,45137,1,8,0:0:0:0:
136,112,45333,6,0,P|208:126|272:96,1,140,2|2,0:0|0:0,0:0:0:0:
296,180,45921,2,0,P|289:216|284:256,1,70,8|0,0:0|0:0,0:0:0:0:
315,328,46313,2,0,P|348:314|381:299,1,70,2|2,0:0|0:0,0:0:0:0:
434,235,46705,2,0,P|402:215|373:195,1,70,8|0,0:0|0:0,0:0:0:0:
472,168,47097,6,0,P|510:221|471:302,1,140,6|2,0:0|0:0,0:0:0:0:
395,348,47686,2,0,P|309:340|239:340,1,140,8|2,0:0|0:0,0:0:0:0:
214,248,48274,2,0,P|253:248|291:249,1,70,8|0,0:0|0:0,0:0:0:0:
177,317,48666,6,0,P|137:262|155:196,1,140,6|2,0:0|0:0,0:0:0:0:
310,172,49254,2,0,P|280:233|214:248,1,140,8|2,0:0|0:0,0:0:0:0:
182,124,49842,2,0,P|212:143|231:172,1,70,8|0,0:0|0:0,0:0:0:0:
90,160,50235,6,0,L|230:171,1,140,6|2,0:0|0:0,0:0:0:0:
353,237,50823,2,0,L|213:247,1,140,8|2,0:0|0:0,0:0:0:0:
152,320,51411,2,0,L|244:325,1,70,8|0,0:0|0:0,0:0:0:0:
72,360,51803,6,0,P|69:291|86:259,2,105,2|0|2,0:0|0:0|0:0,0:0:0:0:
152,320,52588,1,8,0:0:0:0:
152,320,53372,6,0,P|227:324|300:332,1,140,6|8,0:0|0:0,0:0:0:0:
364,372,53960,1,0,0:0:0:0:
432,324,54156,2,0,L|420:256,1,70,2|2,0:0|0:0,0:0:0:0:
352,208,54548,2,0,L|340:276,1,70,8|0,0:0|0:0,0:0:0:0:
268,236,54940,6,0,L|256:168,1,70,2|0,0:0|0:0,0:0:0:0:
180,200,55333,1,8,0:0:0:0:
217,298,55529,2,0,P|283:315|339:276,1,140,2|2,0:0|0:0,0:0:0:0:
356,196,56117,2,0,L|344:128,1,70,8|0,0:0|0:0,0:0:0:0:
268,92,56509,6,0,L|256:160,1,70,2|0,0:0|0:0,0:0:0:0:
176,140,56901,1,8,0:0:0:0:
213,42,57097,2,0,P|275:17|332:53,1,140,2|2,0:0|0:0,0:0:0:0:
360,132,57686,2,0,L|348:200,1,70,8|0,0:0|0:0,0:0:0:0:
276,248,58078,6,0,L|264:180,1,70,2|2,0:0|0:0,0:0:0:0:
184,204,58470,1,8,0:0:0:0:
225,302,58666,2,0,P|290:320|344:280,1,140,2|2,0:0|0:0,0:0:0:0:
368,200,59254,1,8,0:0:0:0:
316,132,59450,1,8,0:0:0:0:
316,132,59548,1,8,0:0:0:0:
316,132,59646,6,0,L|237:141,1,70,6|2,0:0|0:0,0:0:0:0:
200,212,60038,2,0,L|279:221,1,70,8|0,0:0|0:0,0:0:0:0:
172,144,60431,2,0,L|93:153,1,70,2|2,0:0|0:0,0:0:0:0:
56,224,60823,2,0,L|135:233,1,70,8|0,0:0|0:0,0:0:0:0:
21,157,61215,6,0,P|-14:190|-20:231,1,70,2|2,0:0|0:0,0:0:0:0:
0,292,61607,1,8,0:0:0:0:
109,345,61803,2,0,P|98:277|55:223,1,140,2|2,0:0|0:0,0:0:0:0:
136,196,62391,2,0,P|176:192|228:188,1,70,8|0,0:0|0:0,0:0:0:0:
280,228,62784,5,2,0:0:0:0:
280,228,62980,1,2,0:0:0:0:
332,164,63176,2,0,L|324:76,1,70,8|0,0:0|0:0,0:0:0:0:
414,136,63568,2,0,L|406:224,1,70,2|2,0:0|0:0,0:0:0:0:
484,240,63960,1,8,0:0:0:0:
499,130,64156,6,0,P|468:69|403:51,1,140,6|2,0:0|0:0,0:0:0:0:
325,94,64744,2,0,L|318:163,1,70,8|0,0:0|0:0,0:0:0:0:
236,264,65137,2,0,L|229:194,1,70,2|0,0:0|0:0,0:0:0:0:
164,144,65529,1,8,0:0:0:0:
97,248,65725,1,8,0:0:0:0:
97,248,65823,1,8,0:0:0:0:
97,248,65921,6,0,P|166:252|236:264,1,140,6|8,0:0|0:0,0:0:0:0:
296,320,66509,1,0,0:0:0:0:
316,240,66705,2,0,P|292:202|253:181,1,70,2|2,2:0|2:0,2:0:0:0:
296,320,67097,2,0,P|340:320|378:296,1,70,8|0,0:0|0:0,0:0:0:0:
235,263,67489,6,0,P|214:302|216:346,1,70,2|2,0:0|0:0,0:0:0:0:
296,320,67882,1,8,0:0:0:0:
302,214,68078,2,0,L|146:226,1,140,2|2,0:0|0:0,0:0:0:0:
84,192,68666,2,0,P|76:152|91:105,1,70,8|0,0:0|0:0,0:0:0:0:
156,84,69058,6,0,L|152:153,1,70,2|2,0:0|0:0,0:0:0:0:
236,144,69450,1,8,0:0:0:0:
207,25,69646,2,0,P|142:7|88:48,1,140,2|2,0:0|0:0,0:0:0:0:
59,127,70235,2,0,L|67:215,1,70,8|0,0:0|0:0,0:0:0:0:
145,223,70627,6,0,L|153:135,1,70,2|2,0:0|0:0,0:0:0:0:
232,176,71019,1,8,0:0:0:0:
205,280,71215,2,0,P|142:305|81:277,1,140,2|2,0:0|0:0,0:0:0:0:
65,196,71803,1,8,0:0:0:0:
145,223,71999,1,8,0:0:0:0:
145,223,72097,1,8,0:0:0:0:
144,223,72195,6,0,P|148:188|137:155,1,70,6|2,0:0|0:0,0:0:0:0:
4,168,72588,2,0,P|31:189|65:196,1,70,8|0,0:0|0:0,0:0:0:0:
119,73,72980,2,0,P|88:87|65:113,1,70,2|2,0:0|0:0,0:0:0:0:
197,96,73372,2,0,P|197:42|168:8,1,70,8|0,0:0|0:0,0:0:0:0:
137,155,73764,6,0,P|165:173|220:176,1,70,2|2,0:0|0:0,0:0:0:0:
284,156,74156,1,8,0:0:0:0:
197,96,74352,2,0,L|148:260,1,140,2|2,0:0|0:0,0:0:0:0:
224,280,74940,2,0,L|245:209,1,70,8|0,0:0|0:0,0:0:0:0:
316,260,75333,6,0,L|337:331,1,70,2|2,0:0|0:0,0:0:0:0:
375,218,75725,2,0,P|350:194|317:186,2,70,8|0|0,0:0|0:0|0:0,0:0:0:0:
412,292,76313,1,8,0:0:0:0:
316,260,76509,1,8,0:0:0:0:
457,228,76705,6,0,P|488:280|452:359,1,140,6|2,0:0|0:0,0:0:0:0:
384,380,77293,2,0,L|288:364,1,70,8|0,0:0|0:0,0:0:0:0:
236,296,77686,2,0,L|332:280,1,70,8|0,0:0|0:0,0:0:0:0:
412,292,78078,1,8,0:0:0:0:
375,218,78274,1,8,0:0:0:0:
314,368,78470,5,12,0:0:0:0:
314,368,79058,2,0,P|239:357|168:356,1,140,8|2,0:0|0:0,0:0:0:0:
92,376,79646,1,8,0:0:0:0:
20,328,79842,6,0,P|8:272|58:210,1,140,6|2,0:0|0:0,0:0:0:0:
136,236,80431,2,0,L|208:228,1,70,8|0,0:0|0:0,0:0:0:0:
268,172,80823,2,8,L|256:120,3,35
232,108,81215,2,8,L|244:56,3,35
276,52,81607,6,0,P|340:72|416:52,1,140,6|8,0:0|0:0,0:0:0:0:
436,136,82195,2,0,P|423:205|416:280,1,140,2|2,0:0|0:0,0:0:0:0:
340,308,82783,2,0,P|334:269|324:232,1,70,8|0,0:0|0:0,0:0:0:0:
260,188,83176,6,0,P|245:223|227:258,1,70,2|2,0:0|0:0,0:0:0:0:
156,212,83568,1,8,0:0:0:0:
215,124,83764,2,0,P|282:114|332:160,1,140,2|2,0:0|0:0,0:0:0:0:
352,240,84352,1,8,0:0:0:0:
260,188,84548,6,0,L|316:52,1,140,12|2,0:0|0:0,0:0:0:0:
392,92,85137,2,0,P|397:128|408:172,1,70,8|0,0:0|0:0,0:0:0:0:
440,236,85529,1,8,0:0:0:0:
488,168,85725,1,8,0:0:0:0:
352,240,85921,1,8,0:0:0:0:
477,307,86117,6,0,L|488:168,1,140,6|2,0:0|0:0,0:0:0:0:
395,121,86705,2,0,L|402:210,1,70,8|2,0:0|0:0,0:0:0:0:
308,160,87097,2,0,L|315:71,1,70,2|2,0:0|0:0,0:0:0:0:
236,60,87489,1,2,0:0:0:0:
226,171,87686,6,0,P|261:229|329:240,1,140,8|6,0:0|0:0,0:0:0:0:
432,200,88274,1,12,0:0:0:0:
256,192,88372,12,0,90235,0:0:0:0:
