osu file format v14

[General]
AudioFilename: audio.mp3
AudioLeadIn: 0
PreviewTime: -1
Countdown: 1
SampleSet: None
StackLeniency: 0.7
Mode: 0
LetterboxInBreaks: 0
WidescreenStoryboard: 1

[Editor]
Bookmarks: 98239,141875
DistanceSpacing: 1.2
BeatDivisor: 4
GridSize: 4
TimelineZoom: 1

[Metadata]
Title:HEA HEA HO
TitleUnicode:HEA HEA HO
Artist:MoshTekk & Inkognito
ArtistUnicode:MoshTekk & Inkognito
Creator:DominicsHase
Version:HO
Source:
Tags:
BeatmapID:1794926
BeatmapSetID:858897

[Difficulty]
HPDrainRate:6
CircleSize:4
OverallDifficulty:4
ApproachRate:9
SliderMultiplier:2.4
SliderTickRate:1

[Events]
//Background and Video events
0,0,"inkognito.png",0,0
//Break Periods
2,98439,116730
//Storyboard Layer 0 (Background)
//Storyboard Layer 1 (Fail)
//Storyboard Layer 2 (Pass)
//Storyboard Layer 3 (Foreground)
//Storyboard Sound Samples

[TimingPoints]
87330.3840433394,340.909090909091,4,1,0,100,1,0

[HitObjects]
151,69,87330,5,0,0:0:0:0:
210,227,87671,6,0,L|107:307,1,120
217,152,88012,2,0,L|320:72,1,120
437,127,88353,1,0,0:0:0:0:
204,97,88523,1,0,0:0:0:0:
402,244,88694,6,0,L|401:104,1,120
293,48,89034,2,0,L|294:188,1,120
296,323,89375,1,0,0:0:0:0:
412,103,89546,1,0,0:0:0:0:
142,116,89716,1,0,0:0:0:0:
428,148,89887,1,0,0:0:0:0:
164,167,90057,6,0,L|35:149,1,120
316,235,90398,2,0,L|445:253,1,120
143,93,90739,1,0,0:0:0:0:
211,267,90909,1,0,0:0:0:0:
375,93,91080,1,0,0:0:0:0:
297,266,91250,1,0,0:0:0:0:
108,126,91421,6,0,L|246:65,1,120
404,126,91762,2,0,L|266:65,1,120
131,220,92103,1,0,0:0:0:0:
168,250,92188,1,0,0:0:0:0:
220,263,92273,1,0,0:0:0:0:
268,242,92358,1,0,0:0:0:0:
294,200,92444,1,0,0:0:0:0:
116,75,92614,1,0,0:0:0:0:
218,268,92784,6,0,L|346:245,1,120
141,209,93125,2,0,L|9:242,1,120
235,99,93466,1,0,0:0:0:0:
278,74,93551,1,0,0:0:0:0:
328,62,93637,1,0,0:0:0:0:
375,73,93722,1,0,0:0:0:0:
418,97,93807,1,0,0:0:0:0:
168,158,93978,1,0,0:0:0:0:
452,168,94148,6,0,L|306:126,1,120
149,56,94489,2,0,L|295:98,1,120
460,149,94830,1,0,0:0:0:0:
127,51,95000,1,0,0:0:0:0:
326,285,95171,1,0,0:0:0:0:
326,29,95341,1,0,0:0:0:0:
90,220,95512,5,0,0:0:0:0:
121,261,95597,1,0,0:0:0:0:
171,279,95682,1,0,0:0:0:0:
223,272,95767,1,0,0:0:0:0:
269,250,95853,1,0,0:0:0:0:
231,55,96023,1,0,0:0:0:0:
115,291,96194,1,0,0:0:0:0:
362,153,96364,1,0,0:0:0:0:
110,44,96534,1,0,0:0:0:0:
277,304,96705,1,0,0:0:0:0:
144,88,96875,6,0,L|24:164,1,120
257,110,97216,1,0,0:0:0:0:
292,144,97301,1,0,0:0:0:0:
328,177,97387,1,0,0:0:0:0:
419,258,97557,2,0,L|419:119,1,120
174,82,97898,1,0,0:0:0:0:
450,67,98069,1,0,0:0:0:0:
216,278,98239,1,0,0:0:0:0:
189,67,117330,5,0,0:0:0:0:
171,102,117415,1,0,0:0:0:0:
169,142,117500,1,0,0:0:0:0:
182,180,117585,1,0,0:0:0:0:
209,209,117670,1,0,0:0:0:0:
246,225,117756,1,0,0:0:0:0:
286,226,117841,1,0,0:0:0:0:
323,210,117926,1,0,0:0:0:0:
351,182,118012,2,0,L|269:124,1,60
189,67,118182,2,0,L|260:122,1,60
385,107,118353,2,0,L|300:106,1,60
190,145,118523,2,0,L|262:113,1,60
299,93,118694,5,0,0:0:0:0:
332,121,118779,1,0,0:0:0:0:
352,161,118864,1,0,0:0:0:0:
355,205,118949,1,0,0:0:0:0:
341,247,119034,1,0,0:0:0:0:
311,280,119120,1,0,0:0:0:0:
272,299,119205,1,0,0:0:0:0:
228,302,119290,1,0,0:0:0:0:
186,288,119375,1,0,0:0:0:0:
280,52,119546,1,0,0:0:0:0:
324,311,119716,1,0,0:0:0:0:
211,47,119887,1,0,0:0:0:0:
404,259,120057,6,0,L|245:310,1,120
369,128,120398,2,0,L|239:88,1,120
215,252,120739,2,0,L|91:327,1,120
141,113,121080,2,0,L|36:27,1,120
310,103,121421,6,0,L|434:72,1,120
166,158,121762,2,0,L|27:112,1,120
321,231,122103,2,0,L|472:186,1,120
150,289,122444,2,0,L|28:234,1,120
406,52,122784,5,0,0:0:0:0:
360,175,122955,1,0,0:0:0:0:
142,83,123125,1,0,0:0:0:0:
288,64,123296,1,0,0:0:0:0:
205,283,123466,1,0,0:0:0:0:
108,166,123637,1,0,0:0:0:0:
396,177,123807,2,0,L|269:253,1,120
211,42,124148,5,0,0:0:0:0:
261,327,124489,5,0,0:0:0:0:
234,159,124659,2,0,L|205:14,1,120
410,245,125171,5,0,0:0:0:0:
210,126,125512,6,0,L|175:7,1,120
310,153,125853,2,0,L|340:32,1,120
196,230,126194,2,0,L|39:157,1,120
328,271,126534,2,0,L|463:208,1,120
249,30,126875,5,0,0:0:0:0:
143,85,127046,1,0,0:0:0:0:
320,96,127216,1,0,0:0:0:0:
92,161,127387,1,0,0:0:0:0:
419,162,127557,1,0,0:0:0:0:
164,224,127728,1,0,0:0:0:0:
320,237,127898,1,0,0:0:0:0:
224,298,128069,1,0,0:0:0:0:
322,162,128239,6,0,L|342:307,1,120
199,280,128580,2,0,L|235:131,1,120
378,98,128921,2,0,L|239:40,1,120
159,104,129262,2,0,L|282:44,1,120
336,236,129603,5,0,0:0:0:0:
209,102,129773,1,0,0:0:0:0:
308,141,129944,1,0,0:0:0:0:
106,93,130114,1,0,0:0:0:0:
287,82,130284,6,0,L|435:72,1,120
123,162,130625,1,0,0:0:0:0:
197,162,130796,1,0,0:0:0:0:
260,42,130966,5,0,0:0:0:0:
286,331,131137,1,0,0:0:0:0:
306,39,131307,1,0,0:0:0:0:
236,328,131478,1,0,0:0:0:0:
397,141,131648,5,0,0:0:0:0:
141,210,131819,1,0,0:0:0:0:
394,206,131989,1,0,0:0:0:0:
139,146,132159,1,0,0:0:0:0:
260,42,132330,5,0,0:0:0:0:
286,331,132501,1,0,0:0:0:0:
306,39,132671,1,0,0:0:0:0:
236,328,132842,1,0,0:0:0:0:
397,141,133012,5,0,0:0:0:0:
141,210,133183,1,0,0:0:0:0:
394,206,133353,1,0,0:0:0:0:
139,146,133523,1,0,0:0:0:0:
363,156,133694,6,0,L|444:280,1,120
226,110,134034,2,0,L|71:114,1,120
364,153,134375,2,0,L|446:45,1,120
321,208,134716,2,0,L|225:314,1,120
367,159,135057,5,0,0:0:0:0:
310,333,135228,1,0,0:0:0:0:
184,127,135398,1,0,0:0:0:0:
420,245,135569,1,0,0:0:0:0:
107,188,135739,5,0,0:0:0:0:
287,96,135909,1,0,0:0:0:0:
233,322,136080,1,0,0:0:0:0:
187,174,136250,1,0,0:0:0:0:
373,234,136421,5,0,0:0:0:0:
373,234,136506,1,0,0:0:0:0:
373,234,136591,1,0,0:0:0:0:
154,119,136762,1,0,0:0:0:0:
402,128,136932,1,0,0:0:0:0:
152,58,137103,1,0,0:0:0:0:
409,184,137273,1,0,0:0:0:0:
106,85,137444,1,0,0:0:0:0:
420,77,137614,1,0,0:0:0:0:
156,194,137784,6,0,L|96:335,1,120
237,105,138125,2,0,L|82:55,1,120
250,267,138466,2,0,L|411:219,1,120
114,83,138807,1,0,0:0:0:0:
127,268,138978,1,0,0:0:0:0:
309,113,139148,5,0,0:0:0:0:
309,113,139233,1,0,0:0:0:0:
309,113,139319,1,0,0:0:0:0:
172,300,139489,1,0,0:0:0:0:
146,154,139659,1,0,0:0:0:0:
392,219,139830,1,0,0:0:0:0:
281,305,140000,1,0,0:0:0:0:
179,42,140171,1,0,0:0:0:0:
352,60,140341,1,0,0:0:0:0:
215,238,140512,6,0,L|68:285,1,120
297,146,140853,2,0,L|444:99,1,120
108,218,141194,1,0,0:0:0:0:
345,79,141364,1,0,0:0:0:0:
199,240,141534,1,0,0:0:0:0:
173,193,141620,1,0,0:0:0:0:
152,142,141705,1,0,0:0:0:0:
215,148,141790,1,0,0:0:0:0:
256,192,141875,12,0,147330,0:0:0:0:
