osu file format v14

[General]
AudioFilename: audio.mp3
AudioLeadIn: 0
PreviewTime: 15
Countdown: 0
SampleSet: Soft
StackLeniency: 0
Mode: 0
LetterboxInBreaks: 0
WidescreenStoryboard: 1

[Editor]
DistanceSpacing: 1.5
BeatDivisor: 8
GridSize: 16
TimelineZoom: 1

[Metadata]
Title:Hydrangea
TitleUnicode:Hydrangea
Artist:Mosenite
ArtistUnicode:モセニテ
Creator:Sgt Pepper
Version:Urghi's Advanced
Source:ゆめ2っき
Tags:aranel urghi video game videogame vgm ost original soundtrack instrumental rpgmaker 2000 yume nikki 2kki lavender waters purple lake azure blue garden murasakiko 紫湖 moseni_hydrangea 452a vaporwave
BeatmapID:3539974
BeatmapSetID:1713927

[Difficulty]
HPDrainRate:4
CircleSize:7
OverallDifficulty:6
ApproachRate:5.5
SliderMultiplier:2
SliderTickRate:2

[Events]
//Background and Video events
0,0,"2352554_papyapa_yume-2kki-lavender-waters-2.jpg",0,0
//Break Periods
//Storyboard Layer 0 (Background)
//Storyboard Layer 1 (Fail)
//Storyboard Layer 2 (Pass)
//Storyboard Layer 3 (Foreground)
//Storyboard Layer 4 (Overlay)
//Storyboard Sound Samples

[TimingPoints]
50,1073.72942018611,4,2,1,65,1,0
319,-100,4,2,1,35,0,0
586,-100,4,2,1,35,0,0
2197,-100,4,2,1,65,0,0
2465,-100,4,2,1,65,0,0
3271,-100,4,2,1,65,0,0
3808,-100,4,2,1,65,0,0
4344,-100,4,2,1,65,0,0
4613,-100,4,2,1,35,0,0
4881,-100,4,2,1,65,0,0
5955,-100,4,2,1,65,0,0
6224,-100,4,2,1,65,0,0
6493,-100,4,2,1,65,0,0
6760,-100,4,2,1,65,0,0
7029,-100,4,2,1,65,0,0
7297,-100,4,2,1,65,0,0
7566,-100,4,2,1,65,0,0
8639,-100,4,2,1,65,0,0
8908,-100,4,2,1,35,0,0
9176,-100,4,2,1,65,0,0
9713,-100,4,2,1,65,0,0
9981,-100,4,2,1,65,0,0
10250,-100,4,2,1,65,0,0
10518,-100,4,2,1,65,0,0
10787,-100,4,2,1,65,0,0
11055,-100,4,2,1,65,0,0
11861,-100,4,2,1,65,0,0
12129,-100,4,2,1,65,0,0
12263,-100,4,2,1,5,0,0
12397,-100,4,2,1,65,0,0
12934,-100,4,2,1,65,0,0
13203,-100,4,2,1,35,0,0
13471,-100,4,2,1,65,0,0
14545,-100,4,2,1,65,0,0
14814,-100,4,2,1,5,0,0
15082,-100,4,2,1,65,0,0
15350,-100,4,2,1,65,0,0
15484,-100,4,2,1,5,0,0
15619,-100,4,2,1,65,0,0
16021,-100,4,2,1,5,0,0
16155,-100,4,2,1,65,0,0
16423,-100,4,2,1,65,0,0
17229,-100,4,2,1,65,0,0
17498,-100,4,2,1,35,0,0
17766,-100,4,2,1,65,0,0
19376,-100,4,2,1,65,0,0
19644,-100,4,2,1,65,0,0
20450,-100,4,2,1,65,0,0
20987,-100,4,2,1,65,0,0
21523,-100,4,2,1,65,0,0
21792,-100,4,2,1,35,0,0
22061,-100,4,2,1,65,0,0
23135,-100,4,2,1,65,0,0
23404,-100,4,2,1,65,0,0
23673,-100,4,2,1,65,0,0
23940,-100,4,2,1,65,0,0
24209,-100,4,2,1,65,0,0
24477,-100,4,2,1,65,0,0
24746,-100,4,2,1,65,0,0
25818,-100,4,2,1,65,0,0
26087,-100,4,2,1,35,0,0
26356,-100,4,2,1,65,0,0
26892,-100,4,2,1,65,0,0
27160,-100,4,2,1,65,0,0
27429,-100,4,2,1,65,0,0
27697,-100,4,2,1,65,0,0
27966,-100,4,2,1,65,0,0
28234,-100,4,2,1,65,0,0
29040,-100,4,2,1,65,0,0
29308,-100,4,2,1,65,0,0
30113,-100,4,2,1,65,0,0
30382,-100,4,2,1,35,0,0
30651,-100,4,2,1,65,0,0
31724,-100,4,2,1,65,0,0
31993,-100,4,2,1,5,0,0
32261,-100,4,2,1,65,0,0
32529,-100,4,2,1,65,0,0
32664,-100,4,2,1,5,0,0
32798,-100,4,2,1,65,0,0
33201,-100,4,2,1,5,0,0
33334,-100,4,2,1,65,0,0
33602,-100,4,2,1,65,0,0
42999,-100,4,2,1,10,0,0

[Colours]
Combo1 : 194,158,199
Combo2 : 203,149,223
Combo3 : 172,125,204
Combo4 : 182,177,218

[HitObjects]
136,73,50,6,0,P|147:108|159:161,1,75,2|8,3:2|2:0,0:0:0:0:
180,169,586,2,0,P|175:199|149:217,1,50,2|0,3:2|3:0,0:0:0:0:
93,227,1123,1,8,0:0:0:0:
130,286,1392,2,0,P|175:297|236:318,1,100,0|0,3:0|3:0,0:0:0:0:
281,356,2197,6,0,P|306:350|335:278,1,100,2|0,3:2|3:2,0:0:0:0:
386,237,3002,1,0,0:0:0:0:
340,183,3271,1,10,0:2:0:0:
388,132,3539,2,0,P|395:101|422:15,1,100,0|0,0:0|3:0,0:0:0:0:
478,7,4344,6,0,B|492:67|489:17|504:85,1,75,2|8,3:2|2:0,0:0:0:0:
509,111,4881,2,0,P|502:139|476:150,1,50,2|0,3:2|3:0,0:0:0:0:
426,188,5418,1,8,0:0:0:0:
395,250,5687,1,0,3:0:0:0:
451,290,5955,2,0,P|440:322|434:355,1,50,2|2,0:0|3:2,0:0:0:0:
370,360,6492,6,0,L|314:351,1,50,2|2,3:2|0:0,0:0:0:0:
328,282,7029,2,0,L|377:289,2,50,2|2|10,3:2|3:2|0:2,0:0:0:0:
290,222,7834,2,0,B|212:233|270:231|182:242,1,100,0|0,3:0|3:0,0:0:0:0:
154,300,8639,6,0,P|116:298|92:339,1,75,2|8,3:2|2:0,0:0:0:0:
75,354,9176,2,0,P|45:361|20:374,1,50,2|0,3:2|3:0,0:0:0:0:
9,301,9713,1,10,0:0:0:0:
58,252,9981,2,0,P|39:202|24:146,1,100,0|0,3:0|3:0,0:0:0:0:
58,94,10787,6,0,B|128:115|79:113|164:137,1,100,2|0,3:2|3:2,0:0:0:0:
219,123,11592,1,0,3:2:0:0:
240,56,11861,1,10,0:2:0:0:
188,8,12129,2,0,P|144:14|122:66,1,100,0|0,0:0|3:0,0:0:0:0:
79,116,12934,6,0,P|110:122|156:138,1,75,2|8,3:2|2:0,0:0:0:0:
172,163,13471,2,0,P|201:158|217:138,1,50,2|0,3:2|3:0,0:0:0:0:
264,94,14008,1,8,0:0:0:0:
331,76,14276,1,0,3:0:0:0:
384,121,14545,2,0,P|414:146|414:182,1,75,2|0,0:0|0:0,0:0:0:0:
389,204,15082,6,0,P|399:249|411:316,1,100,2|0,3:2|3:2,0:0:0:0:
367,358,15887,1,0,0:0:0:0:
309,317,16155,2,0,P|300:267|289:218,1,100,10|2,0:2|0:2,0:0:0:0:
238,170,16961,1,0,3:0:0:0:
295,130,17229,6,0,P|304:94|320:37,1,75,2|8,3:2|2:0,0:0:0:0:
295,27,17766,2,0,P|305:11|339:3,1,50,2|0,3:2|3:0,0:0:0:0:
403,3,18303,1,8,0:0:0:0:
447,56,18571,2,0,P|457:96|466:156,1,100,0|0,3:0|3:0,0:0:0:0:
415,202,19377,6,0,B|402:268|398:227|376:310,1,100,2|0,3:2|3:2,0:0:0:0:
411,357,20182,1,0,3:2:0:0:
344,378,20450,1,10,0:2:0:0:
294,328,20719,2,0,P|246:314|176:304,1,100,0|0,3:0|3:0,0:0:0:0:
145,353,21524,6,0,B|101:364|116:350|62:363,1,75,2|8,3:2|2:0,0:0:0:0:
38,375,22061,2,0,P|8:362|10:334,1,50,2|0,3:2|3:0,0:0:0:0:
24,280,22598,1,8,0:0:0:0:
6,212,22866,1,0,3:0:0:0:
66,176,23135,2,0,P|65:144|44:129,1,50,2|2,0:0|3:2,0:0:0:0:
7,79,23671,6,0,L|56:71,1,50,2|0,3:2|0:0,0:0:0:0:
49,1,24208,2,0,L|-1:8,2,50,2|2|8,3:2|3:2|0:2,0:0:0:0:
119,2,25014,2,0,P|157:2|194:59,1,100,2|0,3:2|3:0,0:0:0:0:
242,97,25819,6,0,P|280:106|323:121,1,75,2|8,3:2|2:0,0:0:0:0:
346,103,26356,2,0,P|372:113|384:140,1,50,2|0,3:2|0:0,0:0:0:0:
430,182,26893,1,10,0:0:0:0:
382,233,27161,2,0,P|372:272|357:337,1,100,0|0,3:0|3:0,0:0:0:0:
294,359,27966,6,0,P|259:344|269:280,1,100,2|0,3:2|3:2,0:0:0:0:
222,228,28772,1,0,3:2:0:0:
249,163,29040,1,10,0:2:0:0:
315,139,29309,2,0,P|370:155|428:165,1,100,0|0,3:0|0:0,0:0:0:0:
477,136,30114,6,0,B|492:188|494:151|508:209,1,75,2|8,3:2|2:0,0:0:0:0:
511,238,30651,2,0,P|501:265|480:278,1,50,2|0,3:2|3:0,0:0:0:0:
456,341,31188,1,8,0:0:0:0:
388,359,31456,1,0,0:0:0:0:
332,315,31725,2,0,P|294:305|243:297,1,75,2|0,0:0|0:0,0:0:0:0:
224,293,32261,6,0,P|234:248|246:181,1,100,2|0,3:2|3:2,0:0:0:0:
207,135,33066,1,0,0:0:0:0:
154,181,33334,2,0,P|145:231|134:280,1,100,10|2,0:2|0:2,0:0:0:0:
82,326,34140,1,0,3:0:0:0:
174,364,34409,5,2,3:2:0:0:
256,192,34677,12,2,42999,3:2:0:0:
