osu file format v14

[General]
AudioFilename: audio.mp3
AudioLeadIn: 0
PreviewTime: 15
Countdown: 0
SampleSet: Soft
StackLeniency: 0
Mode: 0
LetterboxInBreaks: 0
WidescreenStoryboard: 0

[Editor]
DistanceSpacing: 1.5
BeatDivisor: 8
GridSize: 16
TimelineZoom: 1

[Metadata]
Title:Hydrangea
TitleUnicode:Hydrangea
Artist:Mosenite
ArtistUnicode:モセニテ
Creator:Sgt Pepper
Version:Dream
Source:ゆめ2っき
Tags:aranel urghi video game videogame vgm ost original soundtrack instrumental rpgmaker 2000 yume nikki 2kki lavender waters purple lake azure blue garden murasakiko 紫湖 moseni_hydrangea 452a vaporwave
BeatmapID:3502154
BeatmapSetID:1713927

[Difficulty]
HPDrainRate:4
CircleSize:8
OverallDifficulty:7
ApproachRate:6
SliderMultiplier:2.1
SliderTickRate:2

[Events]
//Background and Video events
0,0,"2352554_papyapa_yume-2kki-lavender-waters-2.jpg",0,0
//Break Periods
//Storyboard Layer 0 (Background)
//Storyboard Layer 1 (Fail)
//Storyboard Layer 2 (Pass)
//Storyboard Layer 3 (Foreground)
//Storyboard Layer 4 (Overlay)
//Storyboard Sound Samples

[TimingPoints]
50,1073.72942018611,4,2,1,65,1,0
319,-133.333333333333,4,2,1,35,0,0
586,-133.333333333333,4,2,1,35,0,0
1123,-100,4,2,1,35,0,0
2197,-100,4,2,1,65,0,0
2465,-100,4,2,1,65,0,0
3271,-100,4,2,1,65,0,0
3808,-100,4,2,1,65,0,0
4344,-83.3333333333333,4,2,1,65,0,0
4613,-100,4,2,1,35,0,0
4881,-133.333333333333,4,2,1,65,0,0
5150,-100,4,2,1,65,0,0
5955,-100,4,2,1,65,0,0
6224,-100,4,2,1,65,0,0
6492,-100,4,2,1,65,0,0
6760,-133.333333333333,4,2,1,65,0,0
7029,-133.333333333333,4,2,1,65,0,0
7297,-133.333333333333,4,2,1,65,0,0
7566,-200,4,2,1,65,0,0
7834,-400,4,2,1,65,0,0
8639,-100,4,2,1,65,0,0
8908,-133.333333333333,4,2,1,35,0,0
9176,-133.333333333333,4,2,1,65,0,0
9713,-100,4,2,1,65,0,0
9981,-100,4,2,1,65,0,0
10250,-100,4,2,1,65,0,0
10518,-100,4,2,1,65,0,0
10787,-100,4,2,1,65,0,0
11055,-100,4,2,1,65,0,0
11861,-83.3333333333333,4,2,1,65,0,0
12129,-133.333333333333,4,2,1,65,0,0
12263,-133.333333333333,4,2,1,5,0,0
12397,-133.333333333333,4,2,1,65,0,0
12934,-100,4,2,1,65,0,0
13203,-100,4,2,1,35,0,0
13471,-100,4,2,1,65,0,0
14545,-100,4,2,1,65,0,0
14814,-100,4,2,1,65,0,0
15082,-100,4,2,1,65,0,0
15350,-100,4,2,1,65,0,0
15484,-100,4,2,1,5,0,0
15619,-100,4,2,1,65,0,0
16021,-100,4,2,1,65,0,0
16155,-100,4,2,1,65,0,0
16423,-100,4,2,1,65,0,0
17229,-100,4,2,1,65,0,0
17498,-100,4,2,1,35,0,0
17766,-100,4,2,1,65,0,0
19376,-100,4,2,1,65,0,0
19644,-100,4,2,1,65,0,0
20450,-100,4,2,1,65,0,0
20987,-100,4,2,1,65,0,0
21523,-83.3333333333333,4,2,1,65,0,0
21792,-133.333333333333,4,2,1,35,0,0
22061,-133.333333333333,4,2,1,65,0,0
23135,-100,4,2,1,65,0,0
23404,-100,4,2,1,65,0,0
23673,-100,4,2,1,65,0,0
23940,-100,4,2,1,65,0,0
24208,-133.333333333333,4,2,1,65,0,0
24477,-133.333333333333,4,2,1,65,0,0
24746,-200,4,2,1,65,0,0
25014,-400,4,2,1,65,0,0
25818,-100,4,2,1,65,0,0
26087,-133.333333333333,4,2,1,35,0,0
26356,-133.333333333333,4,2,1,65,0,0
26892,-100,4,2,1,65,0,0
27160,-100,4,2,1,65,0,0
27429,-100,4,2,1,65,0,0
27697,-100,4,2,1,65,0,0
27966,-100,4,2,1,65,0,0
28234,-100,4,2,1,65,0,0
29040,-100,4,2,1,65,0,0
29308,-100,4,2,1,65,0,0
30113,-100,4,2,1,65,0,0
30382,-100,4,2,1,35,0,0
30651,-100,4,2,1,65,0,0
31724,-100,4,2,1,65,0,0
31993,-100,4,2,1,65,0,0
32261,-100,4,2,1,65,0,0
32529,-100,4,2,1,65,0,0
32664,-100,4,2,1,5,0,0
32798,-100,4,2,1,65,0,0
33201,-100,4,2,1,65,0,0
33334,-100,4,2,1,65,0,0
33602,-100,4,2,1,65,0,0
42999,-100,4,2,1,10,0,0

[Colours]
Combo1 : 194,158,199
Combo2 : 203,149,223
Combo3 : 172,125,204
Combo4 : 182,177,218

[HitObjects]
495,288,50,6,0,L|395:304,1,78.75,2|8,3:2|2:0,0:0:0:0:
368,321,586,2,0,L|406:313,1,39.3750015020371,2|0,3:2|3:0,0:0:0:0:
312,246,1124,1,8,0:0:0:0:
302,365,1392,1,0,3:0:0:0:
234,331,1661,2,0,P|261:332|284:343,1,52.5,0|0,0:0|3:0,0:0:0:0:
250,234,2197,6,0,P|236:257|214:271,1,52.5,2|0,3:2|0:0,0:0:0:0:
326,295,2734,2,0,P|313:271|312:245,1,52.5,0|0,3:2|3:2,0:0:0:0:
216,367,3271,2,0,L|162:361,1,52.5,10|0,0:2|3:0,0:0:0:0:
71,350,3809,1,2,0:2:0:0:
157,320,4077,1,0,3:0:0:0:
88,186,4344,6,0,P|82:238|83:282,1,94.499997116089,2|8,3:2|2:0,0:0:0:0:
100,308,4881,2,0,P|103:275|100:252,1,39.3750015020371,2|0,3:2|3:0,0:0:0:0:
88,186,5418,1,8,0:0:0:0:
88,186,5687,1,0,3:0:0:0:
46,138,5955,1,2,0:0:0:0:
78,83,6223,1,2,3:2:0:0:
140,96,6492,6,0,L|206:107,1,52.5,2|2,3:2|0:0,0:0:0:0:
269,92,7029,2,0,L|221:99,1,39.3750015020371,2|2,3:2|3:2,0:0:0:0:
306,100,7566,5,10,0:2:0:0:
306,100,7834,2,0,L|331:105,1,26.25,0|0,3:0|3:0,0:0:0:0:
403,181,8639,6,0,P|376:165|369:120,1,78.75,2|8,3:2|2:0,0:0:0:0:
411,90,9176,2,0,P|390:94|374:105,1,39.3750015020371,2|0,3:2|3:0,0:0:0:0:
479,147,9713,1,10,0:0:0:0:
452,61,9981,1,0,3:0:0:0:
492,18,10250,1,2,0:0:0:0:
465,104,10518,1,0,3:0:0:0:
491,193,10787,6,0,P|452:203|436:227,1,52.5,2|0,3:2|0:0,0:0:0:0:
381,253,11324,2,0,P|420:243|436:219,1,52.5,0|0,3:2|3:2,0:0:0:0:
353,192,11861,2,0,P|361:242|345:289,1,94.499997116089,10|0,0:2|0:0,0:0:0:0:
313,313,12397,2,0,P|293:312|276:303,1,39.3750015020371,2|0,0:2|3:0,0:0:0:0:
231,250,12934,6,0,B|210:241|194:254|193:268|172:278|151:270,1,78.75,2|8,3:2|2:0,0:0:0:0:
141,260,13471,1,2,3:2:0:0:
221,288,13740,1,0,3:0:0:0:
301,218,14008,2,0,P|327:216|352:224,1,52.5,8|0,0:0|3:0,0:0:0:0:
391,268,14545,2,0,P|417:266|442:274,1,52.5,2|0,0:0|3:0,0:0:0:0:
493,317,15082,6,0,P|459:351|430:353,1,78.75,2|0,3:2|0:0,0:0:0:0:
395,322,15619,2,0,P|356:328|336:347,1,52.5,0|0,3:2|3:2,0:0:0:0:
302,375,16155,1,10,0:2:0:0:
224,344,16424,1,0,3:0:0:0:
211,263,16692,1,2,0:2:0:0:
274,210,16961,1,0,3:0:0:0:
351,238,17229,6,0,P|395:231|430:189,1,78.75,2|8,3:2|2:0,0:0:0:0:
468,190,17766,2,0,P|442:189|410:211,1,52.5,2|0,3:2|3:0,0:0:0:0:
483,279,18303,1,8,0:0:0:0:
507,207,18571,1,0,3:0:0:0:
457,150,18840,1,0,0:0:0:0:
481,78,19108,1,0,3:0:0:0:
407,26,19377,6,0,P|357:27|342:34,1,52.5,2|0,3:2|0:0,0:0:0:0:
269,65,19913,2,0,P|319:66|334:73,1,52.5,0|0,3:2|3:2,0:0:0:0:
390,117,20450,2,0,P|340:118|325:125,1,52.5,10|0,0:2|3:0,0:0:0:0:
267,154,20987,1,2,0:2:0:0:
214,92,21256,1,0,3:0:0:0:
84,103,21524,6,0,P|131:118|199:108,1,94.499997116089,2|8,3:2|2:0,0:0:0:0:
214,92,22061,2,0,P|202:106|210:106,1,39.3750015020371,2|0,3:2|3:0,0:0:0:0:
295,40,22598,5,8,0:0:0:0:
200,19,22866,1,0,3:0:0:0:
141,76,23135,1,2,0:0:0:0:
65,59,23403,1,2,3:2:0:0:
65,59,23672,6,0,L|60:112,1,52.5,2|0,3:2|0:0,0:0:0:0:
2,141,24208,2,0,L|59:147,1,39.3750015020371,2|2,3:2|3:2,0:0:0:0:
51,208,24745,5,8,0:2:0:0:
51,208,25014,2,0,L|54:180,1,26.25,2|0,3:2|3:0,0:0:0:0:
115,93,25819,6,0,P|152:82|189:94,1,78.75,2|8,3:2|2:0,0:0:0:0:
233,115,26356,2,0,P|214:108|195:113,1,39.3750015020371,2|0,3:2|0:0,0:0:0:0:
159,202,26893,1,10,0:0:0:0:
226,172,27161,1,0,3:0:0:0:
150,244,27430,1,2,0:0:0:0:
168,160,27698,1,0,3:0:0:0:
208,262,27966,6,0,P|249:267|272:250,1,52.5,2|0,3:2|0:0,0:0:0:0:
150,244,28503,2,0,P|109:239|86:256,1,52.5,0|0,3:2|3:2,0:0:0:0:
188,224,29040,2,0,P|193:183|176:160,1,52.5,10|0,0:2|3:0,0:0:0:0:
170,282,29577,2,0,P|165:323|182:346,1,52.5,2|0,0:2|0:0,0:0:0:0:
298,340,30114,6,0,P|246:330|206:349,1,78.75,2|8,3:2|2:0,0:0:0:0:
212,353,30651,1,2,3:2:0:0:
272,287,30919,1,0,3:0:0:0:
345,366,31188,2,0,L|338:313,1,52.5,8|0,0:0|0:0,0:0:0:0:
404,247,31725,2,0,L|410:299,1,52.5,2|0,0:0|0:0,0:0:0:0:
317,269,32261,6,0,L|307:190,1,78.75,2|0,3:2|0:0,0:0:0:0:
342,179,32798,2,0,P|315:154|270:189,1,78.75,0|0,3:2|0:0,0:0:0:0:
269,190,33335,5,10,0:2:0:0:
196,142,33604,1,0,3:0:0:0:
204,239,33872,1,2,0:2:0:0:
119,184,34140,1,0,3:0:0:0:
111,281,34408,1,2,3:2:0:0:
256,192,34543,12,2,42999,3:2:0:0:
