osu file format v14

[General]
AudioFilename: audio.mp3
AudioLeadIn: 0
PreviewTime: 54610
Countdown: 0
SampleSet: Soft
StackLeniency: 0.4
Mode: 0
LetterboxInBreaks: 0
WidescreenStoryboard: 1

[Editor]
DistanceSpacing: 1.1
BeatDivisor: 2
GridSize: 8
TimelineZoom: 2.500001

[Metadata]
Title:Tsumujikaze (TV Size)
TitleUnicode:つむじかぜ (TV Size)
Artist:Morohoshi Sumire
ArtistUnicode:諸星すみれ
Creator:verychill
Version:Normal
Source:本好きの下剋上~司書になるためには手段を選んでいられません~
Tags:Ascendance of a Bookworm Honzuki no Gekokujou Shisho ni Naru Tame wa Shudan wo Erandeiraremasen Opening OP anime japanese
BeatmapID:2417435
BeatmapSetID:1157141

[Difficulty]
HPDrainRate:3
CircleSize:3.5
OverallDifficulty:4
ApproachRate:5
SliderMultiplier:1.1
SliderTickRate:1

[Events]
//Background and Video events
0,0,"honzuki_w2x.jpg",0,0
Video,98,"video.mp4"
//Break Periods
//Storyboard Layer 0 (Background)
//Storyboard Layer 1 (Fail)
//Storyboard Layer 2 (Pass)
//Storyboard Layer 3 (Foreground)
//Storyboard Layer 4 (Overlay)
//Storyboard Sound Samples

[TimingPoints]
652,402.684563758389,3,2,1,40,1,0
5484,-117.647058823529,4,2,1,45,0,0
10316,-117.647058823529,6,2,1,50,0,0
19980,-111.111111111111,6,2,1,60,0,0
24812,-111.111111111111,6,2,1,60,0,0
27228,-111.111111111111,6,2,1,60,0,0
32061,-111.111111111111,6,2,1,60,0,0
41725,-111.111111111111,3,2,1,70,0,0
46558,-100,3,2,1,80,0,0
53000,-100,3,2,1,50,0,0
54712,402.684563758389,3,2,1,85,1,1
54712,-90.9090909090909,6,2,1,85,0,1
61859,-90.9090909090909,6,2,1,85,0,0
61960,-90.9090909090909,6,2,1,85,0,1
71524,-90.9090909090909,6,2,1,85,0,0
71624,-90.9090909090909,6,2,1,85,0,1
73235,-90.9090909090909,6,2,1,85,0,0
74040,-90.9090909090909,6,2,1,85,0,1
75651,-90.9090909090909,6,2,1,85,0,0
76456,-90.9090909090909,6,2,1,85,0,1
78470,-90.9090909090909,6,2,1,85,0,0
81289,402.684563758389,4,2,1,70,1,0
81289,-90.9090909090909,6,2,1,70,0,1
82094,-90.9090909090909,6,2,1,65,0,1
82899,-90.9090909090909,6,2,1,60,0,1
83705,-90.9090909090909,6,2,1,55,0,1
84510,402.684563758389,3,2,1,50,1,1
84610,-100,4,2,1,50,0,0
85919,-142.857142857143,4,2,1,50,0,0
86926,-142.857142857143,4,2,1,45,0,0
87530,-142.857142857143,4,2,1,40,0,0
88134,-142.857142857143,4,2,1,35,0,0
88738,-142.857142857143,4,2,1,30,0,0
89392,-142.857142857143,4,2,99,5,0,0

[Colours]
Combo1 : 107,38,130
Combo2 : 50,109,185
Combo3 : 227,184,51
Combo4 : 58,143,223
Combo5 : 247,218,118
Combo6 : 170,26,26

[HitObjects]
256,192,652,12,2,4276,0:1:0:0:
162,53,5484,5,2,3:2:0:0:
22,68,6088,1,0,3:0:0:0:
147,130,6692,1,2,3:2:0:0:
8,145,7296,1,0,3:0:0:0:
88,30,7900,5,2,3:1:0:0:
103,170,8504,1,0,3:0:0:0:
165,45,9108,1,2,3:1:0:0:
180,184,9712,1,0,3:2:0:0:
319,200,10317,6,0,P|327:149|324:104,2,93.500001783371,6|0|0,3:2|3:2|3:2,0:0:0:0:
292,290,11525,2,0,L|197:281,1,93.500001783371,2|2,3:2|3:2,0:0:0:0:
152,277,12129,1,2,0:0:0:0:
146,371,12531,1,2,0:0:0:0:
146,371,12733,6,0,L|240:379,1,93.500001783371,2|2,3:2|3:2,0:0:0:0:
285,384,13337,2,0,L|293:289,1,93.500001783371,2|0,0:2|0:2,0:0:0:0:
297,245,13941,1,0,3:0:0:0:
343,163,14343,1,0,3:0:0:0:
435,147,14746,1,0,3:2:0:0:
512,200,15149,70,0,L|504:302,1,93.500001783371,2|2,3:2|3:2,0:0:0:0:
499,339,15753,1,2,0:0:0:0:
409,336,16155,1,2,0:0:0:0:
409,336,16357,2,0,L|313:327,1,93.500001783371,2|2,3:2|3:2,0:0:0:0:
269,320,16961,2,0,L|260:224,1,93.500001783371,2|2,0:2|0:2,0:0:0:0:
255,180,17565,6,0,L|159:171,1,93.500001783371,2|0,3:2|3:2,0:0:0:0:
78,214,18370,1,2,3:2:0:0:
128,292,18773,2,0,L|112:385,2,93.500001783371,2|0|4,3:2|3:2|3:2,0:0:0:0:
193,218,19981,38,0,B|231:234|259:210|302:224,2,98.9999969787599,6|0|0,3:2|3:2|3:0,0:0:0:0:
169,180,20988,1,2,0:0:0:0:
169,180,21189,2,0,P|165:155|191:75,1,98.9999969787599,2|2,3:1|3:2,0:0:0:0:
222,54,21793,1,2,0:0:0:0:
324,55,22196,1,2,0:0:0:0:
324,55,22397,6,0,P|359:101|370:155,1,98.9999969787599,2|2,3:1|3:2,0:0:0:0:
370,189,23001,2,0,P|342:240|296:267,1,98.9999969787599,2|0,0:0|0:2,0:0:0:0:
261,278,23605,1,2,3:1:0:0:
162,283,24008,1,0,3:2:0:0:
80,227,24410,1,0,3:2:0:0:
60,131,24813,70,0,P|65:72|98:34,1,98.9999969787599,2|2,3:1|3:2,0:0:0:0:
186,34,25619,2,0,L|180:94,1,49.4999984893799,2|2,3:2|0:2,0:0:0:0:
214,121,26021,2,0,P|261:133|316:126,1,98.9999969787599,2|2,3:1|3:2,0:0:0:0:
390,70,26827,2,0,L|451:75,1,49.4999984893799,2|2,3:2|0:2,0:0:0:0:
488,80,27229,6,0,P|497:131|481:183,1,98.9999969787599,2|0,3:1|3:2,0:0:0:0:
459,218,27833,1,2,0:2:0:0:
368,193,28236,1,0,0:0:0:0:
368,193,28437,2,8,P|319:187|179:253,1,197.99999395752,2|0,3:2|3:2,0:0:0:0:
113,188,29645,69,2,3:2:0:0:
113,188,29847,2,0,P|105:155|104:130,1,49.4999984893799,2|0,0:0|3:0,0:0:0:0:
75,98,30249,2,0,P|49:101|15:92,2,49.4999984893799,2|0|2,0:2|3:2|0:2,0:0:0:0:
97,54,30853,6,0,P|153:8|232:4,1,148.49999546814,8|8,3:2|0:3,0:2:0:0:
327,30,31860,1,8,0:0:0:0:
327,30,32061,38,0,P|361:73|360:133,1,98.9999969787599,6|0,3:2|0:0,0:0:0:0:
361,164,32665,1,2,3:2:0:0:
350,265,33068,1,2,0:0:0:0:
350,265,33269,2,0,P|352:311|390:357,1,98.9999969787599,2|2,3:2|0:0,0:0:0:0:
482,340,34074,2,0,P|482:312|492:280,1,49.4999984893799,2|0,3:2|0:0,0:0:0:0:
499,243,34477,6,0,P|507:187|497:137,1,98.9999969787599,2|0,3:2|0:0,0:0:0:0:
484,99,35081,1,2,3:2:0:0:
414,36,35484,1,0,0:0:0:0:
414,36,35685,2,0,P|359:27|299:45,1,98.9999969787599,2|2,3:2|0:0,0:0:0:0:
270,51,36289,1,10,0:0:0:0:
266,153,36692,1,4,0:3:0:0:
266,153,36893,70,0,P|274:194|276:259,1,98.9999969787599,6|0,3:2|0:0,0:0:0:0:
272,300,37497,2,0,P|231:308|166:310,1,98.9999969787599,2|0,3:2|0:0,0:0:0:0:
125,306,38101,2,0,P|117:265|115:200,1,98.9999969787599,2|2,3:2|0:0,0:0:0:0:
140,112,38907,2,0,P|140:87|128:63,1,49.4999984893799,10|4,0:2|0:3,0:0:0:0:
105,20,39309,6,8,P|176:2|250:5,1,148.49999546814,2|2,3:2|3:2,0:0:0:0:
340,57,40316,1,0,0:0:0:0:
340,57,40517,2,0,B|329:99|367:117|347:199,1,98.9999969787599,2|0,3:2|0:0,0:0:0:0:
328,195,41121,2,0,P|297:188|257:198,2,49.4999984893799,8|8|4,0:0|0:3|0:3,0:0:0:0:
347,239,41725,6,0,P|421:297|499:247,1,197.99999395752,6|8,3:2|0:2,0:2:0:0:
512,150,42933,2,0,P|420:74|309:113,1,247.4999924469,6|8,3:2|0:3,0:2:0:0:
272,147,44141,6,0,B|196:188|196:113|123:161,1,148.49999546814,6|8,3:2|0:2,0:2:0:0:
94,191,44947,1,2,0:0:0:0:
43,276,45349,2,0,P|101:327|220:348,1,197.99999395752,6|4,3:2|0:3,0:0:0:0:
327,337,46558,69,4,3:2:0:0:
414,270,46960,2,0,L|416:195,1,55,10|2,0:0|3:2,0:0:0:0:
416,159,47363,2,0,P|338:143|281:154,1,110,2|2,0:2|3:2,0:2:0:0:
256,164,47967,1,2,0:2:0:0:
168,230,48370,2,0,P|147:151|168:102,1,110,2|10,3:2|0:2,0:2:0:0:
187,82,48974,5,2,3:2:0:0:
256,192,49175,12,0,53000,0:2:0:0:
352,160,54712,6,0,P|367:219|359:280,1,121.000003692627,6|10,3:2|3:2,0:0:0:0:
248,322,55517,1,2,3:2:0:0:
164,234,55920,2,0,P|97:221|30:228,2,121.000003692627,2|8|2,3:2|3:2|3:2,0:0:0:0:
221,127,57128,6,0,P|287:140|355:133,1,121.000003692627,2|8,3:2|3:2,0:0:0:0:
393,104,57732,2,0,L|481:104,2,60.5000018463135,2|2|10,0:0|3:2|0:0,0:0:0:0:
349,61,58336,2,0,P|282:47|215:55,1,121.000003692627,2|8,3:2|3:2,0:0:0:0:
111,29,59141,2,0,P|97:54|91:84,1,60.5000018463135,0|10,3:2|0:2,0:0:0:0:
81,145,59544,70,0,P|147:158|214:150,1,121.000003692627,2|8,3:2|3:2,0:0:0:0:
255,177,60148,2,0,P|259:206|254:236,2,60.5000018463135,2|2|2,0:2|3:2|0:0,0:0:0:0:
311,156,60752,1,2,3:2:0:0:
416,218,61154,1,8,3:2:0:0:
390,337,61557,2,0,P|362:346|332:348,1,60.5000018463135,2|2,3:2|0:2,0:0:0:0:
270,347,61960,6,0,P|241:288|263:226,1,121.000003692627,6|10,3:1|3:2,0:0:0:0:
291,188,62564,2,0,P|279:156|250:140,2,60.5000018463135,2|2|2,0:2|3:2|0:0,0:0:0:0:
348,207,63168,1,2,3:2:0:0:
449,142,63571,1,4,0:3:0:0:
426,24,63973,2,0,L|358:18,1,60.5000018463135,8|8,3:3|0:3,0:0:0:0:
306,15,64376,70,0,P|239:34|184:73,1,121.000003692627,6|10,3:2|3:2,0:0:0:0:
110,147,65181,2,0,P|113:176|123:205,1,60.5000018463135,2|8,3:2|0:0,0:0:0:0:
177,234,65584,2,0,B|226:233|230:284|301:275,2,121.000003692627,2|8|2,3:2|3:2|3:2,0:0:0:0:
57,245,66792,5,2,3:2:0:0:
8,134,67195,1,10,3:2:0:0:
97,55,67597,2,0,P|129:67|156:87,1,60.5000018463135,2|8,3:2|0:0,0:0:0:0:
202,116,68000,2,0,B|251:117|255:66|326:75,2,121.000003692627,2|0|0,3:2|3:2|3:2,0:0:0:0:
146,140,69007,2,0,P|120:156|92:166,1,60.5000018463135,8|0,0:0|3:0,0:0:0:0:
0,247,69611,70,0,P|45:292|111:312,1,121.000003692627,10|2,3:2|3:2,0:0:0:0:
162,315,70215,1,8,0:0:0:0:
162,315,70416,2,0,P|195:309|241:322,1,60.5000018463135,2|2,3:2|0:2,0:2:0:0:
281,322,70819,1,10,3:2:0:0:
391,269,71222,2,0,L|384:208,1,60.5000018463135,2|10,3:2|0:0,0:0:0:0:
365,151,71624,6,0,P|347:85|364:21,1,121.000003692627,4|8,3:2|0:2,0:0:0:0:
418,31,72228,2,0,P|437:93|418:158,1,121.000003692627,4|8,3:2|0:3,0:0:0:0:
400,201,72832,1,4,3:2:0:0:
347,309,73235,2,0,P|361:343|397:378,2,60.5000018463135,2|8|10,3:2|0:0|0:0,0:0:0:0:
229,341,74040,38,8,P|179:373|120:380,1,121.000003692627,4|8,3:1|0:2,0:0:0:0:
95,325,74644,2,8,P|149:286|216:285,1,121.000003692627,4|8,3:1|0:2,0:0:0:0:
261,292,75248,2,8,P|317:277|341:211,1,121.000003692627,4|0,3:1|3:2,0:0:0:0:
331,102,76054,2,0,L|270:108,1,60.5000018463135,8|4,3:0|0:3,0:0:0:0:
213,126,76456,6,8,P|167:75|103:57,1,121.000003692627,4|8,3:1|0:2,0:0:0:0:
80,105,77060,2,8,P|122:154|189:173,1,121.000003692627,4|8,3:2|0:2,0:0:0:0:
234,179,77665,2,0,L|297:184,1,60.5000018463135,4|0,3:1|0:3,0:0:0:0:
354,191,78067,1,8,3:2:0:0:
377,311,78470,2,0,L|313:305,1,60.5000018463135,2|2,3:2|0:2,0:0:0:0:
257,299,78873,6,0,P|199:311|161:357,2,121.000003692627,6|0|8,3:2|3:2|0:0,0:0:0:0:
346,380,80081,2,0,P|404:368|442:322,1,121.000003692627,2|0,3:2|3:2,0:0:0:0:
458,267,80685,1,4,0:3:0:0:
458,267,80886,2,0,L|380:260,1,60.5000018463135,8|0,3:2|0:2,0:0:0:0:
337,254,81289,38,0,L|324:122,1,121.000003692627,6|2,3:2|3:2,0:0:0:0:
245,45,82094,38,0,L|101:57,1,121.000003692627,2|2,3:2|3:2,0:0:0:0:
36,137,82899,6,0,L|48:273,1,121.000003692627,2|2,3:2|3:2,0:0:0:0:
128,346,83705,70,0,L|274:331,1,121.000003692627,2|2,3:2|3:2,0:0:0:0:
312,331,84309,1,2,0:0:0:0:
312,331,84510,53,4,3:2:0:0:
280,168,85114,1,0,0:0:0:0:
128,222,85718,5,2,0:2:0:0:
128,222,85919,2,0,B|151:140|98:140|133:71,1,153.999995300293
256,192,86926,12,0,89393,0:2:0:0:
