osu file format v14

[General]
AudioFilename: audio.mp3
AudioLeadIn: 0
PreviewTime: 54610
Countdown: 0
SampleSet: Soft
StackLeniency: 0.4
Mode: 0
LetterboxInBreaks: 0
WidescreenStoryboard: 1

[Editor]
DistanceSpacing: 1.2
BeatDivisor: 4
GridSize: 8
TimelineZoom: 2.7

[Metadata]
Title:Tsumujikaze (TV Size)
TitleUnicode:つむじかぜ (TV Size)
Artist:Morohoshi Sumire
ArtistUnicode:諸星すみれ
Creator:verychill
Version:Insane
Source:本好きの下剋上~司書になるためには手段を選んでいられません~
Tags:Ascendance of a Bookworm Honzuki no Gekokujou Shisho ni Naru Tame wa Shudan wo Erandeiraremasen Opening OP anime japanese
BeatmapID:2415993
BeatmapSetID:1157141

[Difficulty]
HPDrainRate:5
CircleSize:4
OverallDifficulty:8
ApproachRate:9
SliderMultiplier:1.5
SliderTickRate:1

[Events]
//Background and Video events
0,0,"honzuki_w2x.jpg",0,0
Video,98,"video.mp4"
//Break Periods
//Storyboard Layer 0 (Background)
//Storyboard Layer 1 (Fail)
//Storyboard Layer 2 (Pass)
//Storyboard Layer 3 (Foreground)
//Storyboard Layer 4 (Overlay)
//Storyboard Sound Samples

[TimingPoints]
652,402.684563758389,3,2,1,40,1,0
5484,-100,3,2,1,45,0,0
9712,-200,3,2,1,45,0,0
10215,-200,3,2,99,5,0,0
10316,-100,6,2,1,50,0,0
19578,-76.9230769230769,6,2,1,50,0,0
19880,-76.9230769230769,6,2,99,5,0,0
19980,-100,6,2,1,60,0,0
24611,-100,6,2,1,60,0,0
24711,-100,6,2,1,60,0,0
24812,-100,6,2,1,60,0,0
27228,-71.4285714285714,6,2,1,60,0,0
29544,-71.4285714285714,6,2,99,5,0,0
29644,-66.6666666666667,6,2,1,60,0,0
32061,-83.3333333333333,6,2,1,60,0,0
33571,-83.3333333333333,6,2,99,5,0,0
33672,-100,6,2,1,60,0,0
34477,-83.3333333333333,6,2,1,60,0,0
38403,-83.3333333333333,6,2,99,5,0,0
38504,-100,6,2,1,60,0,0
39309,-83.3333333333333,6,2,1,60,0,0
41725,-71.4285714285714,6,2,1,70,0,0
44947,-125,6,2,1,70,0,0
45249,-125,6,2,99,5,0,0
45349,-66.6666666666667,6,2,1,70,0,0
46558,-55.5555555555556,6,2,1,80,0,0
48974,-66.6666666666667,6,2,1,80,0,0
49276,-66.6666666666667,6,2,99,5,0,0
49376,-66.6666666666667,6,2,1,80,0,0
50081,-66.6666666666667,6,2,99,5,0,0
50182,-50,6,2,1,80,0,0
51390,-222.222222222222,6,2,1,80,0,0
52094,-222.222222222222,6,2,99,5,0,0
52195,-66.6666666666667,6,2,1,40,0,0
52396,-66.6666666666667,6,2,1,50,0,0
52597,-66.6666666666667,6,2,1,60,0,0
52799,-66.6666666666667,6,2,1,70,0,0
53000,-66.6666666666667,6,2,1,50,0,0
54712,402.684563758389,3,2,1,85,1,1
54712,-58.8235294117647,6,2,1,85,0,1
61054,-58.8235294117647,6,2,99,85,0,1
61154,-83.3333333333333,6,2,1,85,0,1
61557,-62.5,6,2,1,85,0,1
61758,-50,6,2,1,85,0,1
61859,-50,6,2,1,85,0,0
61960,-58.8235294117647,6,2,1,85,0,1
62363,-58.8235294117647,6,2,1,85,0,1
71524,-58.8235294117647,6,2,1,85,0,0
71624,-50,6,2,1,85,0,1
71926,-50,6,2,99,85,0,1
72027,-50,6,2,1,85,0,1
72530,-50,6,2,99,85,0,1
72631,-50,6,2,1,85,0,1
73134,-50,6,2,99,85,0,1
73235,-50,6,2,1,85,0,0
74040,-50,6,2,1,85,0,1
74342,-50,6,2,99,85,0,1
74443,-50,6,2,1,85,0,1
74946,-50,6,2,99,85,0,1
75047,-50,6,2,1,85,0,1
75550,-50,6,2,99,85,0,1
75651,-50,6,2,1,85,0,0
76456,-50,6,2,1,85,0,1
76758,-50,6,2,99,85,0,1
76859,-50,6,2,1,85,0,1
77363,-50,6,2,99,85,0,1
77463,-50,6,2,1,85,0,1
78369,-50,6,2,99,85,0,1
78470,-58.8235294117647,6,2,1,85,0,0
81289,402.684563758389,4,2,1,70,1,1
81289,-58.8235294117647,4,2,1,70,0,1
82094,-66.6666666666667,4,2,1,65,0,1
82899,-76.9230769230769,4,2,1,60,0,1
83705,-90.9090909090909,4,2,1,55,0,1
84510,402.684563758389,3,2,1,50,1,1
84610,-111.111111111111,3,2,1,50,0,0
86926,-111.111111111111,3,2,1,45,0,0
87530,-111.111111111111,3,2,1,40,0,0
88134,-111.111111111111,3,2,1,35,0,0
88738,-111.111111111111,3,2,1,50,0,0
89392,-111.111111111111,3,2,99,5,0,0

[Colours]
Combo1 : 107,38,130
Combo2 : 50,109,185
Combo3 : 227,184,51
Combo4 : 58,143,223
Combo5 : 247,218,118
Combo6 : 170,26,26

[HitObjects]
256,192,652,12,2,4276,0:1:0:0:
53,126,5484,6,0,P|94:135|154:129,1,75,2|0,3:2|0:2,0:0:0:0:
191,71,5886,2,0,B|218:63|234:79|292:68,1,75,0|0,0:2|3:2,0:0:0:0:
340,119,6289,1,0,0:2:0:0:
340,119,6490,1,0,0:2:0:0:
394,195,6692,6,0,P|422:169|434:134,1,75,2|0,3:2|0:2,0:0:0:0:
315,207,7094,2,0,B|295:199|267:216|242:203,1,75,0|0,0:2|3:2,0:0:0:0:
288,308,7497,1,0,0:2:0:0:
288,308,7698,1,0,0:2:0:0:
386,269,7900,70,0,L|393:195,2,75,2|0|0,3:1|0:2|0:2,0:0:0:0:
438,351,8504,2,0,L|513:358,2,75,0|0|0,3:2|0:2|0:2,0:0:0:0:
312,384,9108,5,2,3:1:0:0:
280,261,9309,1,0,0:2:0:0:
365,309,9511,1,0,0:2:0:0:
206,349,9712,2,0,B|220:314|179:295|191:252,1,93.75,0|0,3:2|0:2,0:0:0:0:
191,253,10316,6,0,P|207:189|171:107,2,150,6|0|0,3:2|3:2|3:0,0:0:0:0:
108,193,11323,1,0,0:0:0:0:
108,193,11524,6,0,L|18:188,1,75,2|0,3:2|0:2,0:0:0:0:
118,273,11927,1,2,3:2:0:0:
176,113,12128,2,0,L|171:23,1,75,2|0,0:2|3:2,0:0:0:0:
46,67,12531,1,2,0:0:0:0:
108,193,12732,70,0,L|188:217,1,75,2|0,3:2|0:2,0:0:0:0:
227,333,13135,1,2,3:2:0:0:
331,240,13336,2,0,L|251:264,1,75,2|0,0:2|3:2,0:0:0:0:
252,169,13739,1,0,0:2:0:0:
252,169,13940,6,0,P|274:97|322:40,2,150,0|0|0,3:2|3:2|3:2,0:0:0:0:
184,38,14947,1,0,0:2:0:0:
184,38,15148,70,0,P|154:15|118:7,1,75,2|0,3:2|0:2,0:0:0:0:
0,26,15551,1,2,3:2:0:0:
49,133,15752,2,0,P|76:107|111:96,1,75,2|0,0:2|3:2,0:0:0:0:
236,91,16155,1,2,0:2:0:0:
281,242,16356,6,0,P|279:279|263:313,1,75,2|0,3:2|0:2,0:0:0:0:
164,257,16759,1,2,3:2:0:0:
374,232,16960,2,0,P|362:197|338:169,1,75,2|0,0:2|3:2,0:0:0:0:
236,91,17363,1,2,0:2:0:0:
164,257,17564,70,0,P|82:286|9:286,1,150,2|0,3:2|3:2,0:0:0:0:
211,331,18168,1,0,0:2:0:0:
222,329,18269,1,0,0:2:0:0:
233,328,18370,2,0,P|285:330|325:349,1,75,2|0,3:2|0:2,0:0:0:0:
474,360,18772,6,0,P|438:368|401:365,1,75,2|0,3:2|0:2,0:0:0:0:
336,241,19175,1,0,3:2:0:0:
454,198,19376,2,0,L|447:234,1,37.5,0|0,0:2|0:2,0:0:0:0:
512,278,19578,2,0,L|483:105,1,146.249993305207,4|0,3:2|0:2,0:0:0:0:
486,127,19980,38,0,P|440:91|328:107,1,150,6|0,3:2|3:2,0:0:0:0:
258,175,20584,1,0,0:2:0:0:
276,178,20685,1,0,0:2:0:0:
294,181,20786,1,0,3:2:0:0:
290,35,20987,1,2,0:2:0:0:
182,214,21188,6,0,P|172:178|178:142,1,75,2|0,3:1|0:2,0:0:0:0:
62,0,21591,1,2,3:2:0:0:
167,53,21792,1,2,0:2:0:0:
170,35,21893,1,0,0:2:0:0:
173,17,21994,1,0,3:2:0:0:
89,121,22195,1,2,0:2:0:0:
34,244,22396,70,0,P|26:313|70:391,1,150,2|2,3:1|3:2,0:0:0:0:
177,290,23000,1,2,0:2:0:0:
160,293,23101,1,0,0:0:0:0:
141,296,23202,1,0,3:2:0:0:
62,384,23403,1,0,0:2:0:0:
191,384,23605,6,0,P|249:363|272:343,1,75,2|0,3:1|0:0,0:0:0:0:
246,206,24007,1,0,3:0:0:0:
351,259,24209,1,0,0:2:0:0:
348,276,24309,1,0,0:0:0:0:
345,295,24410,1,0,3:2:0:0:
177,290,24611,2,0,L|183:253,1,37.5,0|0,0:2|0:2,0:0:0:0:
119,210,24813,70,0,P|139:281|138:309,1,75,2|0,3:1|0:2,0:0:0:0:
259,355,25215,2,0,P|295:360|330:375,1,75,2|0,3:2|0:2,0:0:0:0:
348,373,25517,1,0,0:2:0:0:
366,370,25618,1,2,3:2:0:0:
430,241,25819,1,2,0:2:0:0:
265,137,26021,6,0,P|261:174|266:211,1,75,2|0,3:1|0:0,0:0:0:0:
170,143,26423,1,2,3:2:0:0:
217,56,26625,1,0,0:0:0:0:
234,51,26725,1,0,0:0:0:0:
252,46,26826,2,0,P|316:59|342:83,1,75,2|2,3:2|0:0,0:0:0:0:
102,87,27229,70,0,B|64:136|71:193|114:188|129:256|75:311,1,209.999993591309,2|0,3:1|3:2,0:0:0:0:
217,323,27833,2,0,P|269:326|319:345,1,104.999996795654,2|0,0:2|3:2,0:0:0:0:
272,171,28235,1,2,0:2:0:0:
296,150,28336,1,2,0:2:0:0:
327,141,28437,6,0,P|391:177|482:318,1,209.999993591309,2|0,3:2|3:2,0:0:0:0:
494,383,29041,1,0,0:0:0:0:
319,345,29242,2,0,P|244:333|160:352,1,157.499995193482,0|0,3:0|0:0,0:0:0:0:
158,352,29645,70,0,L|151:278,1,56.2500021457673,2|0,3:2|0:2,0:0:0:0:
148,131,29846,1,2,0:2:0:0:
122,123,29947,1,2,0:2:0:0:
95,127,30047,1,2,3:2:0:0:
33,244,30249,2,0,P|61:244|89:242,1,56.2500021457673,2|0,0:2|0:2,0:2:0:0:
109,117,30450,1,2,3:2:0:0:
124,110,30551,1,2,0:2:0:0:
140,106,30651,2,0,P|168:107|195:111,1,56.2500021457673,2|0,0:2|0:2,0:2:0:0:
361,144,30853,5,8,3:2:0:0:
242,193,31054,1,8,0:3:0:0:
295,38,31256,1,0,3:2:0:0:
468,181,31457,1,8,0:3:0:0:
414,76,31658,1,0,3:2:0:0:
363,276,31860,1,8,0:2:0:0:
358,297,31960,1,8,0:2:0:0:
353,318,32061,38,0,P|259:305|166:342,1,179.999994506836,6|0,3:2|0:2,0:0:0:0:
0,226,32665,2,0,P|92:247|188:218,1,179.999994506836,2|0,3:2|0:2,0:0:0:0:
353,318,33269,2,0,P|294:243|284:165,1,134.999995880127,2|0,3:2|0:2,0:0:0:0:
284,199,33672,1,2,0:0:0:0:
179,115,33873,2,0,L|143:122,1,37.5,0|0,3:2|0:2,0:0:0:0:
62,95,34074,1,10,0:2:0:0:
62,95,34276,1,0,0:2:0:0:
172,228,34477,6,0,P|199:142|185:54,1,179.999994506836,2|0,3:2|0:2,0:0:0:0:
326,54,35081,2,0,P|312:142|340:228,1,179.999994506836,2|0,3:2|0:2,0:0:0:0:
159,318,35685,2,0,P|253:305|346:342,1,179.999994506836,2|2,3:2|0:2,0:0:0:0:
431,153,36289,1,10,0:2:0:0:
333,115,36490,1,8,0:3:0:0:
461,46,36692,1,4,0:3:0:0:
512,226,36893,70,0,P|419:247|323:218,1,179.999994506836,6|0,3:2|0:2,0:0:0:0:
201,52,37497,2,0,P|117:24|32:49,1,179.999994506836,2|0,3:2|0:2,0:0:0:0:
118,147,38101,2,0,P|151:229|130:308,1,134.999995880127,2|0,3:2|0:2,0:0:0:0:
144,280,38504,1,2,0:0:0:0:
312,349,38705,2,0,L|276:342,1,37.5,0|0,0:2|0:2,0:0:0:0:
202,384,38907,1,10,0:2:0:0:
202,384,39108,1,4,0:3:0:0:
382,313,39309,6,0,P|360:228|394:146,1,179.999994506836,2|0,3:2|0:2,0:0:0:0:
480,49,39913,2,0,P|394:25|309:53,1,179.999994506836,2|0,3:2|0:2,0:0:0:0:
181,217,40517,2,0,B|97:263|91:186|8:216,1,179.999994506836,2|0,3:2|0:0,0:0:0:0:
11,35,41121,1,8,0:2:0:0:
135,143,41323,1,8,0:3:0:0:
124,19,41524,1,4,0:3:0:0:
8,216,41725,6,0,P|92:273|91:374,1,209.999993591309,6|8,3:2|0:2,0:0:0:0:
0,322,42329,1,4,0:3:0:0:
191,290,42531,1,8,0:2:0:0:
362,382,42732,1,2,0:0:0:0:
348,383,42833,1,2,0:0:0:0:
334,384,42933,6,0,P|321:296|363:159,1,209.999993591309,6|8,3:2|0:2,0:0:0:0:
512,322,43537,1,4,0:3:0:0:
136,379,43940,1,8,0:3:0:0:
158,382,44041,1,8,0:3:0:0:
178,384,44141,70,0,P|191:296|149:159,1,209.999993591309,6|0,3:2|0:0,0:0:0:0:
351,180,44745,1,8,0:2:0:0:
421,374,44947,2,0,L|444:284,1,90,2|0,0:2|0:2,0:0:0:0:
503,216,45349,6,0,P|419:273|407:312,1,112.500004291535,6|0,3:2|0:0,0:0:0:0:
334,384,45752,1,8,0:2:0:0:
263,208,45954,1,8,0:2:0:0:
259,200,46054,1,8,0:3:0:0:
256,192,46155,1,4,0:3:0:0:
256,192,46558,70,0,L|122:214,1,134.999995880127,4|0,3:2|0:2,0:0:0:0:
50,9,46960,1,10,0:2:0:0:
84,5,47061,1,8,0:2:0:0:
118,0,47162,2,0,L|139:122,1,67.4999979400635,2|0,3:2|0:2,0:0:0:0:
221,81,47363,1,2,0:2:0:0:
253,76,47464,1,8,0:2:0:0:
289,70,47564,1,8,0:3:0:0:
340,276,47766,6,0,L|352:210,1,67.4999979400635,2|0,3:2|0:0,0:0:0:0:
275,335,47967,2,0,L|208:323,1,67.4999979400635,2|8,0:2|0:2,0:0:0:0:
447,384,48370,2,0,L|471:235,1,134.999995880127,2|0,3:2|0:2,0:0:0:0:
473,217,48672,1,8,0:2:0:0:
478,182,48772,1,10,0:2:0:0:
481,10,48974,70,0,B|424:-19|385:35|314:4,1,168.750006437302,2|0,3:2|0:2,0:0:0:0:
310,2,49376,2,0,P|318:54|351:92,1,56.2500021457673,2|0,3:2|0:2,0:0:0:0:
458,109,49578,1,8,0:2:0:0:
434,98,49678,1,8,0:2:0:0:
407,105,49779,2,0,P|386:173|390:274,1,168.750006437302,2|0,3:2|0:2,0:0:0:0:
390,277,50182,6,0,P|341:258|261:269,1,75,2|0,3:2|0:2,0:0:0:0:
162,366,50383,1,0,0:2:0:0:
181,370,50484,1,0,0:2:0:0:
200,365,50584,2,0,P|240:332|271:257,1,75,2|0,0:2|0:0,0:0:0:0:
271,130,50786,1,0,0:2:0:0:
239,132,50886,1,0,0:2:0:0:
218,156,50987,2,0,P|226:207|275:271,1,75,2|0,0:1|0:2,0:0:0:0:
67,296,51188,1,2,0:1:0:0:
111,265,51289,1,2,0:1:0:0:
119,212,51390,70,0,B|127:163|83:155|102:88,1,118.124996395111,2|0,0:1|0:3,0:0:0:0:
102,91,52195,6,0,L|108:64,16,28.1250010728836,2|2|2|2|2|2|2|2|2|2|2|2|2|2|2|2|2,0:2|0:2|0:2|0:2|0:2|0:2|0:2|0:2|0:2|0:2|0:2|0:2|0:2|0:2|0:2|0:2|0:2,0:0:0:0:
313,355,54712,6,0,P|339:305|410:262,1,127.50000243187,6|0,3:2|0:0,0:0:0:0:
184,266,55114,2,0,P|163:214|99:152,1,127.50000243187,10|0,3:2|0:0,0:0:0:0:
298,118,55517,2,0,P|326:53|381:-1,1,127.50000243187,2|0,3:2|0:0,0:0:0:0:
397,266,55920,6,0,P|307:175|191:125,2,255.000004863739,2|8|2,3:2|3:2|3:2,0:0:0:0:
68,357,57128,70,0,B|112:314|174:306|193:359|269:350|309:280,1,255.000004863739,2|8,3:2|3:2,0:0:0:0:
399,84,57732,1,10,0:2:0:0:
369,61,57832,1,8,0:2:0:0:
331,58,57933,2,0,P|291:145|290:180,1,127.50000243187,2|10,3:2|0:2,0:0:0:0:
441,384,58336,5,2,3:2:0:0:
365,242,58537,1,0,0:0:0:0:
160,329,58738,1,8,3:2:0:0:
298,369,58940,1,4,0:3:0:0:
310,332,59040,1,4,0:3:0:0:
301,294,59141,1,0,3:2:0:0:
18,304,59342,1,10,0:2:0:0:
18,304,59544,70,0,P|90:206|222:181,1,255.000004863739,2|8,3:2|3:2,0:0:0:0:
32,111,60148,1,2,0:2:0:0:
216,7,60349,1,2,3:2:0:0:
103,21,60550,1,4,0:3:0:0:
323,47,60752,6,0,P|343:141|313:231,1,191.250003647804,2|0,3:2|0:2,0:0:0:0:
359,217,61154,1,8,3:2:0:0:
406,224,61255,1,8,0:2:0:0:
450,243,61356,2,0,P|444:221|446:199,1,44.999998626709,8|0,0:3|0:2,0:0:0:0:
346,326,61557,2,0,P|337:350|340:390,1,60,2|0,3:2|0:2,0:0:0:0:
183,205,61758,2,0,P|169:170|164:133,1,75,2|0,0:2|0:2,0:0:0:0:
0,302,61960,70,0,P|140:309|267:304,1,255.000004863739,6|8,3:1|3:2,0:0:0:0:
419,370,62564,1,4,0:3:0:0:
393,329,62665,1,4,0:3:0:0:
346,326,62765,1,2,3:2:0:0:
189,142,62967,1,10,0:2:0:0:
237,140,63067,1,8,0:2:0:0:
263,101,63168,6,0,P|259:69|249:39,1,63.7500012159348,2|0,3:2|0:2,0:0:0:0:
399,103,63369,2,0,P|440:98|521:177,1,127.50000243187,8|4,3:3|0:3,0:0:0:0:
346,326,63772,2,0,P|339:294|327:265,1,63.7500012159348,4|0,3:3|0:2,0:0:0:0:
189,142,63973,1,8,3:3:0:0:
132,129,64074,1,8,0:3:0:0:
85,163,64175,1,12,0:3:0:0:
81,219,64275,1,12,0:3:0:0:
115,265,64376,70,0,P|168:299|199:355,1,127.50000243187,6|0,3:2|0:0,0:0:0:0:
328,265,64779,2,0,P|352:206|397:162,1,127.50000243187,10|0,3:2|0:0,0:0:0:0:
213,117,65181,1,2,3:2:0:0:
148,11,65383,1,8,0:0:0:0:
115,266,65584,6,0,P|205:175|321:125,2,255.000004863739,2|8|2,3:2|3:2|3:2,0:0:0:0:
444,275,66792,70,0,B|404:234|396:172|449:153|440:77|383:45,1,255.000004863739,2|10,3:2|3:2,0:0:0:0:
139,28,67396,1,8,0:2:0:0:
174,15,67497,1,8,0:2:0:0:
211,11,67597,2,0,P|243:65|252:128,1,127.50000243187,2|8,3:2|0:2,0:0:0:0:
31,218,68000,6,0,P|86:139|116:121,1,127.50000243187,2|8,3:2|0:2,0:0:0:0:
299,227,68403,1,2,3:2:0:0:
267,226,68503,1,2,0:2:0:0:
237,214,68604,1,2,0:2:0:0:
214,191,68705,1,2,0:2:0:0:
208,140,68805,1,2,3:2:0:0:
235,96,68906,1,2,0:2:0:0:
283,76,69007,1,10,0:2:0:0:
333,76,69107,1,10,0:2:0:0:
383,109,69208,69,2,3:2:0:0:
414,156,69309,1,2,3:2:0:0:
413,212,69409,1,2,3:2:0:0:
384,261,69510,1,2,3:2:0:0:
340,298,69611,2,0,P|256:297|178:263,1,127.50000243187,10|0,3:2|0:0,0:0:0:0:
44,384,70014,2,0,P|86:311|155:261,1,127.50000243187,2|8,3:2|0:0,0:0:0:0:
298,195,70416,5,2,3:2:0:0:
221,384,70618,1,2,0:2:0:0:
167,199,70819,2,0,P|150:137|117:84,1,127.50000243187,10|0,3:2|0:0,0:0:0:0:
50,201,71222,1,2,3:2:0:0:
215,283,71423,1,2,0:2:0:0:
382,8,71624,70,0,P|292:71|271:179,1,225,4|0,3:2|0:2,0:0:0:0:
273,185,72027,1,8,0:2:0:0:
503,328,72228,2,0,P|493:218|410:146,1,225,4|0,3:2|0:2,0:0:0:0:
404,145,72631,1,8,0:3:0:0:
368,282,72832,2,0,P|264:318|165:272,1,225,4|0,3:2|0:2,0:0:0:0:
160,267,73235,69,2,3:2:0:0:
322,105,73436,1,8,0:2:0:0:
195,128,73638,1,10,3:2:0:0:
195,128,74040,70,0,P|123:44|13:35,1,225,4|0,3:1|0:2,0:0:0:0:
9,38,74443,1,8,0:2:0:0:
218,213,74644,2,0,P|197:320|107:383,1,225,4|0,3:1|0:2,0:0:0:0:
100,384,75047,1,8,0:2:0:0:
279,150,75248,2,0,P|378:103|482:139,1,225,4|0,3:1|0:3,0:0:0:0:
486,144,75651,5,0,3:2:0:0:
297,245,75852,1,4,0:3:0:0:
291,213,75953,1,4,0:3:0:0:
285,182,76054,1,8,3:3:0:0:
279,150,76154,1,8,0:3:0:0:
274,118,76255,1,4,0:3:0:0:
269,87,76356,1,4,0:3:0:0:
262,55,76456,70,0,P|163:8|59:44,1,225,4|0,3:1|0:2,0:0:0:0:
55,49,76859,1,8,0:2:0:0:
204,290,77060,2,0,P|226:182|317:121,1,225,4|0,3:2|0:2,0:0:0:0:
324,120,77463,1,8,0:2:0:0:
381,300,77665,1,4,3:1:0:0:
512,168,77866,1,0,0:0:0:0:
409,87,78067,2,0,P|417:196|500:268,1,225,8|0,3:2|0:2,0:0:0:0:
507,270,78470,1,2,3:2:0:0:
324,120,78671,1,2,0:2:0:0:
291,101,78772,1,2,0:2:0:0:
253,98,78873,38,0,P|119:128|3:246,1,255.000004863739,6|0,3:2|3:0,0:0:0:0:
181,229,79477,2,0,P|244:220|307:231,1,127.50000243187,2|8,0:2|0:2,0:2:0:0:
453,355,79879,1,2,0:0:0:0:
444,372,79980,1,2,0:2:0:0:
429,384,80081,70,0,B|386:340|378:278|431:259|422:183|352:143,1,255.000004863739,2|0,3:2|3:2,0:0:0:0:
242,357,80685,1,4,0:3:0:0:
181,229,80886,1,8,3:2:0:0:
306,230,81087,1,0,0:0:0:0:
93,384,81289,38,0,L|79:246,1,127.50000243187,6|0,3:2|0:0,0:0:0:0:
66,136,81691,1,2,3:2:0:0:
348,309,81893,1,2,0:2:0:0:
372,299,81993,1,2,0:2:0:0:
388,283,82094,38,0,L|400:149,1,112.500004291535,2|0,3:2|0:0,0:0:0:0:
411,64,82497,1,2,3:2:0:0:
191,103,82698,1,2,0:2:0:0:
175,106,82799,1,2,0:2:0:0:
163,112,82899,6,0,L|153:216,1,97.4999955368044,2|0,3:2|0:0,0:0:0:0:
293,340,83302,1,2,3:2:0:0:
143,306,83503,1,0,0:2:0:0:
279,176,83705,70,0,L|286:258,1,82.5000025177003,2|0,3:2|0:0,0:0:0:0:
409,345,84107,1,2,3:2:0:0:
472,236,84309,1,0,0:2:0:0:
300,27,84510,53,4,3:2:0:0:
286,60,85114,5,0,0:2:0:0:
118,87,85718,69,2,0:2:0:0:
272,93,85919,2,0,B|317:172|228:206|273:291,1,202.499993820191
362,241,86724,1,0,0:2:0:0:
185,139,86926,54,0,B|112:146|62:79|62:79|103:71|120:89,2,202.499993820191,0|0|0,0:2|0:2|0:2,0:0:0:0:
256,192,88234,12,0,89392,0:0:0:0:
