osu file format v14

[General]
AudioFilename: audio.mp3
AudioLeadIn: 0
PreviewTime: 54610
Countdown: 0
SampleSet: Soft
StackLeniency: 0.4
Mode: 0
LetterboxInBreaks: 0
WidescreenStoryboard: 1

[Editor]
DistanceSpacing: 1.2
BeatDivisor: 4
GridSize: 8
TimelineZoom: 4.099999

[Metadata]
Title:Tsumujikaze (TV Size)
TitleUnicode:つむじかぜ (TV Size)
Artist:Morohoshi Sumire
ArtistUnicode:諸星すみれ
Creator:verychill
Version:Hard
Source:本好きの下剋上~司書になるためには手段を選んでいられません~
Tags:Ascendance of a Bookworm Honzuki no Gekokujou Shisho ni Naru Tame wa Shudan wo Erandeiraremasen Opening OP anime japanese
BeatmapID:2416935
BeatmapSetID:1157141

[Difficulty]
HPDrainRate:4
CircleSize:4
OverallDifficulty:6.5
ApproachRate:8
SliderMultiplier:1.5
SliderTickRate:1

[Events]
//Background and Video events
0,0,"honzuki_w2x.jpg",0,0
Video,98,"video.mp4"
//Break Periods
//Storyboard Layer 0 (Background)
//Storyboard Layer 1 (Fail)
//Storyboard Layer 2 (Pass)
//Storyboard Layer 3 (Foreground)
//Storyboard Layer 4 (Overlay)
//Storyboard Sound Samples

[TimingPoints]
652,402.684563758389,3,2,1,40,1,0
5484,-125,3,2,1,45,0,0
9712,-181.818181818182,3,2,1,45,0,0
10115,-181.818181818182,3,2,1,20,0,0
10316,-111.111111111111,3,2,1,50,0,0
19980,-100,3,2,1,60,0,0
24813,-100,3,2,1,60,0,0
27229,-83.3333333333333,3,2,1,60,0,0
32061,-100,6,2,1,60,0,0
41725,-83.3333333333333,3,2,1,70,0,0
46558,-83.3333333333333,3,2,1,80,0,0
53000,-76.9230769230769,3,2,1,50,0,0
54712,402.684563758389,3,2,1,85,1,1
54712,-78.125,6,2,1,85,0,1
61859,-78.125,6,2,1,85,0,0
61960,-78.125,6,2,1,85,0,1
71524,-78.125,6,2,1,85,0,0
71624,-78.125,6,2,1,85,0,1
73235,-78.125,6,2,1,85,0,0
74040,-78.125,6,2,1,85,0,1
75651,-78.125,6,2,1,85,0,0
76456,-78.125,6,2,1,85,0,1
78470,-78.125,6,2,1,85,0,0
81289,402.684563758389,4,2,1,70,1,1
81289,-78.125,4,2,1,70,0,1
82094,-78.125,4,2,1,65,0,1
82899,-83.3333333333333,4,2,1,60,0,1
83705,-95.2380952380952,4,2,1,55,0,1
84510,402.684563758389,3,2,1,50,1,1
84610,-125,3,2,1,50,0,0
86926,-166.666666666667,3,2,1,45,0,0
87530,-166.666666666667,3,2,1,40,0,0
88134,-166.666666666667,3,2,1,35,0,0
88738,-166.666666666667,3,2,1,30,0,0
89392,-166.666666666667,3,2,99,5,0,0

[Colours]
Combo1 : 107,38,130
Combo2 : 50,109,185
Combo3 : 227,184,51
Combo4 : 58,143,223
Combo5 : 247,218,118
Combo6 : 170,26,26

[HitObjects]
256,192,652,12,2,4276,0:1:0:0:
254,61,5484,5,2,3:2:0:0:
215,181,5886,1,0,0:2:0:0:
215,181,6088,2,0,L|128:188,2,60,0|0|0,3:0|0:0|0:0,0:0:0:0:
299,225,6692,5,2,3:2:0:0:
336,356,7094,1,0,0:2:0:0:
336,356,7296,2,0,L|249:363,2,60,0|0|0,3:0|0:0|0:0,0:0:0:0:
443,306,7900,70,0,L|450:393,2,60,2|0|0,3:1|0:0|0:0,0:0:0:0:
356,277,8504,2,0,L|349:202,2,60,0|0|0,3:0|0:0|0:0,0:0:0:0:
458,324,9108,6,0,L|453:384,2,60,2|0|0,3:1|0:0|0:0,0:0:0:0:
512,229,9712,2,0,B|477:212|462:236|428:216,1,82.5000025177003,0|0,3:0|0:0,0:0:0:0:
369,118,10316,6,0,P|392:54|438:7,2,134.999995880127,6|0|0,3:2|3:0|3:0,0:0:0:0:
260,171,11524,6,0,P|196:141|173:138,1,67.4999979400635,2|0,3:2|0:2,0:0:0:0:
106,130,11927,1,2,3:2:0:0:
106,130,12128,2,0,P|75:196|75:212,1,67.4999979400635,2|0,0:2|3:2,0:0:0:0:
40,281,12531,1,2,0:0:0:0:
40,281,12732,70,0,L|174:292,1,134.999995880127,2|2,3:2|3:2,0:0:0:0:
271,373,13336,2,0,L|137:384,1,134.999995880127,2|0,0:2|0:2,0:0:0:0:
183,287,13940,6,0,P|151:266|127:237,1,67.4999979400635,0|0,3:2|0:0,0:0:0:0:
222,192,14343,2,0,P|214:155|217:118,1,67.4999979400635,0|0,3:2|0:0,0:0:0:0:
316,152,14745,2,0,P|336:120|365:96,1,67.4999979400635,0|0,3:2|0:2,0:0:0:0:
453,201,15148,70,0,P|407:254|342:271,1,134.999995880127,2|2,3:2|3:2,0:0:0:0:
235,248,15752,2,0,P|190:193|185:126,1,134.999995880127,2|2,0:2|0:2,0:0:0:0:
295,160,16356,6,0,P|344:182|381:173,1,67.4999979400635,2|0,3:2|0:2,0:0:0:0:
448,114,16759,1,2,3:2:0:0:
448,114,16960,2,0,P|402:63|337:50,1,134.999995880127,2|2,0:2|0:2,0:0:0:0:
283,138,17564,70,0,L|80:153,1,202.499993820191,2|0,3:2|0:2,0:0:0:0:
19,52,18370,2,0,L|86:59,1,67.4999979400635,2|0,3:2|0:0,0:0:0:0:
72,166,18772,6,0,P|36:178|0:182,1,67.4999979400635,2|0,3:2|0:2,0:0:0:0:
170,179,19175,2,0,P|154:212|130:241,1,67.4999979400635,0|0,3:2|0:2,0:0:0:0:
266,185,19578,2,0,P|262:152|250:120,1,67.4999979400635,4|0,3:2|0:0,0:0:0:0:
326,0,19980,38,0,P|314:20|318:173,1,150,6|0,3:2|3:2,0:0:0:0:
379,216,20584,1,0,0:2:0:0:
393,220,20685,1,0,0:2:0:0:
407,220,20786,1,0,3:2:0:0:
462,129,20987,1,2,0:2:0:0:
462,129,21188,6,0,P|387:115|365:115,1,75,2|0,3:1|0:2,0:0:0:0:
288,108,21591,1,2,3:2:0:0:
196,163,21792,1,2,0:2:0:0:
192,178,21893,1,0,0:2:0:0:
192,193,21994,1,0,3:2:0:0:
182,298,22195,1,2,0:2:0:0:
182,298,22396,70,0,P|106:301|33:284,1,150,2|2,3:1|3:2,0:0:0:0:
11,188,23000,2,0,P|17:151|33:117,1,75,2|0,0:2|3:0,0:0:0:0:
122,61,23403,1,0,0:2:0:0:
132,68,23504,1,0,0:0:0:0:
138,81,23605,6,0,L|131:157,1,75,2|0,3:1|0:0,0:0:0:0:
73,231,24007,1,0,3:2:0:0:
93,324,24209,1,0,0:2:0:0:
99,337,24309,1,0,0:0:0:0:
109,346,24410,2,0,L|192:354,1,75,0|0,3:2|0:2,0:0:0:0:
297,310,24813,70,0,P|274:304|217:261,1,75,2|0,3:1|0:2,0:0:0:0:
299,214,25215,2,0,P|286:193|277:122,1,75,2|0,3:2|0:2,0:0:0:0:
278,128,25517,1,0,0:2:0:0:
286,116,25618,1,2,3:2:0:0:
362,52,25819,1,2,0:2:0:0:
362,52,26021,6,0,P|397:39|434:36,1,75,2|0,3:1|0:0,0:0:0:0:
414,133,26423,2,0,P|390:162|375:196,1,75,2|0,3:2|0:2,0:0:0:0:
409,285,26826,1,2,3:2:0:0:
504,278,27027,1,2,2:2:0:0:
503,165,27229,70,0,B|444:155|399:207|326:176,1,179.999994506836,2|0,3:1|3:2,0:0:0:0:
237,112,27833,2,0,P|176:119|132:146,1,89.9999972534181,2|0,0:2|3:2,0:0:0:0:
61,200,28235,1,2,2:2:0:0:
47,216,28336,1,2,2:2:0:0:
37,234,28437,6,0,P|15:294|28:349,1,89.9999972534181,2|0,3:2|0:0,0:0:0:0:
116,301,28839,2,0,P|142:358|192:389,1,89.9999972534181,0|0,3:2|0:0,0:0:0:0:
218,293,29242,2,0,P|278:313|333:301,1,89.9999972534181,0|0,3:2|0:2,0:0:0:0:
418,307,29645,69,2,3:2:0:0:
465,208,29846,1,2,0:2:0:0:
468,185,29947,1,2,0:2:0:0:
463,166,30047,1,2,3:2:0:0:
405,75,30249,2,0,P|449:59|498:61,2,89.9999972534181,2|0|2,0:2|3:2|0:2,0:0:0:0:
298,133,30853,5,8,3:2:0:0:
184,117,31054,1,8,0:3:0:0:
284,63,31256,1,0,3:2:0:0:
236,168,31457,1,8,0:3:0:0:
214,53,31658,1,0,3:2:0:0:
107,97,31860,1,8,0:2:0:0:
100,114,31960,1,8,0:2:0:0:
97,130,32061,38,0,P|92:213|111:293,1,150,6|0,3:2|0:2,0:0:0:0:
216,272,32665,2,0,P|221:197|205:124,1,150,2|0,3:2|0:2,0:0:0:0:
91,105,33269,2,0,P|73:160|72:204,1,75,2|0,3:2|0:2,0:0:0:0:
97,289,33672,2,0,P|133:298|170:299,1,75,2|0,0:2|3:2,0:0:0:0:
287,277,34074,1,10,0:2:0:0:
335,371,34276,1,0,0:0:0:0:
335,371,34477,6,0,L|186:384,1,150,2|0,3:2|0:2,0:0:0:0:
140,279,35081,2,0,L|289:266,1,150,2|0,3:2|0:2,0:0:0:0:
339,384,35685,2,0,L|189:370,1,150,2|2,3:2|0:2,0:0:0:0:
112,304,36289,1,10,0:2:0:0:
19,368,36490,1,8,0:3:0:0:
33,289,36692,1,4,0:3:0:0:
97,383,36893,70,0,P|135:311|206:272,1,150,6|0,3:2|0:2,0:0:0:0:
280,300,37497,2,0,P|199:304|128:262,1,150,2|0,3:2|0:2,0:0:0:0:
117,184,38101,2,0,P|160:252|165:275,1,75,2|0,3:2|0:2,0:0:0:0:
237,326,38504,2,0,P|271:341|309:339,1,75,2|0,0:2|3:0,0:0:0:0:
288,228,38907,1,10,0:2:0:0:
404,229,39108,1,4,0:3:0:0:
404,229,39309,6,0,L|392:379,1,150,2|0,3:2|0:2,0:0:0:0:
473,310,39913,2,0,L|323:296,1,150,2|0,3:2|0:2,0:0:0:0:
366,377,40517,2,0,L|380:200,1,150,2|0,3:2|0:0,0:0:0:0:
390,109,41121,1,8,0:2:0:0:
461,47,41323,1,8,0:3:0:0:
478,139,41524,1,4,0:3:0:0:
346,96,41725,6,0,B|274:75|242:131|170:90,1,179.999994506836,6|8,3:2|0:2,0:0:0:0:
67,49,42329,1,4,0:3:0:0:
0,141,42531,1,8,0:0:0:0:
145,304,42933,6,0,B|166:231|110:200|150:128,1,179.999994506836,6|8,3:2|0:2,0:0:0:0:
259,88,43537,1,4,0:3:0:0:
356,305,43940,1,8,0:3:0:0:
358,318,44041,1,8,0:3:0:0:
358,329,44141,70,0,B|285:308|254:364|182:323,1,179.999994506836,6|0,3:2|0:2,0:0:0:0:
79,251,44745,1,8,0:2:0:0:
143,150,44947,2,0,P|187:127|232:121,1,89.9999972534181,2|0,0:0|0:0,0:0:0:0:
383,116,45349,6,0,B|362:188|418:220|377:291,1,179.999994506836,6|8,3:2|0:2,0:0:0:0:
332,384,45954,1,8,0:2:0:0:
354,379,46054,1,8,0:3:0:0:
376,384,46155,1,4,0:3:0:0:
234,291,46558,70,0,P|240:246|241:201,1,89.9999972534181,4|0,3:2|0:2,0:0:0:0:
132,147,46960,1,10,0:2:0:0:
132,147,47162,1,2,3:2:0:0:
148,42,47363,1,2,0:0:0:0:
157,26,47464,1,8,0:2:0:0:
170,13,47564,1,8,0:3:0:0:
235,108,47766,5,2,3:2:0:0:
235,108,47967,2,0,P|280:110|325:110,1,89.9999972534181,2|0,0:2|0:2,0:0:0:0:
431,165,48370,2,0,P|391:185|352:207,1,89.9999972534181,2|0,3:2|0:2,0:0:0:0:
340,218,48672,1,8,0:2:0:0:
332,231,48772,1,10,0:2:0:0:
370,366,48974,70,0,P|389:326|391:281,1,89.9999972534181,2|0,3:2|0:0,0:0:0:0:
253,203,49376,2,0,P|256:254|284:298,1,89.9999972534181,2|0,3:2|0:0,0:0:0:0:
200,379,49779,2,0,P|168:337|120:316,1,89.9999972534181,2|0,3:2|0:0,0:0:0:0:
0,267,50182,6,0,P|44:256|86:239,1,89.9999972534181,2|0,3:2|0:2,0:0:0:0:
171,163,50584,1,2,0:2:0:0:
205,54,50786,2,0,P|214:27|226:-30,2,44.999998626709,0|0|2,0:0|0:0|0:1,0:0:0:0:
95,77,51188,1,2,0:1:0:0:
71,67,51289,1,2,0:1:0:0:
51,50,51390,1,2,0:1:0:0:
256,192,51490,12,0,53000,0:0:0:0:
351,305,54712,6,0,P|304:308|256:301,1,96,6|0,3:2|0:0,0:0:0:0:
162,203,55114,2,0,P|209:199|257:206,1,96,10|0,3:2|0:0,0:0:0:0:
345,319,55517,2,0,P|302:296|256:282,1,96,2|0,3:2|0:0,0:0:0:0:
109,258,55920,6,0,P|212:215|282:129,2,192,2|8|2,3:2|3:2|3:2,0:0:0:0:
35,363,57128,70,0,P|166:337|254:366,1,192,2|8,3:2|3:2,0:0:0:0:
351,384,57732,1,10,0:2:0:0:
384,381,57832,1,8,0:2:0:0:
412,362,57933,2,0,P|443:269|437:241,1,96,2|10,3:2|0:2,0:0:0:0:
382,127,58336,6,0,P|351:220|357:248,1,96,2|0,3:2|0:0,0:0:0:0:
245,294,58738,1,8,3:2:0:0:
180,191,58940,1,4,0:3:0:0:
150,173,59040,1,4,0:3:0:0:
115,172,59141,1,0,3:2:0:0:
0,218,59342,1,10,0:2:0:0:
0,218,59544,70,0,B|50:131|-33:95|52:17,1,192,2|8,3:2|3:2,0:0:0:0:
182,10,60148,1,2,0:2:0:0:
182,10,60349,2,0,P|158:70|110:94,1,96,2|4,3:2|0:3,0:0:0:0:
29,207,60752,6,0,P|118:184|162:188,1,96,2|0,3:2|0:2,0:0:0:0:
242,233,61154,1,8,3:2:0:0:
270,250,61255,1,8,0:2:0:0:
290,277,61356,1,8,0:3:0:0:
420,232,61557,2,0,P|469:171|486:115,1,96,2|2,3:2|0:2,0:0:0:0:
405,50,61960,70,0,P|437:140|443:235,1,192,6|8,3:1|3:2,0:0:0:0:
332,295,62564,1,4,0:3:0:0:
334,261,62665,1,4,0:3:0:0:
328,227,62765,2,0,P|285:149|260:133,1,96,2|10,3:2|0:2,0:0:0:0:
102,121,63168,5,2,3:2:0:0:
125,230,63369,1,8,3:3:0:0:
234,207,63571,1,4,0:3:0:0:
211,97,63772,1,4,3:3:0:0:
103,109,63973,1,8,3:3:0:0:
73,124,64074,1,8,0:3:0:0:
55,152,64175,1,12,0:3:0:0:
49,184,64275,1,12,0:3:0:0:
56,216,64376,70,0,P|129:223|178:212,1,96,6|0,3:2|0:0,0:0:0:0:
232,80,64779,2,0,P|184:72|137:76,1,96,10|0,3:2|0:0,0:0:0:0:
165,205,65181,1,2,3:2:0:0:
288,136,65383,1,8,0:0:0:0:
288,136,65584,6,0,P|185:93|115:7,2,192,2|8|2,3:2|3:2|3:2,0:0:0:0:
443,113,66792,70,0,P|450:186|439:235,1,96,2|0,3:2|0:0,0:0:0:0:
345,281,67195,2,0,P|336:226|343:170,1,96,10|0,3:2|0:2,0:0:0:0:
470,125,67597,2,0,P|433:189|422:238,1,96,2|8,3:2|0:2,0:0:0:0:
512,324,68000,6,0,L|463:336,3,48,2|2|10|2,3:2|0:2|0:2|0:0,0:0:0:0:
441,384,68403,2,0,L|398:359,3,48,2|2|2|2,3:2|0:2|0:2|0:2,0:0:0:0:
351,378,68805,1,2,3:2:0:0:
270,269,69007,1,10,0:0:0:0:
232,261,69107,1,10,0:0:0:0:
198,279,69208,70,0,L|185:326,3,48,2|2|2|2,3:2|3:2|3:2|3:2,0:0:0:0:
157,361,69611,2,0,P|155:313|140:267,1,96,10|0,3:2|0:0,0:0:0:0:
0,227,70014,2,0,P|42:249|89:260,1,96,2|8,3:2|0:0,0:0:0:0:
226,274,70416,5,2,3:2:0:0:
193,159,70618,1,2,0:2:0:0:
193,159,70819,2,0,P|152:184|120:219,1,96,10|0,3:2|0:0,0:0:0:0:
116,360,71222,1,2,3:2:0:0:
116,360,71423,1,2,0:2:0:0:
231,328,71624,70,0,P|225:268|238:191,1,96,4|0,3:2|0:0,0:0:0:0:
365,183,72027,1,8,0:2:0:0:
343,326,72228,2,0,P|283:330|206:318,1,96,4|0,3:2|0:0,0:0:0:0:
198,190,72631,1,8,0:3:0:0:
341,215,72832,2,0,P|345:273|333:350,1,96,4|0,3:2|0:0,0:0:0:0:
464,354,73235,69,2,3:2:0:0:
464,354,73436,1,8,0:2:0:0:
512,249,73638,2,0,B|479:224|453:275|381:220,1,96,10|0,3:2|0:0,0:0:0:0:
388,106,74040,70,0,P|389:218|356:325,1,192,4|8,3:1|0:2,0:0:0:0:
216,275,74644,2,0,P|219:174|250:78,1,192,4|8,3:1|0:2,0:0:0:0:
399,89,75248,2,0,P|409:200|385:310,1,192,4|0,3:1|3:2,0:0:0:0:
246,333,75852,5,4,0:3:0:0:
218,325,75953,1,4,0:3:0:0:
189,325,76054,2,0,L|132:336,3,48,8|8|4|4,3:3|0:3|0:3|0:3,0:0:0:0:
98,350,76456,70,0,L|329:370,1,192,4|8,3:1|0:2,0:0:0:0:
283,214,77060,2,0,L|474:196,1,192,4|8,3:2|0:2,0:0:0:0:
512,353,77665,1,4,3:1:0:0:
404,314,77866,1,0,0:0:0:0:
301,366,78067,2,0,L|110:384,1,192,8|2,3:2|3:2,0:0:0:0:
8,318,78671,1,2,0:2:0:0:
3,289,78772,1,2,0:2:0:0:
3,259,78873,38,0,P|20:162|88:74,1,192,6|0,3:2|3:0,0:0:0:0:
195,58,79477,2,0,P|240:91|272:138,1,96,2|8,0:0|0:2,0:0:0:0:
213,239,79879,1,0,0:0:0:0:
213,239,80081,70,0,P|118:233|15:157,1,192,2|0,3:2|3:2,0:0:0:0:
123,106,80685,1,4,0:3:0:0:
238,106,80886,1,8,0:0:0:0:
293,206,81087,1,0,0:0:0:0:
408,212,81289,38,0,P|399:154|410:87,1,96,6|0,3:2|0:2,0:0:0:0:
458,17,81691,1,0,3:0:0:0:
505,124,81893,1,2,0:2:0:0:
511,139,81993,1,2,0:2:0:0:
511,155,82094,38,0,P|503:218|482:263,1,96,2|0,3:2|0:0,0:0:0:0:
378,246,82497,1,2,3:2:0:0:
369,140,82698,1,2,0:0:0:0:
361,132,82799,1,2,0:0:0:0:
351,128,82899,6,0,P|305:124|248:143,1,89.9999972534181,2|0,3:2|0:0,0:0:0:0:
168,166,83302,1,2,3:2:0:0:
86,110,83503,1,0,0:2:0:0:
108,10,83705,70,0,P|176:7|209:19,1,78.7499975967408,2|0,3:2|0:0,0:0:0:0:
271,48,84107,1,2,3:2:0:0:
365,54,84309,1,0,0:0:0:0:
449,13,84510,53,4,3:2:0:0:
452,32,85114,5,0,0:2:0:0:
466,243,85718,69,2,0:2:0:0:
466,243,85919,2,0,P|436:185|326:212,1,180
286,281,86724,1,0,0:0:0:0:
286,281,86926,54,0,B|282:324|235:343|235:343|213:317|176:316,2,134.999995880127
256,192,88234,12,0,89392,0:2:0:0:
