osu file format v14

[General]
AudioFilename: audio.mp3
AudioLeadIn: 0
PreviewTime: 54610
Countdown: 0
SampleSet: Soft
StackLeniency: 0.2
Mode: 0
LetterboxInBreaks: 0
WidescreenStoryboard: 1

[Editor]
Bookmarks: 10316,19980
DistanceSpacing: 1.1
BeatDivisor: 4
GridSize: 8
TimelineZoom: 3.899999

[Metadata]
Title:Tsumujikaze (TV Size)
TitleUnicode:つむじかぜ (TV Size)
Artist:Morohoshi Sumire
ArtistUnicode:諸星すみれ
Creator:verychill
Version:Expert
Source:本好きの下剋上~司書になるためには手段を選んでいられません~
Tags:Ascendance of a Bookworm Honzuki no Gekokujou Shisho ni Naru Tame wa Shudan wo Erandeiraremasen Opening OP anime japanese
BeatmapID:2414791
BeatmapSetID:1157141

[Difficulty]
HPDrainRate:5
CircleSize:5
OverallDifficulty:8.5
ApproachRate:9.2
SliderMultiplier:1.5
SliderTickRate:1

[Events]
//Background and Video events
0,0,"honzuki_w2x.jpg",0,0
Video,98,"video.mp4"
//Break Periods
//Storyboard Layer 0 (Background)
//Storyboard Layer 1 (Fail)
//Storyboard Layer 2 (Pass)
//Storyboard Layer 3 (Foreground)
//Storyboard Layer 4 (Overlay)
//Storyboard Sound Samples

[TimingPoints]
652,402.684563758389,3,2,1,40,1,0
652,-166.666666666667,4,2,1,40,0,0
1256,-250,4,2,1,40,0,0
1860,-142.857142857143,4,2,1,40,0,0
2464,-200,4,2,1,40,0,0
3068,-125,4,2,1,40,0,0
3672,-166.666666666667,4,2,1,40,0,0
4276,-111.111111111111,4,2,1,40,0,0
4880,-142.857142857143,4,2,1,40,0,0
5484,-100,4,2,1,45,0,0
9712,-200,4,2,1,45,0,0
10215,-200,4,2,99,5,0,0
10316,-100,6,2,1,50,0,0
11826,-100,6,2,99,5,0,0
11926,-100,6,2,1,50,0,0
13034,-100,6,2,99,5,0,0
13134,-100,6,2,1,50,0,0
15450,-100,6,2,99,5,0,0
15550,-100,6,2,1,50,0,0
16658,-100,6,2,99,5,0,0
16758,-100,6,2,1,50,0,0
18671,-100,6,2,99,5,0,0
18772,-100,6,2,1,50,0,0
19074,-100,6,2,99,5,0,0
19175,-100,6,2,1,50,0,0
19578,-76.9230769230769,6,2,1,50,0,0
19880,-76.9230769230769,6,2,99,5,0,0
19980,-100,6,2,1,60,0,0
21490,-100,6,2,99,5,0,0
21591,-100,6,2,1,60,0,0
22698,-100,6,2,99,5,0,0
22799,-100,6,2,1,60,0,0
24611,-66.6666666666667,6,2,1,60,0,0
24812,-100,6,2,1,60,0,0
25114,-100,6,2,99,5,0,0
25215,-100,6,2,1,60,0,0
26322,-100,6,2,99,5,0,0
26423,-100,6,2,1,60,0,0
29644,-66.6666666666667,6,2,1,60,0,0
30248,-100,6,2,1,60,0,0
32061,-83.3333333333333,6,2,1,60,0,0
32363,-83.3333333333333,6,2,99,5,0,0
32464,-125,6,2,1,60,0,0
32967,-125,6,2,99,5,0,0
33068,-125,6,2,1,60,0,0
33571,-125,6,2,99,5,0,0
33672,-66.6666666666667,6,2,1,60,0,0
34073,-100,6,2,1,60,0,0
34778,-100,6,2,99,5,0,0
34878,-100,6,2,1,60,0,0
35382,-100,6,2,99,5,0,0
35482,-100,6,2,1,60,0,0
35986,-100,6,2,99,5,0,0
36086,-100,6,2,1,60,0,0
36892,-76.9230769230769,6,2,1,60,0,0
37194,-76.9230769230769,6,2,99,5,0,0
37294,-100,6,2,1,60,0,0
37798,-100,6,2,99,5,0,0
37898,-100,6,2,1,60,0,0
38402,-100,6,2,99,5,0,0
38502,-66.6666666666667,6,2,1,60,0,0
38905,-83.3333333333333,6,2,1,60,0,0
41725,-71.4285714285714,3,2,1,70,0,0
42027,-71.4285714285714,3,2,99,5,0,0
42127,-71.4285714285714,3,2,1,70,0,0
43235,-71.4285714285714,3,2,99,5,0,0
43336,-71.4285714285714,3,2,1,70,0,0
43839,-71.4285714285714,3,2,99,5,0,0
43939,-71.4285714285714,3,2,1,70,0,0
44644,-71.4285714285714,3,2,99,5,0,0
44745,-71.4285714285714,3,2,1,70,0,0
44946,-125,3,2,1,70,0,0
45248,-125,3,2,99,5,0,0
45349,-71.4285714285714,3,2,1,70,0,0
45651,-71.4285714285714,3,2,99,5,0,0
45751,-71.4285714285714,3,2,1,70,0,0
46154,-200,3,2,1,70,0,0
46456,-200,3,2,99,5,0,0
46557,-55.5555555555556,3,2,1,80,0,0
47765,-62.5,3,2,1,80,0,0
48067,-100,3,2,1,80,0,0
48369,-50,3,2,1,80,0,0
48570,-50,3,2,99,5,0,0
48671,-100,3,2,1,80,0,0
48973,-57.1428571428571,3,2,1,80,0,0
49275,-57.1428571428571,3,2,99,5,0,0
49376,-83.3333333333333,3,2,1,80,0,0
49778,-66.6666666666667,3,2,1,80,0,0
50080,-66.6666666666667,3,2,99,5,0,0
50181,-71.4285714285714,3,2,1,80,0,0
50584,-58.8235294117647,3,2,1,80,0,0
50986,-47.6190476190476,3,2,1,80,0,0
51389,-333.333333333333,3,2,1,80,0,0
52094,-333.333333333333,3,2,99,5,0,0
52195,-66.6666666666667,3,2,1,40,0,0
52396,-66.6666666666667,3,2,1,50,0,0
52597,-66.6666666666667,3,2,1,60,0,0
52799,-66.6666666666667,3,2,1,70,0,0
53000,-66.6666666666667,3,2,1,50,0,0
54610,-100,3,2,1,60,0,0
54712,402.684563758389,3,2,1,85,1,1
54712,-50,6,2,1,85,0,1
55014,-50,6,2,99,5,0,1
55114,-50,6,2,1,85,0,1
55416,-50,6,2,99,5,0,1
55517,-50,6,2,1,85,0,1
55819,-50,6,2,99,5,0,1
55920,-50,6,2,1,85,0,1
56222,-50,6,2,99,5,0,1
56322,-50,6,2,1,85,0,1
56624,-50,6,2,99,5,0,1
56725,-50,6,2,1,85,0,1
57027,-50,6,2,99,5,0,1
57128,-50,6,2,1,85,0,1
57430,-50,6,2,99,5,0,1
57530,-50,6,2,1,85,0,1
58638,-50,6,2,99,5,0,1
58738,-50,6,2,1,85,0,1
59544,-40,6,2,1,85,0,1
59846,-40,6,2,99,5,0,1
59946,-40,6,2,1,85,0,1
60953,-40,6,2,1,60,0,1
61054,-40,6,2,1,70,0,1
61154,-40,6,2,1,80,0,1
61255,-40,6,2,1,90,0,1
61356,-125,6,2,1,85,0,1
61557,-55.5555555555556,6,2,1,85,0,1
61758,-38.4615384615385,6,2,1,85,0,1
61859,-38.4615384615385,6,2,1,85,0,0
61960,-45.4545454545455,6,2,1,85,0,1
62262,-45.4545454545455,6,2,99,5,0,1
62363,-45.4545454545455,6,2,1,85,0,1
62765,-55.5555555555556,6,2,1,85,0,1
63168,-45.4545454545455,6,2,1,85,0,1
63369,-41.6666666666667,6,2,1,85,0,1
63571,-37.7358490566038,6,2,1,85,0,1
63772,-38.4615384615385,6,2,1,85,0,1
64376,-50,6,2,1,85,0,1
64678,-50,6,2,99,5,0,1
64779,-50,6,2,1,85,0,1
65081,-50,6,2,99,5,0,1
65181,-50,6,2,1,85,0,1
65886,-50,6,2,99,5,0,1
65987,-50,6,2,1,85,0,1
66289,-50,6,2,99,5,0,1
66389,-50,6,2,1,85,0,1
66691,-50,6,2,99,5,0,1
66792,-50,6,2,1,85,0,1
67094,-50,6,2,99,5,0,1
67195,-50,6,2,1,85,0,1
69611,-66.6666666666667,6,2,1,85,0,1
69913,-66.6666666666667,6,2,99,5,0,1
70014,-55.5555555555556,6,2,1,85,0,1
71121,-55.5555555555556,6,2,99,5,0,1
71222,-55.5555555555556,6,2,1,85,0,1
71524,-55.5555555555556,6,2,1,85,0,0
71624,-40,6,2,1,85,0,1
71926,-40,6,2,99,5,0,1
72027,-40,6,2,1,85,0,1
72530,-40,6,2,99,5,0,1
72631,-40,6,2,1,85,0,1
73134,-40,6,2,99,5,0,1
73235,-40,6,2,1,85,0,0
73638,-100,6,2,1,85,0,0
73940,-100,6,2,99,5,0,0
74040,-33.3333333333333,6,2,1,85,0,1
74342,-33.3333333333333,6,2,99,5,0,1
74443,-33.3333333333333,6,2,1,85,0,1
74946,-33.3333333333333,6,2,99,5,0,1
75047,-33.3333333333333,6,2,1,85,0,1
75248,-40,6,2,1,85,0,1
75550,-40,6,2,99,5,0,1
75651,-40,6,2,1,85,0,0
76456,-33.3333333333333,6,2,1,85,0,1
76758,-33.3333333333333,6,2,99,5,0,1
76859,-33.3333333333333,6,2,1,85,0,1
77363,-33.3333333333333,6,2,99,5,0,1
77463,-33.3333333333333,6,2,1,85,0,1
77665,-50,6,2,1,85,0,1
78369,-50,6,2,99,5,0,1
78470,-50,6,2,1,85,0,0
80383,-50,6,2,99,5,0,0
80483,-50,6,2,1,85,0,0
81289,402.684563758389,4,2,1,70,1,1
81289,-40,4,2,1,70,0,1
82094,-50,4,2,1,65,0,1
82899,-66.6666666666667,4,2,1,60,0,1
83705,-83.3333333333333,4,2,1,55,0,1
84510,402.684563758389,3,2,1,50,1,1
84610,-125,3,2,1,50,0,0
85920,-125,3,2,1,50,0,0
86926,-125,3,2,1,45,0,0
87429,-125,3,2,99,5,0,0
87530,-166.666666666667,3,2,1,40,0,0
88033,-166.666666666667,3,2,99,5,0,0
88134,-250,3,2,1,20,0,0
88637,-250,3,2,99,5,0,0
88738,-371.747211895911,3,2,1,20,0,0
89392,-371.747211895911,3,2,99,5,0,0

[Colours]
Combo1 : 107,38,130
Combo2 : 50,109,185
Combo3 : 227,184,51
Combo4 : 58,143,223
Combo5 : 247,218,118
Combo6 : 170,26,26

[HitObjects]
114,279,652,6,0,P|116:305|123:325,2,44.999998626709,2|0|0,0:1|0:2|0:2,0:0:0:0:
112,273,1256,2,0,L|70:275,2,30,0|0|0,0:2|0:2|0:2,0:0:0:0:
162,169,1860,6,0,P|165:136|182:103,2,52.4999983978272,2|0|0,0:1|0:2|0:2,0:0:0:0:
161,175,2464,2,0,L|112:172,2,37.5,0|0|0,0:2|0:2|0:2,0:0:0:0:
259,300,3068,70,0,P|262:332|280:369,2,60,2|0|0,0:1|0:2|0:2,0:0:0:0:
258,294,3672,2,0,L|199:297,2,44.999998626709,0|0|0,0:2|0:2|0:2,0:0:0:0:
293,108,4276,6,0,P|296:78|312:40,2,67.5000002574921,2|0|0,0:1|0:2|0:2,0:0:0:0:
292,114,4880,2,0,L|217:110,2,52.4999983978272,0|0|0,0:2|0:2|0:2,0:0:0:0:
435,176,5484,70,0,L|439:101,1,75,2|0,3:2|0:2,0:0:0:0:
432,102,5886,2,0,B|430:135|449:141|439:176,1,75,0|0,0:2|3:2,0:0:0:0:
357,264,6289,1,0,0:2:0:0:
417,237,6490,1,0,0:2:0:0:
223,242,6692,6,0,L|298:238,1,75,2|0,3:2|0:2,0:0:0:0:
297,245,7094,2,0,B|263:246|257:227|222:237,1,75,0|0,0:2|3:2,0:0:0:0:
106,247,7497,1,0,0:2:0:0:
163,212,7699,1,0,0:2:0:0:
96,318,7900,70,0,L|21:317,1,75,2|0,3:1|0:2,0:0:0:0:
139,376,8303,1,0,0:2:0:0:
210,371,8504,1,0,3:2:0:0:
243,307,8705,1,0,0:2:0:0:
224,236,8907,1,0,0:2:0:0:
164,166,9108,5,2,3:1:0:0:
284,76,9309,1,0,0:2:0:0:
192,80,9511,1,0,0:2:0:0:
345,147,9712,2,0,B|380:132|405:164|443:130,1,93.75,0|0,3:2|0:2,0:0:0:0:
440,133,10316,6,0,P|464:64|426:0,1,150,6|0,3:2|3:0,0:0:0:0:
377,73,10920,1,0,0:2:0:0:
381,73,11021,1,0,0:2:0:0:
385,73,11121,1,0,3:0:0:0:
266,6,11323,2,0,P|284:2|303:-1,1,37.5,0|0,0:2|0:2,0:0:0:0:
158,37,11524,6,0,P|174:89|186:154,1,112.5,2|0,3:2|0:0,0:0:0:0:
186,152,11927,2,0,P|204:148|223:145,1,37.5,2|0,3:2|0:2,0:0:0:0:
305,171,12128,2,0,P|302:152|306:85,1,75,2|0,0:2|3:2,0:0:0:0:
158,37,12531,2,0,P|139:33|121:30,1,37.5,2|0,0:2|0:2,0:0:0:0:
0,29,12732,70,0,P|30:75|51:128,1,112.5,2|0,3:2|0:2,0:0:0:0:
53,134,13135,2,0,P|57:153|61:171,1,37.5,2|0,3:2|0:2,0:0:0:0:
113,66,13336,2,0,P|117:48|121:30,1,37.5,2|0,0:2|0:2,0:0:0:0:
179,102,13537,1,0,3:2:0:0:
183,102,13638,1,0,0:2:0:0:
187,102,13738,1,0,0:0:0:0:
283,172,13940,6,0,P|283:224|261:332,1,150,0|0,3:2|3:2,0:0:0:0:
125,241,14544,1,0,0:2:0:0:
125,237,14645,1,0,0:2:0:0:
125,233,14745,2,0,P|144:229|162:225,2,37.5,0|0|0,3:2|0:2|0:0,0:0:0:0:
0,339,15148,70,0,P|33:346|123:391,1,112.5,2|0,3:2|0:0,0:0:0:0:
110,380,15551,2,0,P|125:368|141:358,1,37.5,2|0,3:2|0:2,0:0:0:0:
237,384,15752,2,0,P|238:344|222:293,1,75,2|0,0:2|3:2,0:0:0:0:
203,161,16155,2,0,P|184:159|164:157,1,37.5,2|0,0:2|0:2,0:0:0:0:
329,119,16356,6,0,P|326:175|335:230,1,112.5,2|0,3:2|0:0,0:0:0:0:
337,236,16759,2,0,P|317:238|299:237,1,37.5,2|0,3:2|0:2,0:0:0:0:
409,174,16960,2,0,P|437:171|499:181,1,75,2|0,0:2|3:2,0:0:0:0:
329,119,17363,2,8,P|310:116|291:116,1,37.5,2|0,0:2|0:2,0:0:0:0:
161,225,17564,70,0,P|91:208|2:207,1,150,2|0,3:2|3:2,0:0:0:0:
179,308,18168,1,0,0:2:0:0:
182,307,18269,1,0,0:2:0:0:
186,306,18370,2,0,P|230:291|306:284,1,112.5,2|0,3:2|0:2,0:2:0:0:
300,285,18772,6,8,P|253:317|216:358,1,112.5,2|0,3:2|0:2,0:2:0:0:
213,363,19175,1,0,3:2:0:0:
357,383,19376,1,0,0:2:0:0:
368,383,19477,1,0,0:2:0:0:
379,382,19578,2,0,B|344:326|399:302|364:241,1,146.249993305207,4|0,3:2|0:2,0:0:0:0:
361,237,19980,38,0,P|388:208|516:195,1,150,6|0,3:2|3:2,0:0:0:0:
447,341,20584,1,0,0:2:0:0:
461,339,20685,1,0,0:2:0:0:
475,337,20786,1,0,3:0:0:0:
307,306,20987,2,0,P|289:297|267:293,1,37.5,2|0,0:0|0:0,0:0:0:0:
80,336,21188,6,0,P|128:334|216:354,1,112.5,2|0,3:1|0:2,0:0:0:0:
196,347,21591,2,0,L|187:383,1,37.5,2|0,3:2|0:2,0:0:0:0:
201,252,21792,1,2,0:2:0:0:
199,238,21893,1,0,0:2:0:0:
197,224,21994,1,0,3:0:0:0:
307,306,22195,2,0,L|322:244,1,37.5,2|0,0:2|0:2,0:0:0:0:
289,111,22396,70,0,P|241:109|153:129,1,112.5,2|0,3:1|0:2,0:0:0:0:
173,122,22799,2,0,P|160:136|150:151,1,37.5,2|0,3:2|0:2,0:0:0:0:
50,131,23000,1,2,0:0:0:0:
46,117,23101,1,0,0:0:0:0:
43,102,23202,1,0,3:2:0:0:
204,32,23403,1,0,0:2:0:0:
218,34,23504,1,0,0:2:0:0:
232,36,23605,6,8,P|233:17|237:0,2,37.5,2|0|0,3:1|0:0|0:0,0:0:0:0:
285,114,24007,1,0,3:2:0:0:
369,56,24209,1,0,0:0:0:0:
373,42,24309,1,0,0:0:0:0:
376,27,24410,1,0,3:2:0:0:
470,145,24611,2,0,L|415:134,1,56.2500021457673,0|0,0:2|0:2,0:0:0:0:
285,114,24813,70,0,P|297:171|295:253,1,112.5,2|0,3:1|0:2,0:0:0:0:
298,230,25215,2,0,P|284:242|259:266,1,37.5,2|0,3:2|0:0,0:0:0:0:
155,164,25417,1,0,0:2:0:0:
168,154,25517,1,0,0:2:0:0:
186,151,25618,2,0,P|196:166|214:195,1,37.5,2|0,3:2|0:0,0:0:0:0:
294,77,25819,2,0,P|289:94|282:128,1,37.5,2|0,0:2|0:0,0:0:0:0:
427,219,26021,6,0,P|413:183|405:93,1,112.5,2|0,3:1|0:0,0:0:0:0:
405,104,26423,2,0,L|440:114,1,37.5,2|0,3:2|0:2,0:0:0:0:
324,174,26625,1,0,0:0:0:0:
310,180,26725,1,0,0:0:0:0:
298,190,26826,2,0,P|284:207|275:235,1,37.5,2|0,3:2|0:0,0:0:0:0:
382,298,27027,2,0,P|379:276|366:250,1,37.5,2|0,0:0|0:0,0:0:0:0:
283,384,27229,70,0,P|254:359|125:323,1,150,2|0,3:1|3:2,0:0:0:0:
277,221,27833,2,0,P|294:202|308:135,1,75,2|0,0:2|3:2,0:0:0:0:
98,11,28235,1,2,0:2:0:0:
128,13,28336,1,2,0:2:0:0:
155,0,28437,6,0,P|147:36|147:74,1,75,2|0,3:2|0:2,0:0:0:0:
1,74,28839,2,0,P|22:104|48:131,1,75,0|0,3:2|0:2,0:0:0:0:
169,160,29242,2,0,P|185:149|203:144,1,37.5,0|0,3:2|0:2,0:0:0:0:
231,202,29443,2,0,P|215:213|197:218,1,37.5,0|0,0:2|0:2,0:0:0:0:
120,326,29645,70,0,L|113:271,1,56.2500021457673,2|0,3:2|0:2,0:0:0:0:
48,131,29846,1,2,0:2:0:0:
72,163,29947,1,2,0:2:0:0:
55,200,30047,2,0,L|-17:212,1,56.2500021457673,2|0,3:2|0:2,0:0:0:0:
0,355,30249,2,0,L|8:293,1,37.5,2|0,0:2|0:2,0:0:0:0:
120,326,30450,1,2,3:2:0:0:
131,334,30551,1,2,0:2:0:0:
136,347,30651,2,0,L|128:409,1,37.5,2|0,0:2|0:2,0:0:0:0:
234,271,30853,5,8,3:2:0:0:
321,384,31054,1,8,0:3:0:0:
223,373,31256,1,0,3:2:0:0:
345,296,31457,1,8,0:3:0:0:
439,248,31658,1,0,3:0:0:0:
446,372,31860,1,8,0:2:0:0:
460,364,31960,1,8,0:2:0:0:
468,350,32061,38,0,P|409:316|345:296,1,134.999995880127,6|0,3:2|0:2,0:0:0:0:
307,292,32464,1,0,0:2:0:0:
190,213,32665,2,0,P|246:208|286:195,1,90,2|0,3:2|0:2,0:0:0:0:
317,184,33068,1,0,0:2:0:0:
417,103,33269,2,0,P|359:88|320:68,1,90,2|0,3:2|0:2,0:0:0:0:
292,46,33672,1,2,0:0:0:0:
492,0,33873,2,0,L|510:74,1,56.2500021457673,0|0,3:0|0:2,0:0:0:0:
498,180,34074,1,10,0:2:0:0:
417,103,34276,1,0,0:2:0:0:
194,0,34477,6,0,P|184:73|189:129,1,112.5,2|0,3:2|0:2,0:0:0:0:
194,175,34880,1,0,0:2:0:0:
409,306,35081,2,0,P|415:232|431:178,1,112.5,2|0,3:2|0:2,0:0:0:0:
459,136,35484,1,0,0:2:0:0:
194,175,35685,2,0,P|213:246|216:302,1,112.5,2|0,3:2|0:2,0:0:0:0:
197,355,36088,1,2,0:2:0:0:
53,384,36289,1,10,0:2:0:0:
117,335,36490,1,8,0:3:0:0:
0,320,36692,1,4,0:3:0:0:
217,285,36893,70,0,P|296:249|362:238,1,146.249993305207,6|0,3:2|0:2,0:0:0:0:
405,191,37296,1,0,0:2:0:0:
163,233,37497,2,0,P|164:176|148:116,1,112.5,2|0,3:2|0:2,0:0:0:0:
177,55,37900,1,0,0:2:0:0:
401,96,38101,2,0,P|352:114|282:164,1,112.500004291535,2|0,3:2|0:2,0:0:0:0:
237,191,38504,1,2,0:0:0:0:
59,153,38705,2,0,L|41:80,1,56.2500021457673,0|0,0:2|0:2,0:0:0:0:
104,0,38907,1,10,0:2:0:0:
150,122,39108,1,4,0:3:0:0:
20,318,39309,6,0,P|116:281|209:327,1,179.999994506836,2|0,3:2|0:2,0:0:0:0:
229,206,39913,2,0,P|253:121|328:76,1,179.999994506836,2|0,3:2|0:2,0:0:0:0:
342,197,40517,2,0,B|379:177|426:179|426:219|468:229|513:211,1,179.999994506836,2|0,3:2|0:2,0:0:0:0:
479,139,41121,1,8,0:2:0:0:
381,267,41323,1,8,0:3:0:0:
464,301,41524,1,4,0:3:0:0:
343,0,41725,6,0,P|294:61|272:155,1,157.499995193482,6|0,3:2|0:2,0:0:0:0:
266,206,42128,1,8,0:2:0:0:
349,140,42329,1,4,0:3:0:0:
209,88,42531,1,8,0:0:0:0:
50,339,42732,1,2,0:2:0:0:
26,298,42833,1,2,0:2:0:0:
36,254,42933,6,0,P|115:252|192:265,1,157.499995193482,6|0,3:2|0:2,0:0:0:0:
269,254,43336,1,8,0:2:0:0:
423,365,43537,2,0,P|344:363|267:376,1,157.499995193482,4|0,0:3|0:2,0:0:0:0:
180,384,43940,1,8,0:3:0:0:
148,366,44041,1,8,0:3:0:0:
144,327,44141,70,0,P|141:242|69:46,1,262.499991989136,6|0,3:2|0:2,0:0:0:0:
36,0,44745,1,8,0:2:0:0:
146,125,44947,6,0,P|124:164|108:206,1,90,2|0,0:2|0:2,0:0:0:0:
14,168,45349,70,0,P|92:175|160:215,1,157.499995193482,6|0,3:2|0:2,0:0:0:0:
233,277,45752,1,8,0:2:0:0:
361,384,45954,1,8,0:2:0:0:
380,360,46054,1,8,0:3:0:0:
361,334,46155,6,0,B|339:330|327:344|292:336,1,56.25,4|0,0:3|0:2,0:0:0:0:
115,332,46558,70,0,P|180:318|233:276,1,134.999995880127,4|0,3:2|0:2,0:0:0:0:
328,52,46960,1,10,0:2:0:0:
287,63,47061,1,8,0:2:0:0:
280,106,47162,2,0,P|289:138|305:168,1,67.4999979400635,2|0,3:2|0:2,0:0:0:0:
305,338,47363,1,2,0:2:0:0:
341,316,47464,1,8,0:2:0:0:
346,273,47564,1,8,0:3:0:0:
162,208,47766,6,0,P|132:211|102:210,1,60,2|0,3:2|0:2,0:0:0:0:
305,168,47967,1,2,0:0:0:0:
346,161,48068,1,8,0:0:0:0:
456,340,48370,2,0,P|443:306|439:177,1,150,2|0,3:2|0:2,0:0:0:0:
376,131,48672,1,8,0:2:0:0:
346,161,48772,2,0,L|358:206,1,37.5,10|0,0:2|0:2,0:0:0:0:
512,255,48974,70,0,B|460:241|406:263|423:297|359:309|303:285,1,196.875001877546,2|0,3:2|0:2,0:0:0:0:
256,350,49376,2,0,P|239:325|229:293,1,44.999998626709,2|0,3:2|0:2,0:0:0:0:
125,195,49578,1,8,0:2:0:0:
152,244,49678,1,8,0:2:0:0:
143,300,49779,2,0,B|138:337|97:373|43:360|43:360|69:365|78:382,1,168.750006437302,2|0,3:2|0:2,0:0:0:0:
67,285,50182,6,0,P|42:281|15:280,1,52.4999983978272,2|0,3:2|0:0,0:0:0:0:
125,195,50383,1,0,0:2:0:0:
146,155,50484,1,0,0:2:0:0:
187,140,50584,2,0,P|197:169|201:201,1,63.7500012159348,2|0,0:2|0:2,0:0:0:0:
315,104,50786,1,0,0:0:0:0:
370,91,50886,1,0,0:2:0:0:
393,39,50987,2,0,P|366:28|299:29,1,78.7499975967408,2|0,0:1|0:2,0:0:0:0:
118,38,51188,1,2,0:1:0:0:
64,71,51289,1,2,0:1:0:0:
39,129,51390,70,0,P|35:164|52:213,1,78.7499975967408,2|0,0:1|0:3,0:0:0:0:
81,291,52195,6,0,L|75:318,16,28.1250010728836,2|2|2|2|2|2|2|2|2|2|2|2|2|2|2|2|2,0:2|0:2|0:2|0:2|0:2|0:2|0:2|0:2|0:2|0:2|0:2|0:2|0:2|0:2|0:2|0:2|0:2,0:0:0:0:
405,189,54611,2,0,L|403:208,1,18.75,8|8,0:2|0:2,0:0:0:0:
400,184,54712,6,0,P|303:237|243:335,1,225,6|0,3:2|0:2,0:0:0:0:
174,349,55114,2,0,P|277:309|382:343,1,225,10|0,3:2|0:2,0:0:0:0:
440,384,55517,2,0,P|460:276|400:184,1,225,2|0,3:2|0:2,0:0:0:0:
346,233,55920,22,0,B|323:307|381:342|381:342|400:304|390:271|368:251,1,225,2|0,3:2|0:2,0:0:0:0:
330,161,56322,2,0,B|276:104|217:137|217:137|241:172|274:180|303:171,1,225,8|0,3:2|0:2,0:0:0:0:
400,184,56725,2,0,B|475:166|476:98|476:98|434:101|411:126|404:155,1,225,2|0,3:2|0:2,0:0:0:0:
249,300,57128,54,0,B|244:259|209:233|209:233|277:268|346:233,1,225,2|0,3:2|0:2,0:0:0:0:
403,155,57530,1,8,3:2:0:0:
80,92,57732,1,10,0:2:0:0:
82,49,57832,1,8,0:2:0:0:
113,18,57933,2,0,P|143:40|159:73,1,75,2|0,3:2|0:2,0:0:0:0:
0,104,58134,2,0,P|1:66|19:34,1,75,10|0,0:2|0:2,0:0:0:0:
127,159,58336,6,0,B|110:171|85:178|59:171|59:171|131:192|137:256|119:290,1,225,2|0,3:2|0:2,0:0:0:0:
0,318,58738,2,0,P|17:285|42:256,1,75,8|0,3:2|0:2,0:0:0:0:
219,236,58940,1,4,0:3:0:0:
257,263,59040,1,4,0:3:0:0:
250,312,59141,2,0,P|229:343|197:362,1,75,0|0,3:2|0:2,0:0:0:0:
127,159,59342,2,0,P|161:147|199:147,1,75,10|0,0:2|0:2,0:0:0:0:
353,171,59544,70,0,B|373:187|404:197|441:190|441:190|349:213|340:283|353:330,1,281.25,2|0,3:2|0:2,0:0:0:0:
422,373,59946,1,8,3:2:0:0:
411,89,60148,1,10,0:2:0:0:
410,37,60248,1,8,0:2:0:0:
374,0,60349,2,0,P|335:24|314:66,1,93.75,2|0,3:2|0:2,0:0:0:0:
510,103,60550,2,0,P|506:57|482:18,1,93.75,4|0,0:3|0:2,0:0:0:0:
353,171,60752,6,0,P|395:189|441:188,1,93.75,2|0,3:2|0:2,0:0:0:0:
238,172,60953,1,8,0:2:0:0:
235,182,61054,1,8,0:2:0:0:
267,187,61154,1,8,3:2:0:0:
247,134,61255,1,8,0:2:0:0:
188,140,61356,2,0,P|181:152|178:167,1,30,8|0,3:3|0:2,0:0:0:0:
206,383,61557,2,0,P|232:333|262:295,1,67.4999979400635,2|0,3:2|0:2,0:0:0:0:
353,171,61758,2,0,P|350:220|362:267,1,97.4999955368044,2|0,0:2|0:2,0:0:0:0:
206,383,61960,70,0,B|241:254|175:107,1,247.500007553101,6|0,3:1|0:2,0:0:0:0:
249,59,62363,1,8,3:2:0:0:
464,307,62564,1,4,0:3:0:0:
455,349,62665,1,4,0:3:0:0:
419,371,62765,2,0,P|376:382|337:385,1,67.4999979400635,2|0,3:2|0:2,0:0:0:0:
129,384,62967,1,10,0:2:0:0:
77,348,63067,1,8,0:2:0:0:
88,287,63168,6,0,P|130:291|168:301,1,82.5000025177003,2|0,3:2|0:2,0:0:0:0:
387,218,63369,2,0,P|345:244|310:279,1,89.9999972534181,8|0,3:3|0:3,0:0:0:0:
113,117,63571,2,8,P|145:152|172:196,1,99.3750041699411,4|0,0:3|0:3,0:0:0:0:
289,0,63772,2,0,P|273:44|269:99,1,97.4999955368044,4|0,3:3|0:2,0:0:0:0:
460,57,63973,1,8,3:3:0:0:
465,71,64074,1,8,0:3:0:0:
445,101,64175,1,12,0:3:0:0:
386,100,64275,1,12,0:3:0:0:
336,66,64376,70,0,P|229:30|120:52,1,225,6|0,3:2|0:2,0:0:0:0:
20,0,64779,2,0,P|108:67|154:168,1,225,8|0,3:2|0:2,0:0:0:0:
98,253,65181,2,0,P|117:222|149:203,1,75,2|0,3:2|0:2,0:0:0:0:
301,196,65383,2,0,P|263:194|230:177,1,75,8|0,0:2|0:2,0:0:0:0:
169,122,65584,22,0,B|142:36|239:3|239:3|214:29|221:78,1,225,2|0,3:2|0:2,0:0:0:0:
150,204,65987,2,0,B|89:269|12:202|12:202|46:210|85:180,1,225,8|0,3:2|0:2,0:0:0:0:
231,178,66389,2,0,B|317:197|298:298|298:298|288:264|243:245,1,225,2|0,3:2|0:2,0:0:0:0:
75,54,66792,54,0,B|68:97|33:123|33:123|100:87|170:123,1,225,2|0,3:2|0:2,0:0:0:0:
253,249,67195,2,0,P|238:214|230:177,1,75,10|0,3:2|0:2,0:0:0:0:
227,17,67396,1,8,0:2:0:0:
268,14,67497,1,8,0:2:0:0:
299,43,67597,2,0,P|276:73|248:98,1,75,2|0,3:2|0:2,0:0:0:0:
97,105,67799,2,0,P|135:109|170:123,1,75,8|0,0:2|0:2,0:0:0:0:
394,204,68000,6,0,P|357:199|322:187,1,75,2|0,3:2|0:2,0:0:0:0:
216,133,68201,1,8,0:2:0:0:
249,271,68403,1,2,3:2:0:0:
256,279,68503,1,2,0:2:0:0:
263,316,68604,1,2,0:2:0:0:
241,351,68705,1,2,0:2:0:0:
282,316,68805,1,2,3:2:0:0:
336,300,68906,1,2,0:2:0:0:
394,305,69007,1,10,0:2:0:0:
452,290,69107,1,10,0:2:0:0:
494,245,69208,69,2,3:2:0:0:
511,185,69309,1,2,3:2:0:0:
507,121,69409,1,2,3:2:0:0:
475,64,69510,1,2,3:2:0:0:
420,26,69611,2,0,P|378:99|373:182,1,168.750006437302,10|0,3:2|0:2,0:0:0:0:
310,229,70014,2,0,P|296:222|210:212,1,67.4999979400635,2|0,3:2|0:2,0:0:0:0:
163,279,70215,1,8,0:2:0:0:
197,294,70316,1,8,0:2:0:0:
232,275,70416,6,0,P|242:243|246:210,1,67.4999979400635,2|0,3:2|0:2,0:0:0:0:
100,214,70618,2,0,P|96:180|89:147,1,67.4999979400635,2|0,0:2|0:2,0:0:0:0:
201,136,70819,2,0,P|327:111|459:96,1,202.499993820191,10|0,3:2|0:2,0:0:0:0:
440,176,71222,2,0,P|406:177|372:182,1,67.4999979400635,2|0,3:2|0:0,0:0:0:0:
337,34,71423,2,0,P|303:32|269:27,1,67.4999979400635,2|0,0:2|0:0,0:0:0:0:
65,10,71624,70,0,B|75:49|55:90|13:109|13:109|-18:196|54:282,1,281.25,4|0,3:2|0:2,0:0:0:0:
84,333,72027,1,8,0:2:0:0:
330,254,72228,2,0,P|416:331|305:360,1,281.25,4|0,3:2|0:2,0:0:0:0:
244,288,72631,1,8,0:3:0:0:
84,333,72832,2,0,B|74:290|131:238|180:240|180:240|162:280|159:311|191:324|163:351|142:357,1,281.25,4|0,3:2|0:2,0:0:0:0:
244,288,73235,70,0,P|285:265|331:254,1,93.75,2|0,3:2|0:2,0:0:0:0:
84,195,73436,2,0,P|71:150|47:111,1,93.75,8|0,0:2|0:2,0:0:0:0:
209,161,73638,2,0,B|245:137|235:107|235:107|212:117|205:150,1,112.5,10|0,3:2|0:2,0:0:0:0:
330,253,74040,70,0,B|251:209|154:84|322:145|130:150|47:111,1,337.500012874604,4|0,3:1|0:2,0:0:0:0:
0,32,74443,1,8,0:2:0:0:
207,26,74644,2,0,B|340:30|287:119|439:139|439:139|390:123|376:83,1,337.500012874604,4|0,3:1|0:2,0:0:0:0:
358,14,75047,1,8,0:2:0:0:
454,283,75248,2,0,B|481:313|511:269|511:269|494:195|393:184|344:280|418:351,1,281.25,4|0,3:1|0:3,0:0:0:0:
438,379,75651,5,0,3:2:0:0:
231,109,75852,1,4,0:3:0:0:
239,113,75953,1,4,0:3:0:0:
219,140,76054,1,8,3:3:0:0:
187,123,76154,1,8,0:3:0:0:
192,75,76255,1,4,0:3:0:0:
247,51,76356,1,4,0:3:0:0:
302,87,76456,70,0,B|160:153|80:36|17:51|17:51|34:70|37:118,1,337.500012874604,4|0,3:1|0:2,0:0:0:0:
45,178,76859,1,8,0:2:0:0:
164,320,77060,2,0,B|235:284|271:190|271:190|269:288|324:342,1,337.500012874604,4|0,3:2|0:2,0:0:0:0:
237,384,77463,1,8,0:2:0:0:
94,233,77665,2,0,P|66:207|44:177,1,75,4|0,3:1|0:2,0:0:0:0:
169,172,77866,2,0,P|154:137|147:100,1,75,0|0,0:0|0:2,0:0:0:0:
374,206,78067,2,0,B|424:164|435:103|418:64|418:64|425:90|420:117|402:134,1,225,8|0,3:2|0:2,0:0:0:0:
455,228,78470,2,8,L|462:302,1,75,2|0,3:2|0:2,0:0:0:0:
323,341,78671,1,10,0:2:0:0:
319,301,78772,1,10,0:2:0:0:
296,268,78873,38,0,P|209:238|14:314,1,300,6|0,3:2|3:2,0:0:0:0:
198,356,79477,2,0,P|163:346|132:325,1,75,2|0,0:2|0:2,0:0:0:0:
58,183,79678,2,0,P|63:147|81:114,1,75,8|0,0:2|0:2,0:0:0:0:
331,181,79879,1,2,0:0:0:0:
338,200,79980,1,2,0:0:0:0:
335,220,80081,70,0,B|280:210|229:249|229:249|208:203|253:172|159:103,1,225,2|0,3:2|0:2,0:0:0:0:
147,82,80483,1,0,3:0:0:0:
311,109,80685,2,0,P|335:79|363:54,1,75,4|0,0:3|0:2,0:0:0:0:
132,202,80886,2,0,P|101:197|52:181,1,75,8|0,3:2|0:2,0:0:0:0:
302,312,81087,2,0,P|316:347|324:384,1,75,2|0,0:2|0:2,0:0:0:0:
426,277,81289,38,0,B|474:202|380:166|476:76,1,187.5,6|0,3:2|0:2,0:0:0:0:
512,164,81691,1,2,3:2:0:0:
213,347,81893,1,2,0:2:0:0:
157,336,81993,1,2,0:2:0:0:
126,290,82094,38,0,B|98:205|178:207|116:87,1,150,2|0,3:2|0:2,0:0:0:0:
60,169,82497,1,2,3:2:0:0:
280,322,82698,1,2,0:2:0:0:
312,330,82799,1,2,0:2:0:0:
345,325,82899,6,0,B|357:287|347:243|371:185,1,112.500004291535,2|0,3:2|0:2,0:0:0:0:
501,299,83302,1,2,3:2:0:0:
424,365,83503,1,0,0:2:0:0:
230,384,83705,70,0,B|220:350|221:316|205:275,1,89.9999972534181,2|0,3:2|0:2,0:0:0:0:
140,215,84107,1,2,3:2:0:0:
92,384,84309,2,0,P|119:380|152:369,1,44.999998626709,0|0,0:2|0:2,0:0:0:0:
310,319,84510,53,4,3:2:0:0:
314,301,85114,5,0,0:2:0:0:
173,44,85718,69,2,0:2:0:0:
322,0,85919,2,0,P|378:68|355:164,1,179.999994506836,0|0,0:2|0:2,0:0:0:0:
312,210,86724,1,0,0:2:0:0:
209,192,86926,54,0,B|164:167|173:123|173:123|200:130|212:149|212:169,1,150,0|0,0:2|0:2,0:0:0:0:
247,222,87530,2,0,B|259:257|231:278|231:278|220:260|224:243|233:232,1,112.499996566773,0|0,0:2|0:2,0:0:0:0:
274,204,88134,2,0,B|296:193|312:210|312:210|301:218|290:217|281:211,1,75,0|0,0:2|0:2,1:0:0:0:
256,192,88738,2,0,B|244:173|257:158|257:158|266:166|266:176|262:184,1,65.5687480590306,0|0,0:2|0:2,1:0:0:0:
