osu file format v14

[General]
AudioFilename: audio.mp3
AudioLeadIn: 0
PreviewTime: 60764
Countdown: 0
SampleSet: Soft
StackLeniency: 0.7
Mode: 0
LetterboxInBreaks: 0
WidescreenStoryboard: 0

[Editor]
DistanceSpacing: 0.9
BeatDivisor: 4
GridSize: 4
TimelineZoom: 1.6

[Metadata]
Title:Masshiro (TV Size)
TitleUnicode:真っ白 (TV Size)
Artist:Morohoshi Sumire
ArtistUnicode:諸星すみれ
Creator:kunka
Version:Normal
Source:本好きの下剋上~司書になるためには手段を選んでいられません~
Tags:opening japanese anime Honzuki no Gekokujou Shisho ni Naru Tame ni wa Shudan o Erande Iraremasen Ascendance of a Bookworm smile Xinely Sekai Sekai-nyan Sekaii osuplayer111 Andrea walaowey kunkakunkakunkakunka
BeatmapID:2227308
BeatmapSetID:1056629

[Difficulty]
HPDrainRate:4
CircleSize:3.5
OverallDifficulty:4
ApproachRate:5
SliderMultiplier:1.1
SliderTickRate:1

[Events]
//Background and Video events
0,0,"BG.jpg",0,0
Video,0,"masshiro.mp4"
//Break Periods
//Storyboard Layer 0 (Background)
//Storyboard Layer 1 (Fail)
//Storyboard Layer 2 (Pass)
//Storyboard Layer 3 (Foreground)
//Storyboard Layer 4 (Overlay)
//Storyboard Sound Samples

[TimingPoints]
756,845.070422535211,4,2,1,30,1,0
4126,845.070422535211,4,2,1,30,1,0
7498,845.070422535211,4,2,1,40,1,0
7498,-100,4,2,1,40,0,0
10033,-100,4,2,1,50,0,0
10878,337.078651685393,5,2,1,60,1,0
17619,-100,4,2,1,45,0,0
20990,337.078651685393,3,2,1,50,1,0
23012,-100,4,2,1,55,0,0
25034,337.078651685393,5,2,1,60,1,0
38517,337.078651685393,3,2,1,60,1,0
39865,-100,4,2,1,50,0,0
40876,-100,4,2,1,60,0,0
42056,-100,4,2,1,70,0,0
42561,-100,4,2,1,65,0,0
50483,-100,4,2,1,50,0,0
54696,-100,4,2,1,60,0,0
56719,-100,4,2,1,65,0,0
58741,-100,4,2,1,70,0,0
59752,-100,4,2,1,60,0,0
60764,337.078651685393,5,2,1,65,1,1
61269,-100,4,2,2,65,0,1
61353,-100,4,2,1,65,0,1
61606,-100,4,2,2,65,0,1
61775,-100,4,2,1,65,0,1
63123,-100,4,2,2,65,0,1
63292,-100,4,2,1,65,0,1
73910,-100,4,2,2,65,0,1
73994,-100,4,2,1,65,0,1
74752,-100,4,2,2,65,0,1
74837,-100,4,2,1,65,0,1
75595,-100,4,2,2,65,0,1
75763,-100,4,2,1,65,0,1
76438,-100,4,2,2,65,0,1
76522,-100,4,2,1,65,0,1
76775,-100,4,2,2,65,0,1
77280,-100,4,2,1,65,0,1
87730,337.078651685393,3,2,1,65,1,0
88741,-100,4,2,1,45,0,0
89752,-100,4,2,1,10,0,0

[Colours]
Combo1 : 255,128,255
Combo2 : 128,255,128
Combo3 : 128,255,255
Combo4 : 255,128,128
Combo5 : 255,255,128

[HitObjects]
385,197,756,5,2,0:0:0:0:
289,171,1601,1,2,0:0:0:0:
323,78,2446,1,2,0:0:0:0:
419,104,3291,1,2,0:0:0:0:
385,197,4126,6,0,P|400:251|385:301,1,110,2|2,0:0|0:0,0:0:0:0:
293,338,5816,2,0,P|244:331|184:334,1,110,2|2,0:0|0:0,0:0:0:0:
86,314,7498,5,2,0:0:0:0:
43,224,8343,1,2,0:0:0:0:
86,135,9188,2,0,P|140:120|191:135,1,110,2|2,0:0|0:0,0:0:0:0:
277,183,10878,6,0,P|381:207|457:134,1,220,4|2,0:0|0:0,0:0:0:0:
417,44,11889,2,0,P|363:32|306:32,1,110,2|2,0:0|0:0,0:0:0:0:
223,81,12563,1,2,0:0:0:0:
125,73,12900,2,0,P|120:42|114:19,2,55,2|2|2,0:0|0:0|0:0,0:0:0:0:
94,167,13574,1,2,0:0:0:0:
169,229,13911,1,2,0:0:0:0:
256,181,14248,6,0,P|356:147|439:212,1,220,2|2,0:0|0:0,0:0:0:0:
433,309,15260,2,0,P|379:319|327:339,1,110,2|2,0:0|0:0,0:0:0:0:
229,332,15934,1,2,0:0:0:0:
157,264,16271,2,0,P|130:256|103:255,2,55,2|2|2,0:0|0:0|0:0,0:0:0:0:
252,237,16945,1,2,0:0:0:0:
336,288,17282,1,2,0:0:0:0:
429,256,17619,6,0,P|450:208|440:152,1,110,2|2,0:0|0:0,0:0:0:0:
382,73,18293,2,0,P|395:50|416:30,2,55,2|2|2,0:0|0:0|0:0,0:0:0:0:
342,164,18967,1,2,0:0:0:0:
250,127,19304,2,0,P|191:119|139:121,1,110,2|2,0:0|0:0,0:0:0:0:
45,149,19979,2,0,P|37:175|36:202,2,55,2|2|2,0:0|0:0|0:0,0:0:0:0:
67,52,20653,1,2,0:0:0:0:
140,120,20990,5,2,0:0:0:0:
337,129,21664,2,0,P|390:135|439:112,2,110,2|2|2,0:0|0:0|0:0,0:0:0:0:
248,88,22675,1,2,0:0:0:0:
150,105,23012,6,0,P|59:114|113:188,1,220,2|2,1:0|0:0,0:0:0:0:
212,182,24023,1,2,0:0:0:0:
309,163,24360,1,2,1:0:0:0:
392,215,24697,1,2,1:0:0:0:
358,308,25034,6,0,B|299:315|257:345|257:345|202:327,2,165,4|0|8,1:0|1:0|0:0,0:0:0:0:
406,304,26213,2,0,P|433:302|464:306,1,55,0|2,0:0|1:0,0:0:0:0:
436,209,26719,2,0,P|422:128|461:59,2,165,2|0|8,1:0|1:0|0:0,0:0:0:0:
363,277,28067,1,0,1:0:0:0:
267,252,28404,6,0,P|197:291|117:278,2,165,2|0|8,1:0|1:0|0:0,0:0:0:0:
274,202,29584,2,0,P|270:178|274:146,1,55,0|2,0:0|1:0,0:0:0:0:
325,63,30090,2,0,B|384:71|426:101|426:101|481:83,2,165,2|0|8,1:0|1:0|0:0,0:0:0:0:
230,36,31438,1,0,1:0:0:0:
136,68,31775,5,2,1:0:0:0:
75,146,32112,2,0,P|81:172|85:199,1,55,2|2,1:0|1:0,0:0:0:0:
115,238,32449,2,0,P|109:264|105:292,1,55,2|2,1:0|1:0,0:0:0:0:
124,337,32786,2,0,P|176:358|226:343,1,110,10|0,0:0|1:0,0:0:0:0:
322,320,33460,2,0,B|377:331|377:331|428:309|428:309|486:320,2,165,2|0|8,1:0|1:0|0:0,0:0:0:0:
223,305,34809,1,2,1:0:0:0:
226,206,35146,6,0,P|230:153|203:105,1,110,2|2,1:0|0:0,0:0:0:0:
133,174,35820,1,2,1:0:0:0:
39,142,36157,2,0,P|34:194|61:243,1,110,10|0,0:0|1:0,0:0:0:0:
145,296,36831,2,0,P|198:288|255:290,2,110,2|0|0,1:0|0:0|1:0,0:0:0:0:
61,243,37842,1,10,0:0:0:0:
52,144,38180,1,2,1:0:0:0:
122,74,38517,6,0,P|176:67|231:68,1,110,4|2,1:0|1:0,0:0:0:0:
329,82,39191,1,2,1:0:0:0:
280,168,39528,2,0,P|273:222|274:277,1,110,10|2,0:0|1:0,0:0:0:0:
344,346,40202,1,2,0:0:0:0:
426,290,40539,2,0,P|432:235|431:181,1,110,2|2,1:0|1:0,0:0:0:0:
383,95,41213,2,0,L|395:39,2,55,10|2|10,1:0|1:0|1:0,0:0:0:0:
245,39,42056,1,8,0:0:0:0:
150,69,42393,1,0,1:0:0:0:
150,69,42561,6,0,B|155:183|73:153|77:268,1,220,4|2,1:0|1:0,0:0:0:0:
147,339,43573,1,10,0:0:0:0:
240,307,43910,2,0,P|266:300|297:303,1,55,2|2,1:0|1:0,0:0:0:0:
349,220,44415,1,2,1:0:0:0:
349,220,44584,2,0,P|286:172|202:194,2,165,2|2|10,1:0|1:0|0:0,0:0:0:0:
447,208,45932,2,0,P|449:181|453:151,1,55,0|8,1:0|0:0,0:0:0:0:
481,113,46269,2,0,P|479:86|474:56,1,55,0|0,1:0|1:0,0:0:0:0:
434,29,46606,6,0,P|361:27|271:50,1,165,4|8,1:0|0:0,0:0:0:0:
227,70,47281,1,2,1:0:0:0:
270,159,47618,2,0,P|287:204|287:265,1,110,10|2,0:0|1:0,0:0:0:0:
272,311,48123,1,2,1:0:0:0:
177,340,48460,1,2,1:0:0:0:
177,340,48629,1,2,1:0:0:0:
122,257,48966,1,2,1:0:0:0:
122,257,49134,2,0,P|123:202|105:150,1,110,2|2,1:0|1:0,0:0:0:0:
82,106,49640,2,0,L|27:108,2,55,10|2|2,0:0|0:0|1:0,0:0:0:0:
117,70,50146,2,0,P|168:52|223:69,1,110,8|0,1:0|1:0,0:0:0:0:
261,91,50651,5,4,1:0:0:0:
439,52,51663,5,4,1:0:0:0:
387,224,52674,5,4,1:0:0:0:
261,91,53685,5,4,1:0:0:0:
189,159,54022,2,0,P|195:181|201:216,1,55,8|8,0:3|0:3,0:0:0:0:
168,249,54359,2,0,P|161:272|156:307,1,55,8|0,0:3|1:0,0:0:0:0:
170,350,54696,5,4,1:0:0:0:
268,340,55033,2,0,P|319:353|373:332,1,110,0|0,1:0|1:0,0:0:0:0:
421,247,55708,1,8,1:0:0:0:
353,174,56045,1,8,1:0:0:0:
256,192,56382,1,8,1:0:0:0:
256,192,56719,12,4,58741,1:0:0:0:
256,192,59752,5,12,1:0:0:0:
280,76,60764,6,0,P|331:60|384:76,1,110,4|0,1:0|1:0,0:0:0:0:
419,109,61269,2,0,P|422:135|418:170,1,55,2|0,0:0|1:0,0:0:0:0:
410,213,61606,1,2,0:0:0:0:
410,213,61775,2,0,P|403:264|402:322,1,110,8|0,1:0|1:0,0:0:0:0:
306,298,62449,2,0,P|255:313|202:298,1,110,2|0,1:0|1:0,0:0:0:0:
159,274,62955,2,0,L|105:279,1,55,2|2,1:0|0:0,0:0:0:0:
62,252,63292,1,0,1:0:0:0:
62,252,63460,2,0,P|62:197|70:142,1,110,10|0,1:0|1:0,0:0:0:0:
85,95,63966,1,0,1:0:0:0:
85,95,64134,5,0,1:0:0:0:
173,51,64471,2,0,B|197:59|223:52|223:52|238:73|273:86,1,110,2|2,1:0|1:0,0:0:0:0:
368,102,65146,1,10,1:0:0:0:
356,200,65483,2,0,P|357:230|365:256,1,55,2|2,1:0|1:0,0:0:0:0:
388,297,65820,2,0,P|334:289|285:314,1,110,2|2,1:0|1:0,0:0:0:0:
245,343,66325,2,0,P|191:350|142:325,1,110,2|2,1:0|1:0,0:0:0:0:
102,297,66831,1,10,1:0:0:0:
140,205,67168,2,0,P|138:174|131:148,1,55,2|2,1:0|1:0,0:0:0:0:
108,107,67505,6,0,P|162:105|206:73,2,110,4|0|0,1:0|1:0|1:0,0:0:0:0:
59,110,68348,1,2,1:0:0:0:
59,110,68516,2,0,P|44:162|42:217,1,110,10|0,1:0|1:0,0:0:0:0:
62,263,69022,1,2,1:0:0:0:
62,263,69190,2,0,P|116:265|159:296,1,110,2|0,1:0|1:0,0:0:0:0:
195,330,69696,1,2,1:0:0:0:
293,341,70033,1,2,1:0:0:0:
293,341,70202,2,0,P|343:326|402:326,1,110,10|2,1:0|1:0,0:0:0:0:
456,243,70876,5,2,1:0:0:0:
471,145,71213,1,2,1:0:0:0:
405,70,71550,1,2,1:0:0:0:
306,71,71887,2,0,P|253:85|198:86,1,110,10|2,1:0|1:0,0:0:0:0:
149,78,72393,1,2,1:0:0:0:
149,78,72561,1,2,1:0:0:0:
65,129,72898,2,0,P|61:156|59:183,1,55,2|2,1:0|0:0,0:0:0:0:
98,213,73235,2,0,P|102:240|104:267,1,55,2|2,1:0|0:0,0:0:0:0:
96,317,73572,1,10,1:0:0:0:
186,359,73910,1,2,0:0:0:0:
256,289,74247,6,0,P|264:238|265:180,1,110,4|0,1:0|1:0,0:0:0:0:
264,130,74752,2,0,P|263:102|271:74,1,55,2|0,0:0|1:0,0:0:0:0:
315,57,75089,1,2,1:0:0:0:
315,57,75258,2,0,P|368:50|417:74,1,110,10|2,1:0|0:0,0:0:0:0:
483,148,75932,2,0,P|497:195|483:254,1,110,2|0,1:0|1:0,0:0:0:0:
449,288,76438,2,0,L|394:298,1,55,2|0,0:0|1:0,0:0:0:0:
352,272,76775,1,2,0:0:0:0:
352,272,76943,2,0,P|298:265|248:289,1,110,10|2,0:0|1:0,0:0:0:0:
166,342,77617,5,2,1:0:0:0:
88,279,77955,1,2,1:0:0:0:
133,192,78292,1,2,1:0:0:0:
79,108,78629,1,10,1:0:0:0:
34,196,78966,1,2,1:0:0:0:
133,192,79303,2,0,B|247:170|219:272|334:245,1,220,2|2,1:0|1:0,0:0:0:0:
415,186,80314,1,10,1:0:0:0:
415,87,80651,1,2,1:0:0:0:
329,36,80988,6,0,P|274:21|220:32,2,110,4|0|0,1:0|1:0|1:0,0:0:0:0:
299,130,81999,2,0,P|303:156|305:184,1,55,10|0,1:0|1:0,0:0:0:0:
270,220,82337,2,0,P|265:247|263:274,1,55,0|2,1:0|1:0,0:0:0:0:
236,315,82674,2,0,P|185:327|129:311,2,110,4|2|2,1:0|1:0|1:0,0:0:0:0:
334,320,83685,2,0,P|361:321|386:331,1,55,10|8,1:0|0:3,0:0:0:0:
434,345,84022,1,8,0:3:0:0:
498,269,84359,6,0,P|513:217|497:165,1,110,4|2,1:0|1:0,0:0:0:0:
429,92,85033,2,0,L|371:100,1,55,2|2,1:0|1:0,0:0:0:0:
340,135,85370,2,0,P|288:150|236:134,1,110,10|2,1:0|1:0,0:0:0:0:
200,99,85876,1,2,1:0:0:0:
159,70,86044,2,0,P|107:55|55:71,1,110,4|0,1:0|1:0,0:0:0:0:
32,167,86719,2,0,P|33:194|37:221,1,55,2|8,1:0|0:0,0:0:0:0:
73,255,87056,2,0,P|70:282|66:309,1,55,10|8,0:0|0:3,0:0:0:0:
34,347,87393,1,8,0:3:0:0:
256,192,87730,12,0,89752,0:0:0:0:
