osu file format v14

[General]
AudioFilename: audio.mp3
AudioLeadIn: 0
PreviewTime: 60764
Countdown: 0
SampleSet: Soft
StackLeniency: 0.7
Mode: 0
LetterboxInBreaks: 0
WidescreenStoryboard: 0

[Editor]
DistanceSpacing: 1.7
BeatDivisor: 4
GridSize: 4
TimelineZoom: 2.000006

[Metadata]
Title:Masshiro (TV Size)
TitleUnicode:真っ白 (TV Size)
Artist:Morohoshi Sumire
ArtistUnicode:諸星すみれ
Creator:kunka
Version:Ascendance of a Bookworm
Source:本好きの下剋上~司書になるためには手段を選んでいられません~
Tags:opening japanese anime Honzuki no Gekokujou Shisho ni Naru Tame ni wa Shudan o Erande Iraremasen Ascendance of a Bookworm smile Xinely Sekai Sekai-nyan Sekaii osuplayer111 Andrea walaowey kunkakunkakunkakunka
BeatmapID:2208573
BeatmapSetID:1056629

[Difficulty]
HPDrainRate:6
CircleSize:4.2
OverallDifficulty:8
ApproachRate:9.2
SliderMultiplier:1.6
SliderTickRate:1

[Events]
//Background and Video events
0,0,"BG.jpg",0,0
Video,0,"masshiro.mp4"
//Break Periods
//Storyboard Layer 0 (Background)
//Storyboard Layer 1 (Fail)
//Storyboard Layer 2 (Pass)
//Storyboard Layer 3 (Foreground)
//Storyboard Layer 4 (Overlay)
//Storyboard Sound Samples

[TimingPoints]
756,845.070422535211,4,2,1,30,1,0
4126,845.070422535211,4,2,1,30,1,0
7498,845.070422535211,4,2,1,40,1,0
7498,-100,4,2,1,40,0,0
10033,-125,4,2,1,50,0,0
10667,-125,4,2,1,5,0,0
10878,337.078651685393,5,2,1,60,1,0
17619,-125,4,2,1,45,0,0
20990,337.078651685393,3,2,1,50,1,0
20990,-111.111111111111,4,2,1,50,0,0
23012,-105.263157894737,4,2,1,55,0,0
25034,337.078651685393,5,2,1,60,1,0
38517,337.078651685393,3,2,1,60,1,0
39865,-100,4,2,1,50,0,0
40792,-100,4,2,1,5,0,0
40876,-100,4,2,1,60,0,0
42056,-100,4,2,1,70,0,0
42140,-100,4,2,1,30,0,0
42393,-100,4,2,1,70,0,0
42561,-100,4,2,1,65,0,0
50483,-100,4,2,1,50,0,0
50651,-111.111111111111,4,2,1,50,0,0
54696,-100,4,2,1,60,0,0
56719,-95.2380952380952,4,2,1,65,0,0
58741,-90.9090909090909,4,2,1,70,0,0
59078,-100,4,2,1,70,0,0
59752,-95.2380952380952,4,2,1,60,0,0
60090,-95.2380952380952,4,2,2,70,0,0
60764,337.078651685393,5,2,1,65,1,1
60764,-90.9090909090909,4,2,1,65,0,1
61269,-90.9090909090909,4,2,2,65,0,1
61353,-90.9090909090909,4,2,1,65,0,1
61606,-90.9090909090909,4,2,2,65,0,1
61775,-90.9090909090909,4,2,1,65,0,1
63123,-90.9090909090909,4,2,2,65,0,1
63292,-90.9090909090909,4,2,1,65,0,1
66494,-90.9090909090909,4,2,2,65,0,1
66662,-90.9090909090909,4,2,1,65,0,1
73910,-90.9090909090909,4,2,2,65,0,1
73994,-90.9090909090909,4,2,1,65,0,1
74752,-90.9090909090909,4,2,2,65,0,1
74837,-90.9090909090909,4,2,1,65,0,1
75595,-90.9090909090909,4,2,2,65,0,1
75763,-90.9090909090909,4,2,1,65,0,1
76438,-90.9090909090909,4,2,2,65,0,1
76522,-90.9090909090909,4,2,1,65,0,1
76775,-90.9090909090909,4,2,2,65,0,1
77280,-90.9090909090909,4,2,1,65,0,1
80820,-90.9090909090909,4,2,2,65,0,1
80988,-90.9090909090909,4,2,1,65,0,1
87730,337.078651685393,3,2,1,65,1,0
88741,-125,4,2,1,45,0,0
89752,-125,4,2,1,10,0,0

[Colours]
Combo1 : 255,128,255
Combo2 : 128,255,128
Combo3 : 128,255,255
Combo4 : 255,128,128
Combo5 : 255,255,128

[HitObjects]
278,35,757,5,2,0:0:0:0:
373,95,1602,1,2,0:0:0:0:
356,17,2447,1,2,0:0:0:0:
295,113,3291,1,2,0:0:0:0:
142,160,4126,5,2,0:0:0:0:
47,220,4971,1,2,0:0:0:0:
64,142,5816,1,2,0:0:0:0:
125,238,6661,1,2,0:0:0:0:
277,285,7498,5,2,0:0:0:0:
372,345,8343,1,2,0:0:0:0:
355,267,9188,1,2,0:0:0:0:
294,363,10033,2,0,P|245:358|196:358,1,96,2|0,0:0|0:0,0:0:0:0:
104,323,10878,6,0,P|64:258|70:176,1,160,4|0,0:0|0:0,0:0:0:0:
158,74,11383,2,0,P|237:76|319:88,1,160,2|0,0:0|0:0,0:0:0:0:
463,223,11889,2,0,P|461:262|455:302,1,80,2|0,0:0|0:0,0:0:0:0:
362,307,12142,1,0,0:0:0:0:
339,290,12226,2,0,P|340:250|346:210,1,80,2|0,0:0|0:0,0:0:0:0:
181,64,12563,6,0,P|180:104|174:144,1,80,2|0,0:0|0:0,0:0:0:0:
161,337,12900,1,2,0:0:0:0:
64,240,13069,1,2,0:0:0:0:
239,246,13237,2,0,P|277:235|316:241,1,80,2|0,0:0|0:0,0:0:0:0:
426,63,13574,2,0,P|437:100|442:144,1,80,2|0,0:0|0:0,0:0:0:0:
408,273,13911,2,0,P|396:310|392:354,1,80,2|0,0:0|0:0,0:0:0:0:
180,143,14248,6,0,P|218:132|257:138,1,80,2|0,0:0|0:0,0:0:0:0:
383,191,14585,1,2,0:0:0:0:
295,295,14754,1,2,0:0:0:0:
156,245,14922,2,0,P|117:234|78:240,1,80,2|0,0:0|0:0,0:0:0:0:
92,44,15260,2,0,P|130:54|169:48,1,80,2|0,0:0|0:0,0:0:0:0:
260,28,15512,1,0,0:0:0:0:
286,17,15597,2,0,P|325:10|363:21,1,80,2|0,0:0|0:0,0:0:0:0:
459,312,15934,6,0,P|455:271|445:234,1,80,2|0,0:0|0:0,0:0:0:0:
320,103,16271,1,2,0:0:0:0:
450,139,16439,1,2,0:0:0:0:
340,280,16608,2,0,P|329:318|325:358,1,80,2|0,0:0|0:0,0:0:0:0:
188,119,16945,2,0,P|198:80|192:41,1,80,2|0,0:0|0:0,0:0:0:0:
55,34,17282,2,0,P|44:72|50:111,1,80,2|0,0:0|0:0,0:0:0:0:
255,335,17619,6,0,P|193:323|129:334,1,128,2|2,0:0|0:0,0:0:0:0:
51,268,18125,1,0,0:0:0:0:
95,176,18293,1,2,0:0:0:0:
193,206,18462,1,2,0:0:0:0:
340,195,18630,2,0,P|350:222|358:258,1,64,2|0,0:0|0:0,0:0:0:0:
456,226,18967,2,0,P|450:194|438:165,1,64,2|0,0:0|0:0,0:0:0:0:
320,350,19304,6,0,P|380:359|434:325,1,128,2|2,0:0|0:0,0:0:0:0:
456,226,19810,1,0,0:0:0:0:
385,151,19979,1,2,0:0:0:0:
294,197,20147,1,2,0:0:0:0:
148,222,20316,2,0,P|116:218|85:210,1,64,2|0,0:0|0:0,0:0:0:0:
103,109,20653,2,0,P|135:112|166:120,1,64,2|0,0:0|0:0,0:0:0:0:
411,259,20990,6,0,P|339:237|287:273,1,143.999995605469,2|0,0:0|0:0,0:0:0:0:
213,362,21495,1,0,0:0:0:0:
94,62,21664,2,0,P|80:95|73:135,1,71.9999978027344,2|0,0:0|0:0,0:0:0:0:
248,239,22001,2,0,P|241:203|227:170,1,71.9999978027344,2|0,0:0|0:0,0:0:0:0:
64,53,22338,2,0,P|50:86|43:126,1,71.9999978027344,2|0,0:0|0:0,0:0:0:0:
279,233,22675,2,0,P|272:197|258:164,1,71.9999978027344,2|0,0:0|0:0,0:0:0:0:
62,350,23012,6,0,B|126:314|126:382|210:350,1,151.999995941162,2|2,1:0|0:0,0:0:0:0:
334,323,23518,1,0,0:0:0:0:
470,175,23686,2,0,P|480:212|470:247,1,75.9999979705811,2|0,0:0|0:0,0:0:0:0:
246,202,24023,2,0,L|171:196,1,75.9999979705811,2|0,0:0|0:0,0:0:0:0:
219,76,24360,2,0,L|294:70,1,75.9999979705811,2|0,1:0|0:0,0:0:0:0:
296,320,24697,2,0,L|221:326,1,75.9999979705811,2|0,1:0|0:0,0:0:0:0:
99,302,24950,1,0,0:0:0:0:
94,278,25034,6,0,P|88:233|72:186,1,80,4|0,1:0|0:0,0:0:0:0:
215,54,25371,1,0,0:0:0:0:
334,118,25539,2,0,P|417:129|474:83,1,160,0|0,1:0|1:0,0:0:0:0:
400,254,26045,2,0,P|361:240|321:244,1,80,8|0,0:0|0:0,0:0:0:0:
232,289,26298,1,2,0:0:0:0:
206,300,26382,2,0,P|166:303|129:289,1,80,2|0,1:0|0:0,0:0:0:0:
337,38,26719,6,0,L|333:118,1,80,2|0,1:0|0:0,0:0:0:0:
111,183,27056,1,0,0:0:0:0:
66,54,27225,2,0,P|149:43|206:89,1,160,0|0,1:0|1:0,0:0:0:0:
293,255,27730,2,0,P|299:213|310:177,1,80,8|0,0:0|0:0,0:0:0:0:
432,117,28067,2,0,P|443:155|448:194,1,80,0|0,1:0|1:0,0:0:0:0:
465,321,28320,1,2,0:0:0:0:
439,333,28404,6,0,P|400:321|361:316,1,80,2|0,1:0|0:0,0:0:0:0:
167,327,28741,1,0,0:0:0:0:
47,260,28910,2,0,P|47:184|62:101,1,160,0|0,1:0|1:0,0:0:0:0:
257,165,29416,2,0,P|294:171|334:158,1,80,8|0,0:0|0:0,0:0:0:0:
349,50,29668,1,2,0:0:0:0:
322,41,29753,2,0,P|285:35|245:48,1,80,2|0,1:0|0:0,0:0:0:0:
84,176,30090,6,0,P|80:135|60:99,1,80,2|0,1:0|0:0,0:0:0:0:
81,302,30427,1,0,0:0:0:0:
210,342,30595,2,0,P|284:317|361:336,1,160,0|0,1:0|1:0,0:0:0:0:
462,128,31101,2,0,P|468:91|455:51,1,80,8|0,0:0|0:0,0:0:0:0:
319,65,31438,2,0,P|313:102|326:142,1,80,0|0,1:0|0:0,0:0:0:0:
110,223,31775,6,0,P|147:217|190:230,1,80,2|0,1:0|0:0,0:0:0:0:
375,266,32112,1,2,1:0:0:0:
263,346,32281,1,2,1:0:0:0:
327,162,32449,1,2,1:0:0:0:
463,296,32618,1,2,1:0:0:0:
456,39,32786,2,0,P|467:77|461:116,1,80,10|0,0:0|0:0,0:0:0:0:
368,216,33123,2,0,P|329:204|290:210,1,80,0|0,1:0|1:0,0:0:0:0:
195,254,33376,1,0,1:0:0:0:
168,262,33460,6,0,P|128:267|90:256,1,80,2|0,1:0|0:0,0:0:0:0:
237,85,33798,1,0,0:0:0:0:
290,209,33966,1,0,1:0:0:0:
432,129,34135,1,0,1:0:0:0:
333,222,34303,1,0,1:0:0:0:
274,67,34472,2,0,P|315:70|354:53,1,80,8|0,0:0|0:0,0:0:0:0:
126,52,34809,2,0,P|85:49|46:66,1,80,2|0,1:0|1:0,0:0:0:0:
10,157,35062,1,0,1:0:0:0:
5,184,35146,6,0,P|8:223|19:262,1,80,2|0,1:0|0:0,0:0:0:0:
215,182,35483,1,2,0:0:0:0:
301,286,35651,1,2,1:0:0:0:
227,27,35820,1,2,1:0:0:0:
186,156,35989,1,0,1:0:0:0:
453,46,36157,2,0,P|463:84|456:129,1,80,10|0,0:0|0:0,0:0:0:0:
348,205,36494,2,0,P|309:198|269:201,1,80,0|0,1:0|1:0,0:0:0:0:
177,253,36747,1,2,1:0:0:0:
170,225,36831,6,0,P|150:192|116:169,1,80,2|0,1:0|0:0,0:0:0:0:
273,32,37168,1,0,0:0:0:0:
384,110,37337,1,0,1:0:0:0:
345,239,37505,2,0,P|335:277|342:322,1,80,0|0,1:0|0:0,0:0:0:0:
437,350,37758,1,0,0:0:0:0:
448,324,37842,2,0,P|458:285|452:246,1,80,10|0,0:0|1:0,0:0:0:0:
384,110,38180,2,0,L|299:115,1,80,2|0,1:0|0:0,0:0:0:0:
83,220,38517,6,0,L|168:225,1,80,4|0,1:0|0:0,0:0:0:0:
196,329,38769,1,0,0:0:0:0:
223,318,38854,2,0,P|251:289|266:253,1,80,2|0,1:0|0:0,0:0:0:0:
349,59,39191,2,0,P|338:97|344:136,1,80,2|0,1:0|0:0,0:0:0:0:
477,297,39528,2,0,P|445:274|401:270,1,80,10|0,0:0|0:0,0:0:0:0:
153,265,39865,5,2,1:0:0:0:
276,208,40033,1,2,1:0:0:0:
139,73,40202,1,2,0:0:0:0:
349,30,40370,1,2,1:0:0:0:
349,30,40455,1,2,1:0:0:0:
349,30,40539,6,0,P|409:27|457:66,1,120,2|0,1:0|0:0,0:0:0:0:
493,154,40876,2,0,P|491:193|479:237,1,80,2|0,1:0|1:0,0:0:0:0:
314,196,41213,1,10,1:0:0:0:
421,337,41382,2,0,P|414:357|410:375,1,40,2|0,1:0|1:0,0:0:0:0:
395,307,41550,6,0,P|311:286|244:313,1,160,10|0,1:0|0:0,0:0:0:0:
147,342,42056,2,0,P|124:343|102:339,1,40,8|0,0:0|1:0,0:0:0:0:
73,336,42393,1,0,1:0:0:0:
73,336,42561,6,0,B|68:248|-1:288|0:200,1,160,4|0,1:0|0:0,0:0:0:0:
21,67,43067,1,0,0:0:0:0:
288,40,43236,2,0,P|248:36|209:52,1,80,2|0,1:0|0:0,0:0:0:0:
200,151,43488,1,0,0:0:0:0:
226,159,43573,2,0,P|266:163|305:147,1,80,10|0,0:0|0:0,0:0:0:0:
409,342,43910,1,2,1:0:0:0:
464,218,44078,2,0,P|426:203|387:207,1,80,2|0,1:0|1:0,0:0:0:0:
282,293,44415,1,2,1:0:0:0:
86,246,44584,6,0,P|77:206|88:165,1,80,2|0,1:0|0:0,0:0:0:0:
262,107,44921,1,0,0:0:0:0:
397,119,45090,1,2,1:0:0:0:
283,21,45258,1,0,0:0:0:0:
376,205,45427,1,0,1:0:0:0:
155,288,45595,2,0,P|195:283|237:294,1,80,10|0,0:0|0:0,0:0:0:0:
358,344,45932,1,0,1:0:0:0:
421,125,46101,1,8,0:0:0:0:
460,254,46269,1,0,1:0:0:0:
358,344,46438,1,0,1:0:0:0:
332,355,46522,1,0,1:0:0:0:
304,353,46606,6,0,P|222:333|148:346,1,160,4|0,1:0|0:0,0:0:0:0:
140,168,47112,1,8,0:0:0:0:
9,132,47281,2,0,P|0:168|9:211,1,80,2|0,1:0|1:0,0:0:0:0:
208,43,47618,2,0,P|247:43|288:50,1,80,10|0,0:0|0:0,0:0:0:0:
443,158,47955,1,2,1:0:0:0:
374,275,48123,2,0,P|365:311|374:354,1,80,2|0,1:0|1:0,0:0:0:0:
505,317,48460,1,2,1:0:0:0:
411,144,48629,6,0,P|369:144|328:153,1,80,2|0,1:0|0:0,0:0:0:0:
122,246,48966,1,2,1:0:0:0:
202,355,49134,2,0,P|239:365|278:355,1,80,2|0,1:0|0:0,0:0:0:0:
364,246,49472,1,2,1:0:0:0:
143,22,49640,5,10,0:0:0:0:
278,18,49809,1,2,0:0:0:0:
384,102,49977,1,2,1:0:0:0:
143,57,50146,1,8,1:0:0:0:
134,193,50314,1,0,1:0:0:0:
40,290,50483,2,0,P|20:300|6:315,1,40,0|0,1:0|1:0,0:0:0:0:
115,326,50651,6,0,B|265:355|236:230|383:261,1,287.999991210938,4|0,1:0|0:0,0:0:0:0:
498,302,51494,1,2,0:0:0:0:
259,121,51663,6,0,P|311:38|418:46,1,215.999993408203,4|0,1:0|0:0,0:0:0:0:
500,137,52337,2,0,P|492:171|486:210,1,71.9999978027344,2|0,0:0|0:0,0:0:0:0:
208,343,52674,6,0,P|73:356|12:235,1,287.999991210938,4|0,1:0|0:0,0:0:0:0:
25,114,53516,1,0,0:0:0:0:
347,17,53685,5,4,1:0:0:0:
293,127,53854,1,0,1:0:0:0:
107,96,54022,1,8,0:3:0:0:
161,206,54191,1,8,0:3:0:0:
334,139,54359,1,8,0:3:0:0:
280,249,54528,2,0,P|281:268|286:285,1,35.9999989013672,0|0,1:0|1:0,0:0:0:0:
349,360,54696,6,0,P|309:358|273:374,1,80,4|0,1:0|0:0,0:0:0:0:
49,334,55033,2,0,P|88:335|124:319,1,80,0|0,1:0|0:0,0:0:0:0:
104,183,55370,2,0,P|65:182|29:198,1,80,0|0,1:0|0:0,0:0:0:0:
250,268,55708,2,0,P|265:304|264:344,1,80,8|0,1:0|0:0,0:0:0:0:
218,114,56045,2,0,P|222:74|243:40,1,80,8|0,1:0|0:0,0:0:0:0:
440,214,56382,2,0,P|403:197|364:199,1,80,8|0,1:0|0:0,0:0:0:0:
155,161,56719,5,10,1:0:0:0:
300,222,56887,1,0,0:0:0:0:
218,114,57056,1,10,1:0:0:0:
237,269,57224,1,2,0:0:0:0:
290,144,57393,1,10,1:0:0:0:
165,239,57561,1,0,0:0:0:0:
208,36,57730,5,10,1:0:0:0:
247,347,57899,1,2,0:0:0:0:
83,130,58067,1,10,1:0:0:0:
372,253,58236,1,0,0:0:0:0:
102,286,58404,1,10,1:0:0:0:
353,97,58572,1,2,0:0:0:0:
1,171,58741,6,0,P|86:152|165:189,1,176.000005371094,4|8,1:0|1:0,0:0:0:0:
248,287,59247,1,8,1:0:0:0:
434,32,59415,1,8,1:0:0:0:
195,69,59584,1,0,1:0:0:0:
487,250,59752,1,12,1:0:0:0:
467,272,60090,6,0,P|478:297|482:325,2,55.9999982910157,2|0|0,0:0|0:0|0:0,0:0:0:0:
349,192,60427,2,0,P|336:219|332:250,1,41.9999987182618
224,281,60595,2,0,P|218:260|208:242,1,41.9999987182618
166,60,60764,6,0,B|250:92|250:24|338:60,1,176.000005371094,4|0,1:0|1:0,0:0:0:0:
446,281,61269,1,2,0:0:0:0:
451,276,61353,1,0,1:0:0:0:
456,271,61438,2,0,P|468:225|456:184,1,88.000002685547,0|2,1:0|0:0,0:0:0:0:
214,140,61775,1,8,1:0:0:0:
134,265,61943,1,0,0:0:0:0:
64,133,62112,1,0,1:0:0:0:
275,293,62280,1,0,1:0:0:0:
280,298,62365,1,0,1:0:0:0:
285,303,62449,6,0,P|375:320|448:278,1,176.000005371094,2|0,1:0|1:0,0:0:0:0:
344,46,62955,1,2,1:0:0:0:
339,44,63039,1,0,1:0:0:0:
334,42,63123,2,0,P|290:36|246:55,1,88.000002685547,2|0,0:0|1:0,0:0:0:0:
21,193,63460,1,10,1:0:0:0:
139,284,63629,1,0,0:0:0:0:
214,155,63797,1,0,1:0:0:0:
463,222,63966,1,0,1:0:0:0:
458,217,64050,1,0,1:0:0:0:
453,212,64134,6,0,P|410:199|366:206,1,88.000002685547,0|0,1:0|0:0,0:0:0:0:
214,155,64471,2,0,L|225:68,1,88.000002685547,2|0,1:0|0:0,0:0:0:0:
54,197,64808,2,0,P|97:210|141:203,1,88.000002685547,2|0,1:0|0:0,0:0:0:0:
309,75,65146,2,0,L|298:162,1,88.000002685547,10|0,1:0|0:0,0:0:0:0:
167,350,65483,1,2,1:0:0:0:
138,203,65651,2,0,L|185:203,1,44.0000013427735,2|0,1:0|0:0,0:0:0:0:
54,247,65820,6,0,P|44:204|54:160,1,88.000002685547,2|0,1:0|0:0,0:0:0:0:
297,162,66157,1,2,1:0:0:0:
438,115,66325,2,0,P|447:157|438:202,1,88.000002685547,2|2,1:0|0:0,0:0:0:0:
200,162,66662,1,2,1:0:0:0:
104,277,66831,2,0,L|125:362,1,88.000002685547,10|0,1:0|0:0,0:0:0:0:
355,263,67168,1,2,1:0:0:0:
300,63,67337,2,0,P|290:82|286:104,1,44.0000013427735,2|0,1:0|0:0,0:0:0:0:
365,175,67505,6,0,P|266:143|196:163,1,176.000005371094,4|0,1:0|1:0,0:0:0:0:
83,322,68011,1,0,0:0:0:0:
28,183,68179,1,0,1:0:0:0:
262,269,68348,2,0,P|287:262|307:264,1,44.0000013427735,2|0,1:0|0:0,0:0:0:0:
378,340,68516,2,0,P|346:241|366:171,1,176.000005371094,10|0,1:0|1:0,0:0:0:0:
111,80,69022,2,0,P|118:105|116:125,1,44.0000013427735,2|0,1:0|0:0,0:0:0:0:
28,183,69190,6,0,P|112:165|193:196,1,176.000005371094,2|0,1:0|1:0,0:0:0:0:
383,77,69696,1,2,1:0:0:0:
476,194,69865,1,0,1:0:0:0:
409,60,70033,1,2,1:0:0:0:
334,251,70202,2,0,P|335:294|342:342,1,88.000002685547,10|0,1:0|0:0,0:0:0:0:
197,268,70539,2,0,P|203:224|204:180,1,88.000002685547,2|0,1:0|0:0,0:0:0:0:
50,217,70876,6,0,P|43:260|42:304,1,88.000002685547,2|0,1:0|0:0,0:0:0:0:
295,231,71213,1,2,1:0:0:0:
268,84,71381,1,0,0:0:0:0:
469,211,71550,1,2,1:0:0:0:
323,249,71719,1,0,0:0:0:0:
85,119,71887,2,0,P|125:104|169:109,1,88.000002685547,10|0,1:0|0:0,0:0:0:0:
415,73,72224,1,2,1:0:0:0:
363,218,72393,2,0,P|356:240|357:262,1,44.0000013427735,2|0,1:0|0:0,0:0:0:0:
412,353,72561,6,0,P|372:368|328:363,1,88.000002685547,2|0,1:0|0:0,0:0:0:0:
113,208,72898,1,2,1:0:0:0:
247,142,73067,1,2,0:0:0:0:
54,37,73235,1,2,1:0:0:0:
79,184,73404,1,2,0:0:0:0:
373,60,73572,5,10,1:0:0:0:
340,206,73741,1,2,0:0:0:0:
154,96,73910,2,0,P|161:117|164:148,1,44.0000013427735,2|0,0:0|1:0,0:0:0:0:
200,238,74078,2,0,P|193:259|190:290,1,44.0000013427735,0|0,1:0|1:0,0:0:0:0:
101,345,74247,6,0,P|186:325|270:355,1,176.000005371094,4|0,1:0|1:0,0:0:0:0:
467,226,74752,1,2,0:0:0:0:
462,231,74837,1,0,1:0:0:0:
457,236,74921,2,0,P|417:247|373:235,1,88.000002685547,0|2,1:0|1:0,0:0:0:0:
304,192,75174,1,0,1:0:0:0:
277,175,75258,2,0,P|235:163|193:174,1,88.000002685547,10|0,1:0|0:0,0:0:0:0:
66,255,75595,1,2,0:0:0:0:
6,97,75763,2,0,P|29:96|50:89,1,44.0000013427735,0|0,1:0|0:0,0:0:0:0:
120,12,75932,6,0,P|91:84|122:176,1,176.000005371094,2|0,1:0|1:0,0:0:0:0:
264,364,76438,1,2,0:0:0:0:
293,356,76522,1,0,1:0:0:0:
322,365,76606,1,0,1:0:0:0:
463,314,76775,1,2,0:0:0:0:
354,150,76943,1,10,0:0:0:0:
501,176,77112,1,0,0:0:0:0:
450,35,77280,1,2,1:0:0:0:
355,266,77449,2,0,L|307:266,1,44.0000013427735,2|0,1:0|1:0,0:0:0:0:
440,311,77617,6,0,P|452:271|444:227,1,88.000002685547,2|0,1:0|0:0,0:0:0:0:
370,64,77955,2,0,L|354:152,1,88.000002685547,2|0,1:0|0:0,0:0:0:0:
193,206,78292,2,0,L|208:119,1,88.000002685547,2|0,1:0|0:0,0:0:0:0:
499,180,78629,2,0,L|483:268,1,88.000002685547,10|0,1:0|0:0,0:0:0:0:
247,330,78966,1,2,1:0:0:0:
392,360,79134,1,0,1:0:0:0:
73,373,79303,6,0,P|64:329|79:287,1,88.000002685547,2|0,1:0|0:0,0:0:0:0:
206,93,79640,2,0,P|254:94|294:97,1,88.000002685547,2|0,1:0|0:0,0:0:0:0:
443,103,79977,1,2,1:0:0:0:
361,229,80146,1,0,0:0:0:0:
118,44,80314,2,0,P|104:85|113:128,1,88.000002685547,10|0,1:0|0:0,0:0:0:0:
60,274,80651,1,2,1:0:0:0:
183,358,80820,2,0,P|196:338|199:316,1,44.0000013427735,2|0,0:0|0:0,0:0:0:0:
142,233,80988,6,0,P|207:281|298:271,1,176.000005371094,4|0,1:0|1:0,0:0:0:0:
455,82,81494,1,0,1:0:0:0:
427,68,81578,1,0,1:0:0:0:
396,67,81662,1,0,1:0:0:0:
255,120,81831,1,0,0:0:0:0:
52,27,81999,1,10,1:0:0:0:
12,171,82168,1,0,1:0:0:0:
89,42,82337,1,0,1:0:0:0:
266,208,82505,2,0,P|267:234|262:257,1,44.0000013427735,2|0,1:0|0:0,0:0:0:0:
177,313,82674,6,0,P|261:295|338:336,1,176.000005371094,4|2,1:0|1:0,0:0:0:0:
476,163,83179,1,2,0:0:0:0:
435,18,83348,1,2,1:0:0:0:
331,125,83516,1,0,0:0:0:0:
110,63,83685,1,10,1:0:0:0:
42,195,83853,1,8,0:3:0:0:
140,308,84022,1,8,0:3:0:0:
283,265,84190,2,0,P|287:243|289:221,1,44.0000013427735,2|0,1:0|0:0,0:0:0:0:
246,124,84359,6,0,P|289:114|334:126,1,88.000002685547,4|0,1:0|0:0,0:0:0:0:
415,350,84696,1,2,1:0:0:0:
265,347,84865,1,0,1:0:0:0:
236,357,84949,1,0,1:0:0:0:
206,347,85033,1,2,1:0:0:0:
289,221,85202,1,2,1:0:0:0:
43,315,85370,2,0,P|37:271|55:229,1,88.000002685547,10|0,1:0|0:0,0:0:0:0:
234,135,85707,1,2,1:0:0:0:
120,38,85876,1,2,1:0:0:0:
427,23,86044,6,0,P|443:63|437:106,1,88.000002685547,4|0,1:0|0:0,0:0:0:0:
354,231,86381,1,0,1:0:0:0:
140,137,86549,1,8,0:0:0:0:
240,248,86719,1,2,1:0:0:0:
328,76,86887,1,8,0:0:0:0:
106,167,87056,5,10,0:0:0:0:
194,49,87224,1,8,0:3:0:0:
268,252,87393,1,8,0:3:0:0:
78,195,87561,1,0,1:0:0:0:
365,52,87730,5,4,0:0:0:0:
256,192,87814,12,0,89752,0:0:0:0:
