osu file format v14

[General]
AudioFilename: audio.mp3
AudioLeadIn: 0
PreviewTime: 60384
Countdown: 0
SampleSet: Normal
StackLeniency: 0.7
Mode: 1
LetterboxInBreaks: 0
WidescreenStoryboard: 1

[Editor]
DistanceSpacing: 1.1
BeatDivisor: 4
GridSize: 32
TimelineZoom: 2.1

[Metadata]
Title:Masshiro (TV Size)
TitleUnicode:真っ白 (TV Size)
Artist:Morohoshi Sumire
ArtistUnicode:諸星すみれ
Creator:iRedi
Version:ler's Oni
Source:本好きの下剋上~司書になるためには手段を選んでいられません~
Tags:ler1211 rinze ascendance of a bookworm honzuki no gekokujou shisho ni naru tame wa shudan wo erandeiraremasen smile anime opening op season 1 S1 OP1 one 岩里祐穂 岩里 祐穂 yuho iwasato 白戸佑輔 白戸 佑輔 yusuke shirato japanese jpop j-pop j pop
BeatmapID:4220310
BeatmapSetID:2025659

[Difficulty]
HPDrainRate:5.5
CircleSize:2
OverallDifficulty:5.5
ApproachRate:10
SliderMultiplier:1.4
SliderTickRate:1

[Events]
//Background and Video events
0,0,"bg.jpg",0,40
Video,-1150,"tv.mp4"
//Break Periods
//Storyboard Layer 0 (Background)
//Storyboard Layer 1 (Fail)
//Storyboard Layer 2 (Pass)
//Storyboard Layer 3 (Foreground)
//Storyboard Layer 4 (Overlay)
//Storyboard Sound Samples

[TimingPoints]
-2944,337.078651685393,5,1,0,35,1,0
258,-100,5,1,0,35,0,0
10539,-100,5,1,0,40,0,0
20651,337.078651685393,6,1,0,45,1,8
20652,337.078651685393,6,1,0,45,1,0
20652,-100,3,1,0,45,0,0
24696,337.078651685393,5,1,0,55,1,0
24696,-100,5,1,0,55,0,0
38179,337.078651685393,6,1,0,55,1,0
38179,-100,6,1,0,55,0,0
42139,-100,6,1,0,50,0,0
42223,337.078651685393,6,1,0,50,1,0
60425,337.078651685393,6,1,0,70,1,8
60426,337.078651685393,5,1,0,70,1,1
60426,-100,4,1,0,70,0,1
87392,-100,4,1,0,70,0,0
87476,-105.26317,5,1,0,56,0,0
88066,-105.26317,5,1,0,42,0,0
88403,-105.26317,5,1,0,28,0,0
88740,-105.26317,5,1,0,14,0,0
89077,-100,4,1,0,5,0,0

[HitObjects]
256,192,7168,12,0,10202,0:0:0:0:
256,192,10539,5,4,0:0:0:0:
256,192,11045,1,8,0:0:0:0:
256,192,11213,1,0,0:0:0:0:
256,192,11551,1,8,0:0:0:0:
256,192,11888,1,0,0:0:0:0:
256,192,12225,1,8,0:0:0:0:
256,192,12562,1,0,0:0:0:0:
256,192,12730,1,0,0:0:0:0:
256,192,12899,1,0,0:0:0:0:
256,192,13236,1,8,0:0:0:0:
256,192,13573,1,8,0:0:0:0:
256,192,13910,1,0,0:0:0:0:
256,192,14247,1,0,0:0:0:0:
256,192,14416,1,8,0:0:0:0:
256,192,14584,1,0,0:0:0:0:
256,192,14921,1,8,0:0:0:0:
256,192,15258,1,0,0:0:0:0:
256,192,15595,1,8,0:0:0:0:
256,192,15933,1,0,0:0:0:0:
256,192,16101,1,0,0:0:0:0:
256,192,16270,1,0,0:0:0:0:
256,192,16607,1,8,0:0:0:0:
256,192,16944,1,8,0:0:0:0:
256,192,17281,1,0,0:0:0:0:
256,192,17618,1,0,0:0:0:0:
256,192,17955,1,8,0:0:0:0:
256,192,18124,1,0,0:0:0:0:
256,192,18292,1,8,0:0:0:0:
256,192,18629,1,8,0:0:0:0:
256,192,18966,1,0,0:0:0:0:
256,192,19303,1,0,0:0:0:0:
256,192,19640,1,8,0:0:0:0:
256,192,19809,1,8,0:0:0:0:
256,192,19977,1,0,0:0:0:0:
256,192,20315,1,8,0:0:0:0:
256,192,20652,1,0,0:0:0:0:
256,192,20989,1,8,0:0:0:0:
256,192,21157,1,0,0:0:0:0:
256,192,21326,1,8,0:0:0:0:
256,192,21663,1,0,0:0:0:0:
256,192,22000,1,8,0:0:0:0:
256,192,22337,1,0,0:0:0:0:
256,192,22505,1,8,0:0:0:0:
256,192,22674,1,0,0:0:0:0:
256,192,23011,1,8,0:0:0:0:
256,192,23180,1,8,0:0:0:0:
256,192,23348,1,0,0:0:0:0:
256,192,23685,1,8,0:0:0:0:
256,192,24022,1,0,0:0:0:0:
256,192,24359,1,8,0:0:0:0:
256,192,24528,1,8,0:0:0:0:
256,192,24696,1,4,0:0:0:0:
256,192,25201,1,0,0:0:0:0:
256,192,25538,1,0,0:0:0:0:
256,192,25707,1,8,0:0:0:0:
256,192,25875,1,8,0:0:0:0:
256,192,26044,1,0,0:0:0:0:
256,192,26212,1,8,0:0:0:0:
256,192,26297,1,8,0:0:0:0:
256,192,26381,1,0,0:0:0:0:
256,192,26718,1,0,0:0:0:0:
256,192,26887,1,8,0:0:0:0:
256,192,27055,1,0,0:0:0:0:
256,192,27224,1,0,0:0:0:0:
256,192,27392,1,8,0:0:0:0:
256,192,27729,1,8,0:0:0:0:
256,192,27898,1,8,0:0:0:0:
256,192,28066,1,0,0:0:0:0:
256,192,28403,1,8,0:0:0:0:
256,192,28572,1,0,0:0:0:0:
256,192,28909,1,0,0:0:0:0:
256,192,29078,1,8,0:0:0:0:
256,192,29246,1,8,0:0:0:0:
256,192,29415,1,0,0:0:0:0:
256,192,29583,1,8,0:0:0:0:
256,192,29667,1,8,0:0:0:0:
256,192,29752,1,0,0:0:0:0:
256,192,30089,1,8,0:0:0:0:
256,192,30257,1,8,0:0:0:0:
256,192,30426,1,0,0:0:0:0:
256,192,30594,1,0,0:0:0:0:
256,192,30763,1,8,0:0:0:0:
256,192,31100,1,8,0:0:0:0:
256,192,31269,1,8,0:0:0:0:
256,192,31437,1,0,0:0:0:0:
256,192,31774,1,8,0:0:0:0:
256,192,31943,1,0,0:0:0:0:
256,192,32027,1,0,0:0:0:0:
256,192,32111,1,8,0:0:0:0:
256,192,32280,1,0,0:0:0:0:
256,192,32448,1,8,0:0:0:0:
256,192,32617,1,8,0:0:0:0:
256,192,32785,1,0,0:0:0:0:
256,192,32954,1,8,0:0:0:0:
256,192,33038,1,8,0:0:0:0:
256,192,33122,1,0,0:0:0:0:
256,192,33460,1,0,0:0:0:0:
256,192,33628,1,8,0:0:0:0:
256,192,33797,1,0,0:0:0:0:
256,192,33965,1,0,0:0:0:0:
256,192,34134,1,8,0:0:0:0:
256,192,34302,1,0,0:0:0:0:
256,192,34471,1,8,0:0:0:0:
256,192,34639,1,0,0:0:0:0:
256,192,34724,1,8,0:0:0:0:
256,192,34808,1,0,0:0:0:0:
256,192,35145,1,8,0:0:0:0:
256,192,35313,1,8,0:0:0:0:
256,192,35482,1,0,0:0:0:0:
256,192,35566,1,0,0:0:0:0:
256,192,35651,1,0,0:0:0:0:
256,192,35819,1,8,0:0:0:0:
256,192,35988,1,0,0:0:0:0:
256,192,36156,1,8,0:0:0:0:
256,192,36325,1,0,0:0:0:0:
256,192,36409,1,0,0:0:0:0:
256,192,36493,1,8,0:0:0:0:
256,192,36830,1,0,0:0:0:0:
256,192,36999,1,8,0:0:0:0:
256,192,37167,1,0,0:0:0:0:
256,192,37336,1,0,0:0:0:0:
256,192,37504,1,8,0:0:0:0:
256,192,37673,1,0,0:0:0:0:
256,192,37842,1,8,0:0:0:0:
256,192,37926,1,8,0:0:0:0:
256,192,38010,1,8,0:0:0:0:
256,192,38179,1,4,0:0:0:0:
256,192,38516,1,8,0:0:0:0:
256,192,38853,1,0,0:0:0:0:
256,192,39190,1,8,0:0:0:0:
256,192,39358,1,8,0:0:0:0:
256,192,39527,1,0,0:0:0:0:
256,192,39695,1,0,0:0:0:0:
256,192,39864,1,8,0:0:0:0:
256,192,40032,1,8,0:0:0:0:
256,192,40117,1,8,0:0:0:0:
256,192,40201,1,0,0:0:0:0:
256,192,40538,1,0,0:0:0:0:
256,192,40707,1,0,0:0:0:0:
256,192,40875,1,8,0:0:0:0:
256,192,41044,1,0,0:0:0:0:
256,192,41212,1,8,0:0:0:0:
256,192,41718,1,8,0:0:0:0:
256,192,42055,1,8,0:0:0:0:
256,192,42223,1,4,0:0:0:0:
256,192,42561,1,8,0:0:0:0:
256,192,42729,1,8,0:0:0:0:
256,192,42898,1,0,0:0:0:0:
256,192,42982,1,0,0:0:0:0:
256,192,43066,1,0,0:0:0:0:
256,192,43235,1,8,0:0:0:0:
256,192,43402,1,8,0:0:0:0:
256,192,43572,1,0,0:0:0:0:
256,192,43740,1,8,0:0:0:0:
256,192,43825,1,8,0:0:0:0:
256,192,43909,1,0,0:0:0:0:
256,192,44077,1,8,0:0:0:0:
256,192,44246,1,0,0:0:0:0:
256,192,44583,1,0,0:0:0:0:
256,192,44752,1,8,0:0:0:0:
256,192,44920,1,0,0:0:0:0:
256,192,45089,1,0,0:0:0:0:
256,192,45257,1,8,0:0:0:0:
256,192,45594,1,0,0:0:0:0:
256,192,45763,1,8,0:0:0:0:
256,192,45931,1,0,0:0:0:0:
256,192,46016,1,0,0:0:0:0:
256,192,46100,1,8,0:0:0:0:
256,192,46268,1,4,0:0:0:0:
256,192,46605,1,0,0:0:0:0:
256,192,46774,1,8,0:0:0:0:
256,192,46943,1,0,0:0:0:0:
256,192,47111,1,0,0:0:0:0:
256,192,47194,1,0,0:0:0:0:
256,192,47280,1,8,0:0:0:0:
256,192,47447,1,0,0:0:0:0:
256,192,47617,1,8,0:0:0:0:
256,192,47785,1,8,0:0:0:0:
256,192,47869,1,8,0:0:0:0:
256,192,47954,1,0,0:0:0:0:
256,192,48122,1,0,0:0:0:0:
256,192,48291,1,8,0:0:0:0:
256,192,48628,1,0,0:0:0:0:
256,192,48796,1,8,0:0:0:0:
256,192,48881,1,8,0:0:0:0:
256,192,48965,1,8,0:0:0:0:
256,192,49134,1,0,0:0:0:0:
256,192,49302,1,8,0:0:0:0:
256,192,49471,1,0,0:0:0:0:
256,192,49639,1,0,0:0:0:0:
256,192,49808,1,8,0:0:0:0:
256,192,50145,1,0,0:0:0:0:
256,192,50313,1,12,0:0:0:0:
256,192,51325,1,12,0:0:0:0:
256,192,52336,1,12,0:0:0:0:
256,192,53347,1,12,0:0:0:0:
256,192,53684,1,8,0:0:0:0:
256,192,53853,1,8,0:0:0:0:
256,192,54021,1,8,0:0:0:0:
256,192,54190,1,8,0:0:0:0:
256,192,54358,1,4,0:0:0:0:
256,192,55370,1,0,0:0:0:0:
256,192,55707,1,0,0:0:0:0:
256,192,56044,1,0,0:0:0:0:
256,192,56381,1,8,0:0:0:0:
256,192,56718,1,0,0:0:0:0:
256,192,57055,1,0,0:0:0:0:
256,192,57392,1,8,0:0:0:0:
256,192,57561,1,8,0:0:0:0:
256,192,57729,1,0,0:0:0:0:
256,192,58066,1,0,0:0:0:0:
256,192,58235,1,0,0:0:0:0:
256,192,58403,1,12,0:0:0:0:
256,192,58909,1,0,0:0:0:0:
256,192,59077,1,8,0:0:0:0:
256,192,59246,1,8,0:0:0:0:
256,192,59414,1,4,0:0:0:0:
256,192,59752,12,4,60257,0:0:0:0:
256,192,60426,5,4,0:0:0:0:
256,192,60763,1,8,0:0:0:0:
256,192,60931,1,0,0:0:0:0:
256,192,61015,1,8,0:0:0:0:
256,192,61100,1,0,0:0:0:0:
256,192,61268,1,0,0:0:0:0:
256,192,61437,1,8,0:0:0:0:
256,192,61521,1,8,0:0:0:0:
256,192,61605,1,0,0:0:0:0:
256,192,61690,1,0,0:0:0:0:
256,192,61774,1,8,0:0:0:0:
256,192,61942,1,8,0:0:0:0:
256,192,62111,1,0,0:0:0:0:
256,192,62448,1,8,0:0:0:0:
256,192,62617,1,0,0:0:0:0:
256,192,62701,1,0,0:0:0:0:
256,192,62785,1,8,0:0:0:0:
256,192,62954,1,0,0:0:0:0:
256,192,63122,1,8,0:0:0:0:
256,192,63291,1,8,0:0:0:0:
256,192,63375,1,8,0:0:0:0:
256,192,63459,1,0,0:0:0:0:
256,192,63628,1,0,0:0:0:0:
256,192,63796,1,8,0:0:0:0:
256,192,64133,1,8,0:0:0:0:
256,192,64302,1,0,0:0:0:0:
256,192,64470,1,8,0:0:0:0:
256,192,64555,1,8,0:0:0:0:
256,192,64639,1,0,0:0:0:0:
256,192,64808,1,8,0:0:0:0:
256,192,64976,1,0,0:0:0:0:
256,192,65060,1,0,0:0:0:0:
256,192,65145,1,8,0:0:0:0:
256,192,65229,1,8,0:0:0:0:
256,192,65313,1,0,0:0:0:0:
256,192,65482,1,8,0:0:0:0:
256,192,65819,1,8,0:0:0:0:
256,192,65987,1,0,0:0:0:0:
256,192,66072,1,0,0:0:0:0:
256,192,66156,1,8,0:0:0:0:
256,192,66324,1,0,0:0:0:0:
256,192,66493,1,8,0:0:0:0:
256,192,66830,1,8,0:0:0:0:
256,192,66999,1,8,0:0:0:0:
256,192,67167,1,4,0:0:0:0:
256,192,67420,1,0,0:0:0:0:
256,192,67504,1,8,0:0:0:0:
256,192,67673,1,0,0:0:0:0:
256,192,67841,1,8,0:0:0:0:
256,192,68010,1,0,0:0:0:0:
256,192,68094,1,0,0:0:0:0:
256,192,68178,1,8,0:0:0:0:
256,192,68515,1,8,0:0:0:0:
256,192,68600,1,8,0:0:0:0:
256,192,68684,1,8,0:0:0:0:
256,192,68852,1,0,0:0:0:0:
256,192,69105,1,0,0:0:0:0:
256,192,69190,1,8,0:0:0:0:
256,192,69358,1,8,0:0:0:0:
256,192,69527,1,0,0:0:0:0:
256,192,69695,1,8,0:0:0:0:
256,192,69779,1,0,0:0:0:0:
256,192,69864,1,8,0:0:0:0:
256,192,70032,1,8,0:0:0:0:
256,192,70201,1,0,0:0:0:0:
256,192,70285,1,0,0:0:0:0:
256,192,70369,1,8,0:0:0:0:
256,192,70454,1,8,0:0:0:0:
256,192,70538,1,0,0:0:0:0:
256,192,70875,1,8,0:0:0:0:
256,192,71043,1,0,0:0:0:0:
256,192,71212,1,8,0:0:0:0:
256,192,71296,1,8,0:0:0:0:
256,192,71381,1,0,0:0:0:0:
256,192,71549,1,8,0:0:0:0:
256,192,71718,1,8,0:0:0:0:
256,192,71886,1,0,0:0:0:0:
256,192,71970,1,0,0:0:0:0:
256,192,72055,1,0,0:0:0:0:
256,192,72223,1,8,0:0:0:0:
256,192,72560,1,8,0:0:0:0:
256,192,72729,1,0,0:0:0:0:
256,192,72897,1,8,0:0:0:0:
256,192,73066,1,0,0:0:0:0:
256,192,73150,1,0,0:0:0:0:
256,192,73234,1,8,0:0:0:0:
256,192,73403,1,8,0:0:0:0:
256,192,73572,1,8,0:0:0:0:
256,192,73740,1,8,0:0:0:0:
256,192,73909,1,4,0:0:0:0:
256,192,74246,1,8,0:0:0:0:
256,192,74414,1,0,0:0:0:0:
256,192,74498,1,0,0:0:0:0:
256,192,74583,1,8,0:0:0:0:
256,192,74751,1,0,0:0:0:0:
256,192,74920,1,8,0:0:0:0:
256,192,75004,1,8,0:0:0:0:
256,192,75088,1,0,0:0:0:0:
256,192,75173,1,0,0:0:0:0:
256,192,75257,1,8,0:0:0:0:
256,192,75425,1,8,0:0:0:0:
256,192,75594,1,0,0:0:0:0:
256,192,75931,1,8,0:0:0:0:
256,192,76100,1,0,0:0:0:0:
256,192,76184,1,0,0:0:0:0:
256,192,76268,1,0,0:0:0:0:
256,192,76437,1,0,0:0:0:0:
256,192,76605,1,8,0:0:0:0:
256,192,76774,1,0,0:0:0:0:
256,192,76858,1,0,0:0:0:0:
256,192,76942,1,8,0:0:0:0:
256,192,77111,1,0,0:0:0:0:
256,192,77279,1,8,0:0:0:0:
256,192,77616,1,8,0:0:0:0:
256,192,77785,1,0,0:0:0:0:
256,192,77953,1,8,0:0:0:0:
256,192,78038,1,8,0:0:0:0:
256,192,78122,1,0,0:0:0:0:
256,192,78291,1,8,0:0:0:0:
256,192,78459,1,0,0:0:0:0:
256,192,78543,1,0,0:0:0:0:
256,192,78628,1,8,0:0:0:0:
256,192,78796,1,0,0:0:0:0:
256,192,78965,1,8,0:0:0:0:
256,192,79049,1,8,0:0:0:0:
256,192,79133,1,0,0:0:0:0:
256,192,79218,1,0,0:0:0:0:
256,192,79302,1,8,0:0:0:0:
256,192,79470,1,0,0:0:0:0:
256,192,79639,1,8,0:0:0:0:
256,192,79807,1,0,0:0:0:0:
256,192,79976,1,8,0:0:0:0:
256,192,80313,1,8,0:0:0:0:
256,192,80482,1,8,0:0:0:0:
256,192,80650,1,4,0:0:0:0:
256,192,80987,1,8,0:0:0:0:
256,192,81156,1,0,0:0:0:0:
256,192,81240,1,0,0:0:0:0:
256,192,81324,1,8,0:0:0:0:
256,192,81493,1,0,0:0:0:0:
256,192,81661,1,8,0:0:0:0:
256,192,81746,1,8,0:0:0:0:
256,192,81830,1,8,0:0:0:0:
256,192,81998,1,0,0:0:0:0:
256,192,82167,1,8,0:0:0:0:
256,192,82335,1,0,0:0:0:0:
256,192,82673,1,8,0:0:0:0:
256,192,82841,1,8,0:0:0:0:
256,192,83010,1,0,0:0:0:0:
256,192,83178,1,8,0:0:0:0:
256,192,83262,1,0,0:0:0:0:
256,192,83347,1,8,0:0:0:0:
256,192,83515,1,0,0:0:0:0:
256,192,83684,1,8,0:0:0:0:
256,192,83768,1,8,0:0:0:0:
256,192,83852,1,0,0:0:0:0:
256,192,84021,1,12,0:0:0:0:
256,192,84358,1,8,0:0:0:0:
256,192,84526,1,0,0:0:0:0:
256,192,84695,1,8,0:0:0:0:
256,192,84779,1,8,0:0:0:0:
256,192,84864,1,0,0:0:0:0:
256,192,85032,1,8,0:0:0:0:
256,192,85201,1,0,0:0:0:0:
256,192,85285,1,0,0:0:0:0:
256,192,85369,1,8,0:0:0:0:
256,192,85454,1,8,0:0:0:0:
256,192,85538,1,0,0:0:0:0:
256,192,85706,1,12,0:0:0:0:
256,192,86043,1,0,0:0:0:0:
256,192,86212,1,8,0:0:0:0:
256,192,86381,1,0,0:0:0:0:
256,192,86465,1,0,0:0:0:0:
256,192,86549,1,0,0:0:0:0:
256,192,86718,1,8,0:0:0:0:
256,192,86886,1,8,0:0:0:0:
256,192,87055,1,0,0:0:0:0:
256,192,87392,1,8,0:0:0:0:
256,192,87560,12,0,89077,0:0:0:0:
