osu file format v14

[General]
AudioFilename: masshiro.mp3
AudioLeadIn: 0
PreviewTime: 60426
Countdown: 0
SampleSet: Soft
StackLeniency: 0.7
Mode: 2
LetterboxInBreaks: 0
WidescreenStoryboard: 1

[Editor]
DistanceSpacing: 1
BeatDivisor: 4
GridSize: 16
TimelineZoom: 1

[Metadata]
Title:Masshiro (TV Size)
TitleUnicode:真っ白 (TV Size)
Artist:Morohoshi Sumire
ArtistUnicode:諸星すみれ
Creator:Greaper
Version:Salad
Source:本好きの下剋上 ~司書になるためには手段を選んでいられません~
Tags:Ascendance of a Bookworm Honzuki no Gekokujou Shisho ni Naru Tame wa Shudan wo Erandeiraremasen smile Opening OP 岩里 祐穂 Yuho Iwasato 白戸 佑輔 Yusuke Shirato
BeatmapID:2202698
BeatmapSetID:1047988

[Difficulty]
HPDrainRate:4
CircleSize:2.8
OverallDifficulty:6.9
ApproachRate:6.9
SliderMultiplier:1.5
SliderTickRate:1

[Events]
//Background and Video events
0,0,"background.jpg",0,0
//Break Periods
//Storyboard Layer 0 (Background)
//Storyboard Layer 1 (Fail)
//Storyboard Layer 2 (Pass)
//Storyboard Layer 3 (Foreground)
//Storyboard Layer 4 (Overlay)
//Storyboard Sound Samples

[TimingPoints]
7169,337.078651685393,5,2,11,45,1,0
10540,-100,5,2,11,50,0,0
17281,-100,5,2,11,55,0,0
20652,337.078651685393,6,2,11,50,1,0
22674,-100,6,2,11,60,0,0
23348,-100,6,2,11,55,0,0
24696,337.078651685393,5,2,11,55,1,0
26381,-100,5,2,11,60,0,0
28066,-100,5,2,11,50,0,0
29752,-100,5,2,11,60,0,0
33122,-100,5,2,11,50,0,0
34808,-100,5,2,11,55,0,0
38179,337.078651685393,6,2,11,60,1,0
42223,-100,6,2,11,55,0,0
50313,-100,6,2,11,60,0,0
59752,-100,6,2,11,50,0,0
60426,337.078651685393,5,2,11,75,1,1
87392,-100,5,2,11,50,0,0
87729,-100,5,2,11,40,0,0
88066,-100,5,2,11,30,0,0
88403,-100,5,2,11,20,0,0
88740,-100,5,2,11,15,0,0
89077,-100,5,2,11,10,0,0
89414,-100,5,2,11,5,0,0

[Colours]
Combo1 : 215,100,100
Combo2 : 249,196,85
Combo3 : 35,116,214
Combo4 : 154,207,157

[HitObjects]
256,192,7168,12,0,10118,0:0:0:0:
197,128,10539,6,0,P|29:259|32:287,2,225,4|0|2,0:0|0:0|0:0,0:0:0:0:
367,103,11888,1,0,0:0:0:0:
92,135,12225,6,0,L|200:253,2,150,2|0|0,0:0|0:0|0:0,0:0:0:0:
227,199,13236,2,0,L|371:260,1,150,2|0,0:0|0:0,0:0:0:0:
95,314,13910,6,0,L|81:137,1,150,2|0,0:0|0:0,0:0:0:0:
162,154,14416,2,0,P|240:139|155:47,1,225,2|0,0:0|0:0,0:0:0:0:
49,46,15258,1,0,0:0:0:0:
324,54,15595,6,0,P|416:78|456:119,1,150,2|0,0:0|0:0,0:0:0:0:
470,186,16101,1,0,0:0:0:0:
403,220,16270,1,0,0:0:0:0:
241,173,16607,2,0,L|99:95,1,150,2|0,0:0|0:0,0:0:0:0:
382,253,17281,6,0,P|435:197|381:144,1,150,2|0,0:0|0:0,0:0:0:0:
240,192,17955,2,0,L|228:87,1,75,0|0,0:0|0:0,0:0:0:0:
309,105,18292,2,0,P|400:165|403:205,1,150,2|0,0:0|0:0,0:0:0:0:
132,292,18966,6,0,L|119:122,1,150,2|0,0:0|0:0,0:0:0:0:
265,124,19640,2,0,L|378:113,1,75,0|0,0:0|0:0,0:0:0:0:
417,111,19977,2,0,P|442:205|402:206,1,150,2|0,0:0|0:0,0:0:0:0:
159,44,20652,5,2,0:0:0:0:
281,86,20989,2,0,L|276:170,1,75,0|0,0:0|0:0,0:0:0:0:
203,163,21326,1,0,0:0:0:0:
353,160,21663,2,0,P|362:263|328:303,1,150,0|0,0:0|0:0,0:0:0:0:
182,306,22337,1,0,0:0:0:0:
452,309,22674,6,0,P|448:223|251:109,1,300,2|0,0:0|0:0,0:0:0:0:
116,98,23685,1,2,0:0:0:0:
250,31,24022,2,0,L|103:78,1,150,0|0,0:0|0:0,0:0:0:0:
395,73,24696,6,0,P|464:112|391:203,1,225,4|8,0:0|0:3,0:0:0:0:
245,201,25538,2,0,L|236:115,1,75,8|8,0:3|0:0,0:0:0:0:
392,88,26044,1,12,0:3:0:0:
119,82,26381,6,0,P|60:143|180:204,1,225,2|8,0:3|0:0,0:0:0:0:
295,193,27224,1,8,0:3:0:0:
216,204,27392,2,0,L|193:359,1,150,8|12,0:0|0:3,0:0:0:0:
467,340,28066,6,0,P|455:255|299:192,1,225,2|8,0:0|0:3,0:0:0:0:
267,185,28740,2,0,L|257:30,1,150,4|8,0:3|0:0,0:0:0:0:
415,38,29415,1,4,0:3:0:0:
128,50,29752,6,0,P|45:115|23:254,1,225,2|0,0:0|0:0,0:0:0:0:
85,247,30426,1,4,0:3:0:0:
153,252,30594,1,12,0:3:0:0:
326,262,30763,2,0,L|339:104,1,150,8|8,0:0|0:3,0:0:0:0:
69,146,31437,6,0,P|107:77|190:65,1,150,2|4,0:0|0:3,0:0:0:0:
241,92,31943,1,8,0:3:0:0:
226,168,32111,1,4,0:3:0:0:
155,193,32280,1,8,0:3:0:0:
335,325,32448,2,0,P|396:270|409:202,1,150,8|12,0:0|0:3,0:0:0:0:
137,172,33122,5,2,0:0:0:0:
282,158,33460,1,4,0:3:0:0:
342,113,33628,1,12,0:3:0:0:
327,42,33797,1,4,0:3:0:0:
259,30,33965,1,12,0:3:0:0:
158,38,34134,1,8,0:0:0:0:
97,80,34302,1,4,0:3:0:0:
165,105,34471,1,4,0:3:0:0:
437,60,34808,6,0,P|460:131|466:208,1,150,10|4,0:3|0:3,0:0:0:0:
392,273,35313,1,8,0:3:0:0:
467,316,35482,1,4,0:3:0:0:
193,302,35819,2,0,P|105:236|106:185,1,150,10|12,0:0|0:3,0:0:0:0:
391,60,36493,6,0,P|471:126|263:234,1,450,2|4,0:0|0:3,0:0:0:0:
202,203,37673,1,4,0:3:0:0:
278,171,37842,1,4,0:0:0:0:
20,115,38179,5,4,0:0:0:0:
160,152,38516,2,0,L|28:273,1,150,4|4,0:3|0:3,0:0:0:0:
206,281,39190,1,2,0:0:0:0:
361,280,39527,1,6,0:3:0:0:
428,238,39695,1,0,0:0:0:0:
361,206,39864,1,6,0:3:0:0:
81,226,40201,6,0,L|67:56,1,150,6|14,0:3|0:3,0:0:0:0:
230,77,40875,2,0,L|240:0,1,75,8|8,0:0|0:3,0:0:0:0:
74,20,41212,1,10,0:0:0:0:
271,115,41718,2,0,L|112:115,1,150,8|8,0:0|0:3,0:0:0:0:
309,170,42223,6,0,P|420:213|312:321,1,300,4|12,0:0|0:3,0:0:0:0:
66,276,43235,2,0,L|50:116,1,150,8|4,0:0|0:3,0:0:0:0:
128,119,43740,1,0,0:0:0:0:
282,117,44077,1,0,0:0:0:0:
93,85,44246,6,0,P|95:171|214:234,1,225,2|2,0:0|0:0,0:0:0:0:
367,196,45089,2,0,L|373:294,1,75,8|8,0:3|0:0,0:0:0:0:
235,279,45594,1,8,0:3:0:0:
165,244,45763,1,8,0:0:0:0:
238,225,45931,1,8,0:3:0:0:
311,212,46100,1,8,0:3:0:0:
125,202,46268,6,0,P|51:157|144:78,1,225,4|8,0:0|0:0,0:0:0:0:
197,68,46943,1,4,0:3:0:0:
357,104,47280,2,0,L|178:123,1,150,8|12,0:0|0:3,0:0:0:0:
390,232,48122,1,2,0:0:0:0:
209,243,48291,6,0,P|132:205|219:122,1,225,10|2,0:3|0:0,0:0:0:0:
332,111,49134,1,8,0:3:0:0:
138,107,49302,1,10,0:0:0:0:
64,136,49471,1,0,0:0:0:0:
48,205,49639,1,8,0:3:0:0:
116,252,49808,1,8,0:0:0:0:
475,279,50313,6,0,P|325:251|246:50,1,375,4|0,0:0|0:0,0:0:0:0:
427,56,51325,2,0,P|460:155|328:319,1,300,4|0,0:0|0:0,0:0:0:0:
88,78,52336,6,0,P|23:125|168:252,1,300,4|0,0:0|0:0,0:0:0:0:
398,253,53347,1,4,0:0:0:0:
259,241,53684,1,8,0:0:0:0:
192,195,53853,1,8,0:3:0:0:
207,122,54021,1,8,0:3:0:0:
270,99,54190,1,8,0:3:0:0:
436,86,54358,5,10,0:0:0:0:
299,144,54695,2,0,L|438:220,1,150,0|0,0:0|0:0,0:0:0:0:
152,259,55370,2,0,P|146:191|222:163,1,150,8|8,0:3|0:3,0:0:0:0:
348,137,56044,1,8,0:3:0:0:
72,58,56381,5,10,0:0:0:0:
219,73,56718,2,0,P|304:105|312:185,1,150,8|8,0:3|0:3,0:0:0:0:
47,168,57392,2,0,L|211:227,2,150,10|10|8,0:0|0:3|0:3,0:0:0:0:
326,234,58403,6,0,P|402:181|309:118,1,225,4|10,0:0|0:3,0:0:0:0:
247,114,59077,1,8,0:3:0:0:
170,99,59246,1,8,0:3:0:0:
260,52,59414,1,6,0:0:0:0:
410,145,59752,1,2,0:0:0:0:
477,180,59920,1,2,0:0:0:0:
454,241,60089,1,2,0:0:0:0:
383,244,60257,1,2,0:0:0:0:
199,247,60426,6,0,P|131:211|135:118,1,150,4|8,0:0|0:3,0:0:0:0:
200,112,60931,2,0,L|363:80,1,150,2|2,0:0|0:0,0:0:0:0:
180,50,61437,1,8,0:0:0:0:
52,49,61774,1,8,0:3:0:0:
329,204,62111,6,0,P|421:142|376:51,1,225,10|0,0:3|0:0,0:0:0:0:
308,45,62785,1,10,0:3:0:0:
242,49,62954,1,0,0:0:0:0:
407,192,63122,2,0,P|433:282|411:358,1,150,8|2,0:0|0:0,0:0:0:0:
147,298,63796,5,2,0:0:0:0:
283,271,64133,2,0,P|341:200|340:117,1,150,8|8,0:3|0:3,0:0:0:0:
75,150,64808,1,8,0:0:0:0:
230,129,65145,2,0,L|314:117,1,75,8|0,0:3|0:0,0:0:0:0:
134,209,65482,6,0,P|91:279|226:330,1,225,10|0,0:3|0:0,0:0:0:0:
265,340,66156,1,10,0:3:0:0:
325,300,66324,1,0,0:0:0:0:
259,258,66493,1,10,0:0:0:0:
108,251,66830,1,10,0:3:0:0:
38,237,66999,1,0,0:0:0:0:
231,105,67167,6,0,P|266:195|153:246,1,225,4|0,0:0|0:0,0:0:0:0:
323,274,68010,1,0,0:0:0:0:
489,282,68178,2,0,P|458:196|390:202,1,150,8|8,0:0|0:3,0:0:0:0:
335,203,68684,1,0,0:0:0:0:
143,218,68852,6,0,P|55:149|117:88,1,225,10|0,0:3|0:0,0:0:0:0:
263,73,69695,1,0,0:0:0:0:
97,98,69864,2,0,P|56:166|103:175,1,150,8|2,0:0|0:0,0:0:0:0:
367,233,70538,5,2,0:0:0:0:
219,222,70875,2,0,P|122:165|114:97,1,150,8|8,0:3|0:3,0:0:0:0:
387,67,71549,1,8,0:0:0:0:
236,64,71886,2,0,L|227:154,1,75,8|0,0:3|0:0,0:0:0:0:
399,113,72223,5,2,0:0:0:0:
288,115,72560,2,0,P|272:198|315:255,1,150,8|8,0:3|0:3,0:0:0:0:
461,277,73234,2,0,L|312:300,1,150,10|10,0:0|0:3,0:0:0:0:
26,235,73909,6,0,P|51:142|201:76,1,225,4|0,0:0|0:0,0:0:0:0:
310,68,74751,1,0,0:0:0:0:
224,62,74920,2,0,P|135:86|110:166,1,150,8|10,0:0|0:3,0:0:0:0:
187,156,75425,1,0,0:0:0:0:
363,165,75594,6,0,P|385:236|306:267,1,150,2|8,0:0|0:3,0:0:0:0:
254,281,76100,2,0,L|411:290,1,150,2|0,0:0|0:0,0:0:0:0:
238,303,76605,1,10,0:0:0:0:
384,237,76942,1,10,0:3:0:0:
392,168,77111,1,0,0:0:0:0:
226,139,77279,5,2,0:0:0:0:
89,165,77617,2,0,P|61:103|84:17,1,150,8|8,0:3|0:3,0:0:0:0:
215,45,78291,2,0,L|371:52,1,150,8|8,0:0|0:3,0:0:0:0:
77,302,78965,6,0,P|26:211|162:90,1,300,2|8,0:0|0:3,0:0:0:0:
300,148,79976,2,0,L|127:139,1,150,10|8,0:0|0:3,0:0:0:0:
428,44,80650,6,0,P|480:148|474:192,1,150,2|8,0:0|0:3,0:0:0:0:
461,185,81156,1,0,0:0:0:0:
384,195,81324,1,8,0:3:0:0:
98,163,81661,1,10,0:0:0:0:
38,188,81830,1,8,0:3:0:0:
38,256,81999,1,8,0:3:0:0:
108,266,82167,1,8,0:3:0:0:
275,261,82336,6,0,P|283:171|94:88,1,300,10|8,0:3|0:3,0:0:0:0:
397,63,83347,1,8,0:0:0:0:
468,91,83515,1,8,0:3:0:0:
401,125,83684,1,8,0:3:0:0:
332,146,83852,1,0,0:0:0:0:
161,152,84021,6,0,L|142:319,1,150,4|8,0:0|0:3,0:0:0:0:
287,286,84695,2,0,L|374:293,1,75,8|0,0:3|0:0,0:0:0:0:
193,180,85032,2,0,P|115:129|116:74,1,150,10|8,0:0|0:3,0:0:0:0:
179,58,85538,1,0,0:0:0:0:
367,70,85706,5,4,0:0:0:0:
236,113,86043,1,8,0:3:0:0:
171,153,86212,1,8,0:0:0:0:
249,178,86381,1,8,0:3:0:0:
324,188,86549,1,8,0:0:0:0:
150,260,86718,1,10,0:3:0:0:
85,224,86886,1,8,0:3:0:0:
147,171,87055,1,8,0:3:0:0:
327,116,87392,5,2,0:0:0:0:
256,192,87729,12,0,89414,0:0:0:0:
