osu file format v14

[General]
AudioFilename: Morohoshi Sumire - Masshiro.mp3
AudioLeadIn: 0
PreviewTime: 60318
Countdown: 0
SampleSet: Soft
StackLeniency: 0.7
Mode: 0
LetterboxInBreaks: 0
WidescreenStoryboard: 1

[Editor]
DistanceSpacing: 1
BeatDivisor: 4
GridSize: 32
TimelineZoom: 2

[Metadata]
Title:Masshiro (TV Size)
TitleUnicode:真っ白 (TV Size)
Artist:Morohoshi Sumire
ArtistUnicode:諸星すみれ
Creator:-Keqing
Version:Normal
Source:本好きの下剋上 ~司書になるためには手段を選んでいられません~
Tags:op opening japanese anime jpop j-pop pop Honzuki no Gekokujou Shisho ni Naru Tame ni wa Shudan o Erande Iraremasen Ascendance of a Bookworm smile pure white fzl_17 frozz
BeatmapID:2567659
BeatmapSetID:1235169

[Difficulty]
HPDrainRate:4
CircleSize:3.2
OverallDifficulty:4.5
ApproachRate:5
SliderMultiplier:1
SliderTickRate:1

[Events]
//Background and Video events
0,0,"Morohoshi Sumire - Masshiro.jpg",0,0
//Break Periods
//Storyboard Layer 0 (Background)
//Storyboard Layer 1 (Fail)
//Storyboard Layer 2 (Pass)
//Storyboard Layer 3 (Foreground)
//Storyboard Layer 4 (Overlay)
//Storyboard Sound Samples

[TimingPoints]
376,842.696629213483,4,2,1,20,1,0
376,-100,4,2,1,20,0,0
3746,-100,4,2,1,20,0,0
7118,-100,4,2,1,30,0,0
10488,337.078651685393,5,2,1,50,1,0
10488,-100,5,2,1,50,0,0
20600,337.078651685393,3,2,1,50,1,0
20600,-100,3,2,1,50,0,0
22622,-100,3,2,1,60,0,0
24644,337.078651685393,5,2,1,60,1,0
24644,-100,5,2,1,60,0,0
38127,337.078651685393,3,2,1,60,1,0
42171,-100,3,2,1,60,0,0
50261,-100,3,2,1,50,0,0
54643,-100,3,2,1,40,0,0
55318,-100,3,2,1,50,0,0
56329,-100,3,2,1,65,0,0
57340,-100,3,2,1,70,0,0
58351,-100,3,2,1,70,0,0
59700,-100,3,2,1,50,0,0
60374,337.078651685393,5,2,1,85,1,1
60374,-100,5,2,1,85,0,1
87340,337.078651685393,3,2,1,40,1,0
87340,-166.666666666667,3,2,1,40,0,0
87424,-166.666666666667,3,2,1,10,0,0
89025,-166.666666666667,3,2,1,5,0,0

[Colours]
Combo1 : 151,219,121
Combo2 : 163,154,186
Combo3 : 227,167,113
Combo4 : 236,104,107

[HitObjects]
493,291,376,6,0,P|467:329|466:387,1,100,2|2,0:0|0:0,0:0:0:0:
294,384,2061,2,0,P|292:334|265:293,1,100,2|2,0:0|0:0,0:0:0:0:
110,227,3746,6,0,P|83:272|86:326,1,100,2|2,0:0|0:0,0:0:0:0:
240,252,5432,2,0,P|239:202|213:160,1,100,2|2,0:0|0:0,0:0:0:0:
69,70,7117,6,0,P|47:104|39:180,2,100,2|2|2,0:0|0:0|0:0,0:0:0:0:
236,42,9645,1,2,0:0:0:0:
417,44,10488,6,0,P|441:89|352:188,1,200,6|0,3:2|0:0,0:0:0:0:
257,197,11499,1,0,3:0:0:0:
251,296,11836,1,2,0:0:0:0:
323,365,12173,2,0,P|366:353|442:368,2,100,2|0|0,0:0|0:0|0:0,0:0:0:0:
251,296,13184,2,0,P|208:308|132:293,1,100,0|0,3:0|0:0,0:0:0:0:
79,369,13858,6,0,P|59:309|74:264,1,100,2|0,3:2|0:0,0:0:0:0:
141,207,14532,2,0,P|161:147|146:102,1,100,0|0,3:0|0:0,0:0:0:0:
57,81,15207,1,2,0:0:0:0:
119,3,15544,6,0,P|168:5|208:34,1,100,2|0,0:0|0:0,0:0:0:0:
220,131,16218,1,0,3:0:0:0:
317,110,16555,2,0,L|426:100,1,100,0|0,3:0|0:0,0:0:0:0:
469,15,17229,6,0,P|511:50|500:194,1,200,2|0,3:2|0:0,0:0:0:0:
467,211,18072,1,2,0:0:0:0:
467,211,18240,2,0,L|360:185,1,100,2|0,0:0|0:0,0:0:0:0:
303,262,18914,6,0,P|278:316|140:329,1,200,2|0,0:0|0:0,0:0:0:0:
116,300,19757,1,2,0:0:0:0:
116,300,19926,2,0,L|142:193,1,100,2|0,0:0|0:0,0:0:0:0:
79,122,20600,6,0,B|176:152|163:59|270:88,1,200,2|2,0:0|0:0,0:0:0:0:
325,167,21611,2,0,P|358:136|360:67,2,100,2|2|2,0:0|0:0|0:0,0:0:0:0:
235,211,22622,6,0,P|292:200|372:313,1,200,2|2,1:2|0:0,0:0:0:0:
302,368,23633,2,0,L|197:356,2,100,2|2|2,0:0|1:2|1:2,0:0:0:0:
373,298,24644,6,0,P|405:255|383:149,1,150,6|0,1:2|1:2,0:0:0:0:
336,89,25486,1,0,1:2:0:0:
336,89,25655,2,0,L|227:77,1,100,8|2,0:0|1:2,0:0:0:0:
163,9,26329,2,0,P|132:60|156:146,1,150,2|8,1:2|0:0,0:0:0:0:
223,222,27172,1,0,1:2:0:0:
223,222,27340,1,8,0:0:0:0:
170,306,27677,1,0,1:2:0:0:
71,324,28014,6,0,P|25:288|31:193,1,150,2|0,1:2|1:2,0:0:0:0:
38,52,29026,2,0,L|108:63,1,50,8|0,0:0|0:0,0:0:0:0:
135,74,29363,1,2,1:2:0:0:
233,54,29700,2,0,P|274:22|372:50,1,150,2|8,1:2|0:0,0:0:0:0:
465,68,30542,1,0,1:2:0:0:
465,68,30711,2,0,B|484:99|484:99|471:169,1,100,8|0,0:0|1:2,0:0:0:0:
497,258,31385,6,0,P|455:213|368:231,1,150,2|2,1:2|0:0,0:0:0:0:
361,274,32059,2,0,L|368:346,1,50,2|2,0:0|0:0,0:0:0:0:
326,354,32396,2,0,P|265:365|219:341,1,100,10|0,0:0|1:2,0:0:0:0:
175,268,33070,2,0,P|136:215|165:129,1,150,2|0,1:2|1:2,0:0:0:0:
202,120,33745,2,0,L|261:137,1,50,0|0,1:2|0:0,0:0:0:0:
288,101,34082,2,0,L|275:36,2,50,8|0|2,0:0|0:0|1:2,0:0:0:0:
384,74,34756,6,0,L|405:187,1,100,2|2,1:2|0:0,0:0:0:0:
411,271,35430,2,0,L|356:261,1,50,2|0,0:0|0:0,0:0:0:0:
316,241,35767,2,0,P|268:227|220:258,1,100,10|0,0:0|1:2,0:0:0:0:
184,340,36441,2,0,P|128:375|47:349,1,150,2|0,1:2|1:2,0:0:0:0:
71,204,37452,2,0,L|134:215,1,50,10|0,0:0|0:0,0:0:0:0:
161,241,37790,1,2,1:2:0:0:
241,182,38127,6,0,P|260:119|240:76,2,100,6|0|0,1:2|1:2|1:2,0:0:0:0:
303,262,39138,2,0,P|350:251|396:270,1,100,8|2,0:0|1:2,0:0:0:0:
402,319,39643,2,0,L|395:380,1,50,2|2,0:0|1:2,0:0:0:0:
496,377,40149,2,0,L|507:277,1,100,2|2,1:2|1:2,0:0:0:0:
447,197,40823,2,0,L|452:147,1,50,10|2,0:0|1:2,0:0:0:0:
484,108,41160,2,0,P|446:56|360:54,1,150,10|8,0:0|0:0,0:0:0:0:
300,129,42003,1,4,0:3:0:0:
300,129,42171,6,0,B|196:98|224:207|116:179,1,200,6|2,1:2|1:2,0:0:0:0:
41,117,43183,2,0,P|21:167|36:230,1,100,10|2,0:0|0:0,0:0:0:0:
62,246,43688,2,0,P|82:296|67:359,1,100,2|2,0:0|0:0,0:0:0:0:
40,376,44194,2,0,L|194:355,1,150,2|2,1:2|0:0,0:0:0:0:
291,341,45037,1,0,1:2:0:0:
291,341,45205,2,0,P|279:279|293:236,1,100,8|0,0:0|1:2,0:0:0:0:
328,214,45711,2,0,L|388:227,1,50,8|8,0:0|0:3,0:0:0:0:
464,177,46216,6,0,P|452:110|320:83,1,200,6|2,1:2|1:2,0:0:0:0:
255,130,47228,2,0,L|270:236,2,100,10|2|0,0:0|1:2|1:2,0:0:0:0:
180,63,48239,2,0,P|146:109|155:163,1,100,2|2,1:2|0:0,0:0:0:0:
172,193,48744,2,0,P|206:239|197:293,1,100,2|0,1:2|1:2,0:0:0:0:
165,312,49250,1,10,0:0:0:0:
67,335,49587,2,0,L|74:400,2,50,2|8|8,1:2|0:0|0:3,0:0:0:0:
8,254,50261,6,0,P|5:119|152:48,1,300,6|6,1:2|1:2,0:0:0:0:
428,117,52284,2,0,P|430:251|283:322,1,300,6|6,1:2|1:2,0:0:0:0:
216,268,53632,2,0,L|228:198,1,50,8|8,0:3|0:3,0:0:0:0:
221,168,53969,2,0,L|233:98,1,50,4|4,0:3|0:3,0:0:0:0:
228,68,54306,5,6,1:2:0:0:
317,24,54643,2,0,P|366:45|385:93,1,100,2|2,1:2|1:2,0:0:0:0:
369,184,55318,2,0,L|469:173,2,100,10|8|10,0:0|0:0|0:0,0:0:0:0:
311,266,56329,6,0,L|211:255,2,100,10|8|8,0:0|0:0|0:0,0:0:0:0:
390,326,57340,2,0,P|354:358|282:355,1,100,8|8,0:0|0:0,0:0:0:0:
226,300,58014,1,8,0:0:0:0:
129,327,58351,2,0,P|105:280|123:216,1,100,6|2,1:2|1:2,0:0:0:0:
151,204,58857,2,0,L|207:218,2,50,10|10|2,0:0|0:0|1:2,0:0:0:0:
137,156,59362,1,2,1:2:0:0:
137,156,60374,6,0,P|189:129|237:139,1,100,6|0,1:2|1:2,0:0:0:0:
270,160,60879,2,0,P|322:187|370:177,1,100,2|2,0:0|0:0,0:0:0:0:
402,152,61385,2,0,L|392:92,1,50,10|0,0:0|0:0,0:0:0:0:
385,53,61722,1,0,1:2:0:0:
471,3,62059,6,0,P|494:58|488:104,1,100,2|0,1:2|1:2,0:0:0:0:
499,146,62565,2,0,P|476:201|482:247,1,100,2|2,0:0|0:0,0:0:0:0:
505,283,63070,1,10,0:0:0:0:
405,284,63407,2,0,L|341:270,1,50,0|0,3:0|0:0,0:0:0:0:
307,262,63744,5,0,1:2:0:0:
238,334,64081,2,0,L|177:341,1,50,2|0,1:2|0:0,0:0:0:0:
159,299,64418,2,0,L|166:238,1,50,2|0,1:2|0:0,0:0:0:0:
199,212,64756,2,0,P|217:168|206:111,1,100,10|2,0:0|1:2,0:0:0:0:
178,86,65261,1,2,0:0:0:0:
178,86,65430,6,0,P|98:71|49:112,1,150,2|2,1:2|0:0,0:0:0:0:
86,210,66272,1,2,0:0:0:0:
86,210,66441,2,0,P|102:270|94:320,1,100,10|2,0:0|1:2,0:0:0:0:
72,351,66947,1,2,0:0:0:0:
72,351,67115,6,0,B|150:369|124:286|219:315,1,150,6|2,1:2|0:0,0:0:0:0:
299,364,67958,1,2,3:0:0:0:
299,364,68126,2,0,P|318:320|296:255,1,100,10|0,0:0|1:2,0:0:0:0:
274,240,68632,1,2,0:0:0:0:
274,240,68800,6,0,P|249:195|288:93,1,150,2|2,1:2|0:0,0:0:0:0:
376,90,69643,1,2,0:0:0:0:
376,90,69812,2,0,L|486:104,2,100,10|2|2,0:0|1:2|1:2,0:0:0:0:
308,17,70823,6,0,L|254:29,1,50,2|0,1:2|0:0,0:0:0:0:
211,44,71160,2,0,L|157:56,1,50,2|0,1:2|0:0,0:0:0:0:
113,42,71497,2,0,P|86:84|95:149,1,100,10|2,0:0|1:2,0:0:0:0:
131,166,72003,1,2,0:0:0:0:
131,166,72171,6,0,L|120:270,1,100,2|2,1:2|1:2,0:0:0:0:
83,358,72845,1,2,1:2:0:0:
182,346,73182,2,0,L|246:336,1,50,10|2,1:2|1:2,0:0:0:0:
280,347,73520,2,0,L|344:337,1,50,10|2,1:2|1:2,0:0:0:0:
377,352,73857,6,0,P|403:314|395:246,1,100,6|0,1:2|1:2,0:0:0:0:
375,219,74362,2,0,P|349:181|357:113,1,100,2|2,0:0|0:0,0:0:0:0:
382,90,74868,1,10,0:0:0:0:
311,19,75205,2,0,L|252:9,1,50,0|2,1:2|0:0,0:0:0:0:
218,36,75542,6,0,P|193:69|198:132,1,100,2|0,1:2|1:2,0:0:0:0:
204,174,76048,2,0,P|229:207|224:270,1,100,2|2,0:0|0:0,0:0:0:0:
192,299,76553,1,10,0:0:0:0:
104,346,76890,2,0,L|45:362,1,50,0|0,1:2|0:0,0:0:0:0:
10,339,77227,5,2,1:2:0:0:
5,238,77565,2,0,L|1:184,1,50,2|0,1:2|0:0,0:0:0:0:
22,142,77902,2,0,L|18:88,1,50,2|0,1:2|0:0,0:0:0:0:
41,47,78239,2,0,P|75:24|134:21,1,100,10|2,0:0|1:2,0:0:0:0:
200,94,78913,6,0,P|234:117|293:120,1,100,2|0,1:2|1:2,0:0:0:0:
328,87,79418,2,0,L|325:34,2,50,0|0|0,0:0|1:2|0:0,0:0:0:0:
370,114,79924,1,8,0:0:0:0:
455,61,80261,1,0,1:2:0:0:
493,153,80598,6,0,P|516:208|505:263,2,100,2|0|0,1:2|1:2|1:2,0:0:0:0:
409,208,81609,2,0,L|342:215,1,50,10|8,0:0|0:0,0:0:0:0:
316,241,81947,2,0,L|309:308,1,50,0|10,1:2|0:0,0:0:0:0:
334,334,82284,6,0,P|369:355|438:348,2,100,2|0|0,1:2|1:2|1:2,0:0:0:0:
234,334,83295,2,0,L|227:284,1,50,10|8,0:0|0:3,0:0:0:0:
218,235,83632,1,4,0:3:0:0:
264,146,83969,6,0,P|211:131|156:150,1,100,6|2,1:2|1:2,0:0:0:0:
135,179,84475,1,2,0:0:0:0:
135,179,84643,2,0,L|142:252,1,50,2|2,1:2|0:0,0:0:0:0:
130,278,84980,2,0,P|77:293|22:274,1,100,2|2,1:2|1:2,0:0:0:0:
0,185,85654,6,0,P|-11:126|9:78,1,100,6|0,1:2|1:2,0:0:0:0:
47,66,86160,1,8,0:0:0:0:
47,66,86329,2,0,L|97:75,1,50,10|8,0:3|0:0,0:0:0:0:
145,68,86666,2,0,L|154:18,2,50,10|8|6,0:0|0:3|0:3,0:0:0:0:
208,147,87340,6,0,B|385:103|313:265|480:210,1,299.999990844727,2|0,0:0|0:0,0:0:0:0:
