osu file format v14

[General]
AudioFilename: Morohoshi Sumire - Masshiro.mp3
AudioLeadIn: 0
PreviewTime: 60318
Countdown: 0
SampleSet: Soft
StackLeniency: 0.7
Mode: 0
LetterboxInBreaks: 0
WidescreenStoryboard: 1

[Editor]
DistanceSpacing: 1.7
BeatDivisor: 6
GridSize: 32
TimelineZoom: 2

[Metadata]
Title:Masshiro (TV Size)
TitleUnicode:真っ白 (TV Size)
Artist:Morohoshi Sumire
ArtistUnicode:諸星すみれ
Creator:-Keqing
Version:Insane
Source:本好きの下剋上 ~司書になるためには手段を選んでいられません~
Tags:op opening japanese anime jpop j-pop pop Honzuki no Gekokujou Shisho ni Naru Tame ni wa Shudan o Erande Iraremasen Ascendance of a Bookworm smile pure white fzl_17 frozz
BeatmapID:2567658
BeatmapSetID:1235169

[Difficulty]
HPDrainRate:6
CircleSize:3.4
OverallDifficulty:7
ApproachRate:9
SliderMultiplier:1.6
SliderTickRate:1

[Events]
//Background and Video events
0,0,"Morohoshi Sumire - Masshiro.jpg",0,0
//Break Periods
//Storyboard Layer 0 (Background)
//Storyboard Layer 1 (Fail)
//Storyboard Layer 2 (Pass)
//Storyboard Layer 3 (Foreground)
//Storyboard Layer 4 (Overlay)
//Storyboard Sound Samples

[TimingPoints]
376,842.696629213483,4,2,1,20,1,0
376,-250,4,2,1,20,0,0
3746,-125,4,2,1,20,0,0
7117,-83.3333333333333,4,2,1,30,0,0
10488,337.078651685393,5,2,1,50,1,0
10488,-166.666666666667,5,2,1,50,0,0
20600,337.078651685393,3,2,1,50,1,0
20600,-166.666666666667,3,2,1,50,0,0
22622,-125,3,2,1,60,0,0
24223,-125,3,2,1,5,0,0
24307,-125,3,2,1,60,0,0
24560,-125,3,2,1,5,0,0
24644,337.078651685393,5,2,1,60,1,0
24644,-111.111111111111,5,2,1,60,0,0
38127,337.078651685393,3,2,1,60,1,0
42171,-125,3,2,1,60,0,0
50261,-166.666666666667,3,2,1,50,0,0
54643,-200,3,2,1,40,0,0
54896,-200,3,2,1,5,0,0
54980,-200,3,2,1,40,0,0
55233,-200,3,2,1,5,0,0
55318,-200,3,2,1,50,0,0
55570,-200,3,2,1,5,0,0
55655,-200,3,2,1,50,0,0
55907,-200,3,2,1,5,0,0
55992,-200,3,2,1,50,0,0
56244,-200,3,2,1,5,0,0
56329,-125,3,2,1,65,0,0
56582,-125,3,2,1,5,0,0
56666,-125,3,2,1,65,0,0
56919,-125,3,2,1,5,0,0
57003,-125,3,2,1,65,0,0
57256,-125,3,2,1,5,0,0
57340,-125,3,2,1,70,0,0
57593,-125,3,2,1,5,0,0
57677,-125,3,2,1,70,0,0
57930,-125,3,2,1,5,0,0
58014,-125,3,2,1,70,0,0
58267,-125,3,2,1,5,0,0
58351,-100,3,2,1,70,0,0
59700,-125,3,2,1,50,0,0
60374,337.078651685393,5,2,1,85,1,1
63997,-100,5,2,1,5,0,1
64081,-100,5,2,1,85,0,1
70739,-100,5,2,1,5,0,1
70823,-100,5,2,1,85,0,1
77480,-100,5,2,1,5,0,1
77565,-100,5,2,1,85,0,1
87255,-100,5,2,1,5,0,1
87340,337.078651685393,3,2,1,40,1,0
87340,-200,3,2,1,40,0,0
87424,-200,3,2,1,10,0,0
89025,-200,3,2,1,5,0,0

[Colours]
Combo1 : 151,219,121
Combo2 : 163,154,186
Combo3 : 227,167,113
Combo4 : 236,104,107

[HitObjects]
69,297,376,6,0,P|92:334|93:363,3,64,2|2|2|2,2:0|2:0|2:0|2:0,2:0:0:0:
346,187,3746,6,0,P|312:228|303:310,3,128,2|2|2|2,2:0|2:0|2:0|2:0,2:0:0:0:
73,50,7117,6,0,P|117:109|127:260,3,192,2|2|2|2,2:0|2:0|2:0|2:0,2:0:0:0:
320,342,10488,6,0,P|354:292|344:239,1,95.9999999999998,6|0,1:2|2:0,2:0:0:0:
291,184,10993,2,0,P|257:134|267:81,1,95.9999999999998,0|0,3:0|2:0,2:0:0:0:
391,121,11499,2,0,L|344:110,1,47.9999999999999,0|0,3:0|2:0,2:0:0:0:
406,29,11836,2,0,L|453:40,1,47.9999999999999,2|0,2:0|2:0,2:0:0:0:
432,201,12173,6,0,P|394:155|394:104,2,95.9999999999998,2|0|0,2:0|2:0|2:0,2:0:0:0:
470,379,13184,2,0,P|508:333|508:282,1,95.9999999999998,0|0,3:0|2:0,2:0:0:0:
360,254,13858,6,0,L|247:265,1,95.9999999999998,2|0,3:2|2:0,2:0:0:0:
191,322,14364,1,0,3:0:0:0:
140,238,14532,2,0,P|161:227|184:222,1,47.9999999999999,0|0,3:0|2:0,2:0:0:0:
191,322,14870,1,0,3:0:0:0:
49,292,15207,2,0,P|36:271|34:248,1,47.9999985351563,2|0,0:0|0:0,0:0:0:0:
63,161,15544,6,0,P|87:120|73:59,2,95.9999999999998,2|0|0,2:0|2:0|2:0,2:0:0:0:
253,10,16555,2,0,P|229:51|243:112,1,95.9999999999998,0|0,3:0|2:0,2:0:0:0:
446,121,17229,6,0,B|369:106|398:176|317:163,1,144,2|0,3:2|2:0,2:0:0:0:
252,215,17903,2,0,P|235:177|236:161,1,47.9999999999999,2|0,2:0|2:0,2:0:0:0:
331,258,18240,2,0,P|298:291|232:291,1,95.9999999999998,2|0,2:0|2:0,2:0:0:0:
17,307,18914,6,0,P|88:296|123:354,1,144,2|0,2:0|2:0,2:0:0:0:
203,381,19589,2,0,L|212:328,1,47.9999999999999,2|0,2:0|2:0,2:0:0:0:
276,270,19926,2,0,P|304:252|369:258,1,95.9999999999998,2|0,2:0|2:0,2:0:0:0:
473,376,20600,6,0,B|450:347|459:301|459:301|492:282|504:229,1,144,2|0,2:0|2:0,2:0:0:0:
474,161,21274,2,0,L|415:166,1,47.9999999999999,2|0,2:0|2:0,2:0:0:0:
354,118,21611,2,0,P|329:85|340:20,2,95.9999999999998,2|2|2,2:0|2:0|2:0,2:0:0:0:
97,40,22622,6,0,P|148:28|233:144,1,192,2|0,1:2|2:0,2:0:0:0:
163,191,23296,2,0,P|146:158|150:122,1,64,2|0,2:0|2:0,2:0:0:0:
248,229,23633,2,0,P|247:260|231:288,1,64,2|0,2:0|2:0,2:0:0:0:
103,332,23970,6,0,P|146:366|199:357,1,96,6|0,2:3|2:0,2:0:0:0:
312,256,24307,2,0,P|265:256|230:288,1,96,6|0,2:3|2:0,2:0:0:0:
367,384,24644,6,0,B|347:301|426:333|395:234,1,144,6|0,1:2|2:0,2:0:0:0:
373,106,25149,2,0,P|353:141|351:184,1,72.0000000000001,0|0,1:2|2:0,2:0:0:0:
457,129,25486,1,0,1:2:0:0:
387,16,25655,2,0,P|346:16|308:35,1,72.0000000000001,8|0,2:0|2:0,2:0:0:0:
185,83,25992,2,0,P|218:96|253:95,1,72.0000000000001,2|0,1:2|2:0,2:0:0:0:
77,15,26329,6,0,P|121:68|109:137,1,144,2|0,1:2|2:0,2:0:0:0:
59,248,26835,2,0,P|34:199|38:175,1,72.0000000000001,8|0,2:0|1:2,2:0:0:0:
152,255,27172,1,0,1:2:0:0:
68,337,27340,2,0,P|13:334|-5:318,1,72.0000000000001,8|0,2:0|2:0,2:0:0:0:
152,255,27677,2,0,P|183:239|219:243,1,72.0000000000001,0|0,1:2|1:2,2:0:0:0:
270,312,27930,1,0,1:2:0:0:
270,312,28014,6,0,B|322:322|322:322|340:351|340:351|415:366,1,144,2|0,1:2|2:0,2:0:0:0:
428,206,28520,2,0,P|392:242|388:279,1,72.0000000000001,0|0,1:2|0:0,2:0:0:0:
512,260,28857,1,0,3:0:0:0:
472,126,29026,2,0,P|422:112|388:127,1,72.0000000000001,8|0,2:0|2:0,2:0:0:0:
272,38,29363,2,0,P|321:51|355:36,1,72.0000000000001,2|0,1:2|2:0,2:0:0:0:
509,7,29700,6,0,P|474:32|477:133,1,144,2|0,1:2|2:0,2:0:0:0:
415,272,30205,2,0,P|433:230|416:190,1,72.0000000000001,8|0,2:0|1:2,2:0:0:0:
325,162,30542,1,0,1:2:0:0:
325,162,30627,1,0,1:2:0:0:
325,162,30711,2,0,L|173:182,1,144,8|0,2:0|1:0,2:0:0:0:
40,189,31217,1,0,3:2:0:0:
40,189,31301,1,0,3:2:0:0:
40,189,31385,6,0,B|118:197|75:254|169:257,1,144,2|2,1:2|2:0,2:0:0:0:
257,260,31891,1,2,1:2:0:0:
205,342,32059,1,2,2:0:0:0:
159,257,32228,1,2,2:0:0:0:
303,345,32396,2,0,P|348:289|333:197,1,144,10|0,2:0|1:2,2:0:0:0:
213,135,32902,1,8,2:0:0:0:
213,135,32986,1,8,2:0:0:0:
213,135,33070,6,0,P|211:205|256:259,1,144,2|0,1:2|2:0,2:0:0:0:
277,57,33576,1,0,1:2:0:0:
277,57,33745,2,0,P|244:42|207:43,1,72.0000000000001,0|0,1:2|1:2,2:0:0:0:
350,110,34082,2,0,P|374:69|373:35,1,72.0000000000001,8|0,2:0|1:2,2:0:0:0:
462,212,34419,2,0,P|438:171|439:137,1,72.0000000000001,0|0,3:2|2:0,2:0:0:0:
493,315,34756,6,0,B|415:302|442:368|350:347,1,144,2|2,1:2|2:0,2:0:0:0:
286,253,35261,1,0,1:2:0:0:
355,194,35430,2,0,P|377:229|367:282,1,72.0000000000001,2|0,2:0|2:0,2:0:0:0:
259,349,35767,2,0,P|217:316|126:326,1,144,10|0,2:0|1:2,2:0:0:0:
0,371,36273,1,8,2:0:0:0:
0,371,36357,1,8,2:0:0:0:
0,371,36441,6,0,P|42:332|42:230,1,144,2|0,1:2|2:0,2:0:0:0:
6,169,36947,1,0,1:2:0:0:
131,94,37115,2,0,P|96:100|50:82,1,72.0000000000001,0|0,1:2|2:0,2:0:0:0:
205,36,37452,2,0,P|228:71|221:129,1,72.0000000000001,10|0,2:0|2:0,2:0:0:0:
280,234,37790,2,0,P|284:198|305:169,1,72.0000000000001,2|0,1:2|2:0,2:0:0:0:
511,203,38127,6,0,B|426:176|452:271|355:235,2,160,6|0|0,1:2|3:0|3:0,2:0:0:0:
334,363,39138,2,0,P|287:329|292:215,1,160,10|2,2:0|1:2,2:0:0:0:
352,142,39643,1,2,2:0:0:0:
279,233,39812,1,0,1:2:0:0:
188,160,39980,1,8,2:0:0:0:
188,160,40065,1,8,2:0:0:0:
188,160,40149,6,0,P|161:202|172:249,1,80,2|0,1:2|2:0,2:0:0:0:
211,384,40486,2,0,P|188:339|141:325,1,80,2|0,1:2|0:0,2:0:0:0:
0,277,40823,1,10,2:0:0:0:
61,352,40992,1,0,1:2:0:0:
61,352,41076,1,0,1:2:0:0:
61,352,41160,2,0,P|87:312|52:192,1,160,10|0,2:0|2:0,2:0:0:0:
0,101,41666,1,8,2:0:0:0:
0,101,41750,2,0,B|39:125|39:125|133:107,1,120,8|4,2:3|2:3,2:0:0:0:
266,11,42171,6,0,P|217:55|255:186,1,192,6|0,1:2|2:0,2:0:0:0:
386,154,42846,2,0,L|313:141,1,64,2|0,1:2|2:0,2:0:0:0:
447,84,43183,2,0,P|486:129|473:211,1,128,10|2,2:0|2:0,2:0:0:0:
415,273,43688,2,0,L|342:260,1,64,2|0,2:0|1:2,2:0:0:0:
280,335,44025,1,2,2:0:0:0:
186,271,44194,6,0,P|153:246|159:155,1,128,2|2,1:2|2:0,2:0:0:0:
248,91,44700,2,0,P|260:139|243:177,1,64,2|0,1:2|2:0,2:0:0:0:
151,85,45037,1,0,1:2:0:0:
254,0,45205,2,0,P|301:13|342:107,1,128,10|0,2:0|1:2,2:0:0:0:
361,197,45711,1,8,2:0:0:0:
471,146,45879,1,0,1:2:0:0:
460,302,46048,1,0,1:2:0:0:
460,302,46132,1,0,1:2:0:0:
460,302,46216,6,0,B|354:267|377:368|279:338,1,192,6|8,1:2|2:0,2:0:0:0:
210,200,46891,2,0,P|234:241|234:278,1,64,2|0,1:2|2:0,2:0:0:0:
182,355,47228,2,0,L|105:366,1,64,10|0,2:0|2:0,2:0:0:0:
6,250,47565,2,0,L|83:261,1,64,2|0,1:2|2:0,2:0:0:0:
136,207,47818,1,2,2:0:0:0:
136,207,47902,2,0,P|153:171|146:132,1,64,0|2,1:2|0:0,2:0:0:0:
67,3,48239,6,0,P|106:58|170:57,1,128,2|0,1:2|1:2,2:0:0:0:
308,39,48744,2,0,P|261:26|227:40,1,64,2|0,1:2|2:0,2:0:0:0:
245,184,49082,1,0,1:2:0:0:
245,184,49166,1,0,1:2:0:0:
245,184,49250,2,0,P|281:173|323:162,1,64,10|2,2:0|2:3,2:0:0:0:
421,211,49587,1,0,1:2:0:0:
512,131,49756,1,8,2:0:0:0:
421,211,49924,1,8,2:3:0:0:
499,313,50093,1,4,2:3:0:0:
499,313,50177,1,4,2:3:0:0:
499,313,50261,6,0,B|376:278|423:403|283:373,1,240,6|2,1:2|2:0,2:0:0:0:
184,366,51273,6,0,B|124:393|73:357|73:357|51:297|102:243,1,239.999992675781,6|0,1:2|2:0,2:0:0:0:
96,146,52284,6,0,B|123:128|139:96|139:96|239:128|204:235,1,240,6|0,1:2|2:0,2:0:0:0:
327,295,53295,6,0,L|270:289,1,47.9999999999999,6|0,1:2|2:0,2:0:0:0:
409,375,53632,1,8,2:3:0:0:
464,231,53801,1,4,2:3:0:0:
369,155,53969,1,4,2:3:0:0:
276,186,54138,1,0,1:2:0:0:
123,54,54306,5,6,1:2:0:0:
123,54,54643,2,0,L|113:117,1,60,2|0,1:2|2:0,2:0:0:0:
203,53,54980,2,0,L|193:116,1,60,2|0,1:2|2:0,2:0:0:0:
330,216,55318,6,0,L|318:157,1,60,10|0,2:0|2:0,2:0:0:0:
251,243,55655,2,0,L|239:184,1,60,8|0,2:0|2:0,2:0:0:0:
172,270,55992,2,0,L|160:211,1,60,10|0,2:0|2:0,2:0:0:0:
284,78,56329,6,0,P|336:78|380:124,1,96,10|0,2:0|2:0,2:0:0:0:
329,254,56666,2,0,P|303:208|320:147,1,96,8|0,2:0|2:0,2:0:0:0:
458,127,57003,2,0,P|432:172|370:187,1,96,8|0,2:0|2:0,2:0:0:0:
284,189,57340,6,0,P|295:220|277:307,1,96,8|0,2:0|2:0,2:0:0:0:
380,81,57677,2,0,P|347:75|281:16,1,96,8|0,2:0|2:0,2:0:0:0:
410,210,58014,2,0,P|431:184|515:157,1,96,8|0,2:0|2:0,2:0:0:0:
450,306,58351,6,0,B|394:301|394:301|363:326|363:326|299:323,1,160,6|2,1:2|1:2,2:0:0:0:
215,363,58857,1,10,2:0:0:0:
140,205,59025,1,10,2:0:0:0:
256,246,59194,1,2,1:2:0:0:
98,321,59362,1,2,1:2:0:0:
98,321,59700,6,0,L|93:252,2,42.6666666666667,2|2|2,2:0|2:0|2:0,2:0:0:0:
15,229,60037,1,2,2:0:0:0:
33,203,60121,1,2,2:0:0:0:
60,186,60205,1,2,2:0:0:0:
92,181,60289,1,2,2:0:0:0:
123,189,60374,6,0,B|208:218|186:134|282:167,1,160,6|0,1:2|1:2,2:0:0:0:
377,309,60879,2,0,L|280:288,1,80,2|0,2:0|1:2,2:0:0:0:
446,216,61216,1,0,3:0:0:0:
451,376,61385,2,0,P|478:323|461:275,1,80,10|0,2:0|2:0,2:0:0:0:
381,140,61722,2,0,P|354:193|371:241,1,80,0|0,1:2|0:2,2:0:0:0:
487,0,62059,6,0,P|424:47|346:31,1,160,10|0,2:0|1:2,2:0:0:0:
177,76,62565,2,0,P|219:61|263:74,1,80,2|0,2:0|1:2,2:0:0:0:
243,169,62902,1,2,3:2:0:0:
105,130,63070,2,0,P|84:81|96:34,1,80,10|0,2:0|2:0,2:0:0:0:
243,169,63407,2,0,P|243:208|224:243,1,80,0|8,1:2|2:0,2:0:0:0:
156,296,63660,1,8,2:0:0:0:
156,296,63744,6,0,P|203:283|277:347,1,120,0|0,1:2|2:0,2:0:0:0:
343,336,64081,2,0,L|263:345,1,80,2|0,1:2|2:0,2:0:0:0:
427,199,64418,2,0,L|347:208,1,80,2|0,1:2|0:2,2:0:0:0:
512,68,64756,2,0,P|458:83|370:-4,1,160,10|2,2:0|1:2,2:0:0:0:
251,192,65261,1,2,3:2:0:0:
191,85,65430,6,0,P|267:73|325:125,1,160,2|0,1:2|1:2,2:0:0:0:
267,267,65935,2,0,P|247:222|260:175,1,80,2|0,3:2|2:0,2:0:0:0:
382,263,66272,1,2,1:2:0:0:
254,356,66441,2,0,P|205:350|170:316,1,80,10|0,2:0|2:0,2:0:0:0:
137,163,66778,1,2,1:2:0:0:
32,355,66947,1,8,2:0:0:0:
32,355,67031,1,8,2:0:0:0:
32,355,67115,6,0,P|75:312|51:203,1,160,6|0,1:2|1:2,2:0:0:0:
172,28,67621,2,0,P|129:71|153:180,1,160,2|2,2:0|2:0,2:0:0:0:
310,177,68126,2,0,P|276:155|229:158,1,80,10|0,2:0|2:0,2:0:0:0:
349,283,68463,2,0,P|388:282|421:260,1,80,0|10,1:2|2:0,2:0:0:0:
458,6,68800,6,0,B|486:44|486:44|464:170,1,160,2|0,1:2|1:2,2:0:0:0:
445,329,69306,2,0,P|418:288|433:238,1,80,2|0,2:0|1:2,2:0:0:0:
466,155,69643,1,2,2:0:0:0:
277,191,69812,2,0,B|310:182|310:182|318:186|318:186|371:171,1,80,10|0,2:0|2:0,2:0:0:0:
224,301,70149,2,0,B|190:292|190:292|182:296|182:296|129:281,1,80,2|8,1:2|2:0,2:0:0:0:
70,323,70402,1,8,2:0:0:0:
70,323,70486,6,0,P|98:280|83:204,1,120,2|0,1:2|2:0,2:0:0:0:
71,194,70823,2,0,L|160:183,1,80,2|0,1:2|2:0,2:0:0:0:
236,45,71160,2,0,P|214:83|225:138,1,80,2|0,1:2|2:0,2:0:0:0:
443,36,71497,2,0,B|327:17|327:17|359:74,1,160,10|2,2:0|1:2,2:0:0:0:
474,130,72003,1,2,1:2:0:0:
305,216,72171,6,0,B|400:197|356:283|477:254,1,160,2|2,1:2|1:2,2:0:0:0:
317,308,72677,1,2,2:0:0:0:
207,233,72845,2,0,P|205:193|220:156,1,80,10|2,2:0|2:0,2:0:0:0:
338,91,73182,1,2,1:2:0:0:
219,156,73351,1,2,1:2:0:0:
221,21,73520,1,10,2:0:0:0:
336,227,73688,1,10,2:0:0:0:
100,222,73857,6,0,B|195:203|151:289|272:260,1,160,6|0,1:2|1:2,2:0:0:0:
406,200,74362,2,0,P|351:211|326:244,1,80,2|0,2:0|1:2,2:0:0:0:
453,291,74699,1,0,3:2:0:0:
474,132,74868,2,0,P|424:105|384:114,1,80,10|0,2:0|2:0,2:0:0:0:
226,93,75205,2,0,P|265:91|297:67,1,80,0|2,1:2|2:0,2:0:0:0:
120,0,75542,6,0,B|147:43|147:43|131:157,1,160,2|0,1:2|1:2,2:0:0:0:
68,260,76048,2,0,P|46:220|61:165,1,80,2|2,2:0|1:2,2:0:0:0:
172,257,76385,1,2,3:2:0:0:
91,364,76553,2,0,P|45:363|5:322,1,80,10|0,2:0|2:0,2:0:0:0:
172,257,76890,2,0,P|205:236|244:237,1,80,0|8,1:2|2:0,2:0:0:0:
322,292,77143,1,8,2:0:0:0:
322,292,77227,6,0,P|297:232|327:152,1,120,0|0,1:2|2:0,2:0:0:0:
319,173,77565,2,0,L|419:184,1,80,2|0,1:2|2:0,2:0:0:0:
157,92,77902,2,0,L|257:103,1,80,2|0,1:2|2:0,2:0:0:0:
0,28,78239,2,0,P|27:74|7:129,1,80,10|0,2:0|2:0,2:0:0:0:
70,240,78576,2,0,P|71:200|95:169,1,80,2|0,1:2|2:0,2:0:0:0:
115,344,78913,6,0,B|174:333|174:333|211:359|211:359|274:348,1,160,2|0,1:2|1:2,2:0:0:0:
70,240,79418,1,0,2:0:0:0:
230,273,79587,2,0,P|253:231|243:174,1,80,0|0,1:2|0:2,2:0:0:0:
161,56,79924,2,0,P|185:96|240:116,1,80,8|0,2:0|2:0,2:0:0:0:
403,113,80261,1,0,1:2:0:0:
322,302,80430,1,8,2:0:0:0:
322,302,80514,1,8,2:0:0:0:
322,302,80598,6,0,B|297:259|297:259|319:132,1,160,2|0,1:2|1:2,2:0:0:0:
336,31,81104,1,0,3:2:0:0:
475,90,81272,2,0,P|441:113|400:113,1,80,0|0,1:2|2:0,2:0:0:0:
223,73,81609,1,10,2:0:0:0:
315,150,81778,1,8,2:0:0:0:
336,31,81947,1,0,1:2:0:0:
202,192,82115,1,10,2:0:0:0:
409,228,82284,6,0,B|324:206|353:302|248:266,1,160,2|0,1:2|1:2,2:0:0:0:
121,245,82789,1,0,3:0:0:0:
161,384,82958,2,0,P|188:345|180:288,1,80,0|0,1:2|1:2,2:0:0:0:
102,134,83295,1,10,2:0:0:0:
121,245,83463,1,8,2:3:0:0:
208,174,83632,1,4,2:3:0:0:
15,205,83800,1,6,2:3:0:0:
15,205,83885,1,4,2:3:0:0:
15,205,83969,6,0,P|2:160|28:106,1,80,6|2,1:2|2:0,2:0:0:0:
185,0,84306,2,0,P|198:45|172:99,1,80,2|2,1:2|2:0,2:0:0:0:
102,134,84643,1,2,1:2:0:0:
189,76,84812,1,2,2:0:0:0:
287,186,84980,2,0,L|203:173,1,80,2|0,1:2|2:0,2:0:0:0:
352,114,85317,1,2,1:2:0:0:
376,231,85486,1,2,1:2:0:0:
512,41,85654,6,0,P|470:49|487:162,1,160,6|0,1:2|1:2,2:0:0:0:
485,301,86160,1,8,2:0:0:0:
376,231,86329,1,2,1:2:0:0:
370,361,86497,1,8,2:0:0:0:
491,171,86666,1,10,2:0:0:0:
266,162,86834,1,8,2:3:0:0:
370,361,87003,2,0,P|402:329|402:248,1,120,6|0,2:3|2:0,2:0:0:0:
302,284,87340,6,0,B|270:295|233:333|233:333|284:219|264:111|264:111|232:155|186:170,1,400,2|0,2:0|2:0,2:0:0:0:
