osu file format v14

[General]
AudioFilename: Morohoshi Sumire - Masshiro.mp3
AudioLeadIn: 0
PreviewTime: 60318
Countdown: 0
SampleSet: Soft
StackLeniency: 0.3
Mode: 0
LetterboxInBreaks: 0
WidescreenStoryboard: 1

[Editor]
DistanceSpacing: 1.7
BeatDivisor: 6
GridSize: 32
TimelineZoom: 3.199999

[Metadata]
Title:Masshiro (TV Size)
TitleUnicode:真っ白 (TV Size)
Artist:Morohoshi Sumire
ArtistUnicode:諸星すみれ
Creator:-Keqing
Version:Future
Source:本好きの下剋上 ~司書になるためには手段を選んでいられません~
Tags:op opening japanese anime jpop j-pop pop Honzuki no Gekokujou Shisho ni Naru Tame ni wa Shudan o Erande Iraremasen Ascendance of a Bookworm smile pure white fzl_17 frozz
BeatmapID:2897606
BeatmapSetID:1235169

[Difficulty]
HPDrainRate:7
CircleSize:4
OverallDifficulty:8
ApproachRate:9.2
SliderMultiplier:2
SliderTickRate:1

[Events]
//Background and Video events
0,0,"Morohoshi Sumire - Masshiro.jpg",0,0
//Break Periods
//Storyboard Layer 0 (Background)
//Storyboard Layer 1 (Fail)
//Storyboard Layer 2 (Pass)
//Storyboard Layer 3 (Foreground)
//Storyboard Layer 4 (Overlay)
//Storyboard Sound Samples

[TimingPoints]
376,842.696629213483,4,2,1,20,1,0
376,-250,4,2,1,20,0,0
3746,-125,4,2,1,20,0,0
7117,-83.3333333333333,4,2,1,30,0,0
10488,337.078651685393,5,2,1,50,1,0
10488,-166.666666666667,5,2,1,50,0,0
20600,337.078651685393,3,2,1,50,1,0
20600,-166.666666666667,3,2,1,50,0,0
21864,-166.666666666667,3,2,1,5,0,0
21948,-166.666666666667,3,2,1,50,0,0
22201,-166.666666666667,3,2,1,5,0,0
22285,-166.666666666667,3,2,1,50,0,0
22538,-166.666666666667,3,2,1,5,0,0
22622,-125,3,2,1,60,0,0
24223,-125,3,2,1,5,0,0
24307,-83.3333333333333,3,2,1,60,0,0
24644,337.078651685393,5,2,1,60,1,0
24644,-111.111111111111,5,2,1,60,0,0
25908,-111.111111111111,5,2,1,5,0,0
25992,-111.111111111111,5,2,1,60,0,0
27930,-111.111111111111,5,2,1,5,0,0
28014,-111.111111111111,5,2,1,60,0,0
29278,-111.111111111111,5,2,1,5,0,0
29363,-111.111111111111,5,2,1,60,0,0
30964,-111.111111111111,5,2,1,5,0,0
31048,-111.111111111111,5,2,1,60,0,0
32649,-111.111111111111,5,2,1,5,0,0
32733,-111.111111111111,5,2,1,60,0,0
35683,-111.111111111111,5,2,1,5,0,0
35767,-111.111111111111,5,2,1,60,0,0
37705,-111.111111111111,5,2,1,5,0,0
37790,-111.111111111111,5,2,1,60,0,0
38042,-111.111111111111,5,2,1,5,0,0
38127,337.078651685393,3,2,1,60,1,0
38127,-100,3,2,1,60,0,0
40402,-100,3,2,1,5,0,0
40486,-100,3,2,1,60,0,0
42171,-125,3,2,1,60,0,0
43098,-125,3,2,1,5,0,0
43183,-125,3,2,1,60,0,0
43435,-125,3,2,1,5,0,0
43520,-125,3,2,1,60,0,0
47480,-125,3,2,1,5,0,0
47565,-83.3333333333333,3,2,1,60,0,0
47902,-125,3,2,1,60,0,0
50261,-166.666666666667,3,2,1,50,0,0
54643,-250,3,2,1,40,0,0
54896,-250,3,2,1,5,0,0
54980,-250,3,2,1,40,0,0
55233,-250,3,2,1,5,0,0
55318,-142.857142857143,3,2,1,50,0,0
55570,-142.857142857143,3,2,1,5,0,0
55655,-142.857142857143,3,2,1,50,0,0
55907,-142.857142857143,3,2,1,5,0,0
55992,-142.857142857143,3,2,1,50,0,0
56244,-142.857142857143,3,2,1,5,0,0
56329,-111.111111111111,3,2,1,65,0,0
56582,-111.111111111111,3,2,1,5,0,0
56666,-100,3,2,1,65,0,0
56919,-100,3,2,1,5,0,0
57003,-90.9090909090909,3,2,1,65,0,0
57256,-90.9090909090909,3,2,1,5,0,0
57340,-83.3333333333333,3,2,1,70,0,0
57593,-83.3333333333333,3,2,1,5,0,0
57677,-76.9230769230769,3,2,1,70,0,0
57930,-76.9230769230769,3,2,1,5,0,0
58014,-71.4285714285714,3,2,1,70,0,0
58267,-71.4285714285714,3,2,1,5,0,0
58351,-76.9230769230769,3,2,1,70,0,0
59700,-125,3,2,1,50,0,0
60374,337.078651685393,5,2,1,85,1,1
60374,-83.3333333333333,5,2,1,85,0,1
60626,-83.3333333333333,5,2,1,5,0,1
60711,-83.3333333333333,5,2,1,85,0,1
63323,-83.3333333333333,5,2,1,5,0,1
63407,-83.3333333333333,5,2,1,85,0,1
63997,-83.3333333333333,5,2,1,5,0,1
64081,-83.3333333333333,5,2,1,85,0,1
65008,-83.3333333333333,5,2,1,5,0,1
65093,-83.3333333333333,5,2,1,85,0,1
66694,-83.3333333333333,5,2,1,5,0,1
66778,-83.3333333333333,5,2,1,85,0,1
66862,-83.3333333333333,5,2,1,5,0,1
66947,-83.3333333333333,5,2,1,85,0,1
67368,-83.3333333333333,5,2,1,5,0,1
67452,-83.3333333333333,5,2,1,85,0,1
67705,-83.3333333333333,5,2,1,5,0,1
67789,-83.3333333333333,5,2,1,85,0,1
68379,-83.3333333333333,5,2,1,5,0,1
68463,-83.3333333333333,5,2,1,85,0,1
70065,-83.3333333333333,5,2,1,5,0,1
70149,-83.3333333333333,5,2,1,85,0,1
70402,-83.3333333333333,5,2,1,5,0,1
70486,-83.3333333333333,5,2,1,85,0,1
70739,-83.3333333333333,5,2,1,5,0,1
70823,-83.3333333333333,5,2,1,85,0,1
71750,-83.3333333333333,5,2,1,5,0,1
71834,-83.3333333333333,5,2,1,85,0,1
74109,-83.3333333333333,5,2,1,5,0,1
74194,-83.3333333333333,5,2,1,85,0,1
75795,-83.3333333333333,5,2,1,5,0,1
75879,-83.3333333333333,5,2,1,85,0,1
77480,-83.3333333333333,5,2,1,5,0,1
77565,-83.3333333333333,5,2,1,85,0,1
78491,-83.3333333333333,5,2,1,5,0,1
78576,-83.3333333333333,5,2,1,85,0,1
80177,-83.3333333333333,5,2,1,5,0,1
80261,-83.3333333333333,5,2,1,85,0,1
85233,-83.3333333333333,5,2,1,5,0,1
85317,-83.3333333333333,5,2,1,85,0,1
85907,-83.3333333333333,5,2,1,5,0,1
85991,-83.3333333333333,5,2,1,85,0,1
87003,-100,5,2,1,85,0,1
87256,-83.3333333333333,5,2,1,5,0,1
87340,337.078651685393,3,2,1,40,1,0
87340,-200,3,2,1,40,0,0
87424,-200,3,2,1,10,0,0
89025,-200,3,2,1,5,0,0

[Colours]
Combo1 : 151,219,121
Combo2 : 163,154,186
Combo3 : 227,167,113
Combo4 : 236,104,107

[HitObjects]
416,310,376,6,0,P|395:358|390:392,3,80,2|2|2|2,0:0|0:0|0:0|0:0,0:0:0:0:
219,196,3746,6,0,P|258:248|291:349,3,160,2|2|2|2,0:0|0:0|0:0|0:0,0:0:0:0:
446,41,7117,6,0,P|410:90|353:270,3,239.999992675781,2|2|2|2,0:0|0:0|0:0|0:0,0:0:0:0:
353,258,10488,6,0,P|287:277|234:297,1,119.999996337891,6|0,1:2|0:0,0:0:0:0:
170,382,10993,2,0,P|149:325|133:267,1,119.999996337891,0|0,3:0|0:0,0:0:0:0:
161,178,11499,2,0,P|168:149|183:123,1,59.9999981689454,0|0,3:0|0:0,0:0:0:0:
34,158,11836,2,0,P|55:178|69:205,1,59.9999981689454,2|0,0:0|0:0,0:0:0:0:
133,267,12173,6,0,P|153:323|169:381,2,119.999996337891,2|0|0,0:0|0:0|0:0,0:0:0:0:
157,48,13184,2,0,P|203:42|257:91,1,119.999996337891,0|0,3:0|0:0,0:0:0:0:
335,180,13690,5,0,3:2:0:0:
335,180,13774,1,0,3:2:0:0:
335,180,13858,2,0,P|385:156|398:83,1,119.999996337891,2|0,3:2|0:0,0:0:0:0:
445,14,14364,1,0,3:0:0:0:
386,87,14532,2,0,P|399:149|418:215,1,119.999996337891,0|0,3:0|0:0,0:0:0:0:
512,384,15207,2,0,P|499:341|485:313,1,59.9999981689454,2|0,0:0|0:0,0:0:0:0:
408,290,15544,6,0,P|346:303|280:322,2,119.999996337891,2|0|0,0:0|0:0|0:0,0:0:0:0:
207,383,16555,2,0,P|173:351|184:273,1,119.999996337891,0|0,3:0|0:0,0:0:0:0:
242,220,17061,1,0,3:2:0:0:
242,220,17145,1,0,3:2:0:0:
242,220,17229,6,0,B|256:166|286:109|286:109|249:133|216:144,1,179.999994506836,2|0,3:2|0:0,0:0:0:0:
152,229,17903,2,0,P|160:261|188:290,1,59.9999981689454,2|0,0:0|0:0,0:0:0:0:
318,307,18240,2,0,B|289:297|258:307|258:307|245:346|199:361,1,119.999996337891,2|0,0:0|0:0,0:0:0:0:
44,311,18914,6,0,P|57:240|160:236,1,179.999994506836,2|0,0:0|0:0,0:0:0:0:
242,220,19589,2,0,P|264:183|263:152,1,59.9999981689454,2|0,0:0|0:0,0:0:0:0:
187,97,19926,2,0,B|136:113|136:113|132:121|132:121|59:141,1,119.999996337891,2|0,0:0|0:0,0:0:0:0:
280,16,20600,6,0,B|327:-11|366:20|366:20|368:78|427:97,1,179.999994506836,2|0,0:0|0:0,0:0:0:0:
491,95,21274,2,0,P|445:98|419:111,1,59.9999981689454,2|0,0:0|0:0,0:0:0:0:
367,179,21611,2,0,P|378:230|396:287,1,89.9999972534181,2|0,0:0|0:0,0:0:0:0:
226,321,21948,2,0,P|264:285|305:241,1,89.9999972534181,2|0,0:0|0:0,0:0:0:0:
416,376,22285,2,0,P|366:360|307:347,1,89.9999972534181,2|0,0:0|0:0,0:0:0:0:
156,384,22622,6,0,P|85:367|100:211,1,240,2|0,1:2|0:0,0:0:0:0:
162,149,23296,2,0,P|206:166|260:176,1,80,2|0,0:0|0:0,0:0:0:0:
273,81,23633,2,0,P|234:71|197:56,1,80,2|0,0:0|0:0,0:0:0:0:
367,135,23970,6,0,B|375:108|390:82|390:82|373:58|361:10,1,120,6|0,0:3|0:0,0:0:0:0:
237,173,24307,2,0,B|229:200|214:226|214:226|231:250|243:298,1,119.999996337891,6|8,0:3|0:0,0:0:0:0:
340,313,24560,1,8,0:0:0:0:
340,313,24644,6,0,B|288:296|247:334|271:348|232:385|174:367,1,179.999994506836,6|0,1:2|0:0,0:0:0:0:
30,301,25149,2,0,P|81:293|128:322,1,89.9999972534181,0|0,1:2|0:0,0:0:0:0:
181,369,25486,1,0,1:2:0:0:
146,217,25655,2,0,B|111:132|111:132|139:152|170:161,1,134.999995880127,8|0,0:0|0:0,0:0:0:0:
240,232,25992,2,0,P|195:219|143:239,1,89.9999972534181,2|8,1:2|0:0,0:0:0:0:
33,305,26245,1,8,0:0:0:0:
33,305,26329,6,0,B|32:266|46:238|46:238|35:208|35:208|55:168|52:113,1,179.999994506836,2|0,1:2|0:0,0:0:0:0:
5,39,26834,1,8,0:0:0:0:
148,153,27003,1,0,1:2:0:0:
202,31,27172,1,0,1:2:0:0:
202,31,27256,1,0,1:2:0:0:
202,31,27340,2,0,P|151:42|116:76,1,89.9999972534181,8|0,0:0|0:0,0:0:0:0:
257,126,27677,2,0,P|306:102|292:10,1,134.999995880127,0|0,1:2|0:0,0:0:0:0:
293,17,28014,6,0,B|280:90|280:90|284:100|284:100|268:205,1,179.999994506836,2|0,1:2|0:0,0:0:0:0:
351,342,28520,1,0,1:2:0:0:
292,288,28688,2,0,B|329:259|329:259|393:268,1,89.9999972534181,0|0,3:0|0:0,0:0:0:0:
512,152,29026,2,0,P|443:197|373:166,1,134.999995880127,8|0,0:0|0:0,0:0:0:0:
388,162,29363,2,0,L|405:60,1,89.9999972534181,2|8,1:2|0:0,0:0:0:0:
319,3,29615,1,8,0:0:0:0:
319,3,29700,6,0,P|244:42|257:126,1,179.999994506836,2|0,1:2|0:0,0:0:0:0:
396,185,30205,1,8,0:0:0:0:
256,125,30374,1,0,1:2:0:0:
285,303,30542,1,0,1:2:0:0:
285,303,30627,1,0,1:2:0:0:
285,303,30711,2,0,B|333:254|333:254|265:186,1,134.999995880127,8|0,0:0|0:0,0:0:0:0:
277,204,31048,1,0,1:0:0:0:
188,258,31217,1,0,3:0:0:0:
90,175,31385,6,0,B|127:154|127:154|227:186|174:295,1,179.999994506836,2|2,1:2|0:0,0:0:0:0:
92,329,31891,1,2,1:2:0:0:
188,258,32059,1,2,0:0:0:0:
91,341,32228,1,2,0:0:0:0:
12,192,32396,2,0,B|26:145|46:108|46:108|24:120|-18:135,1,134.999995880127,10|0,0:0|0:0,0:0:0:0:
0,216,32733,2,0,L|100:194,1,89.9999972534181,0|8,1:2|0:0,0:0:0:0:
191,261,32986,1,8,0:0:0:0:
191,261,33070,6,0,B|258:280|258:280|280:312|280:312|372:338,1,179.999994506836,2|0,1:2|0:0,0:0:0:0:
456,271,33576,1,0,1:2:0:0:
349,331,33745,1,0,1:2:0:0:
319,182,33913,1,0,1:2:0:0:
319,182,33997,1,0,1:2:0:0:
319,182,34082,2,0,P|360:203|359:269,1,89.9999972534181,8|0,0:0|1:2,0:0:0:0:
218,189,34419,2,0,P|215:142|273:110,1,89.9999972534181,0|8,3:2|0:0,0:0:0:0:
342,81,34672,1,8,0:0:0:0:
342,81,34756,6,0,L|155:56,1,179.999994506836,2|2,1:2|0:0,0:0:0:0:
21,163,35261,1,0,1:2:0:0:
57,85,35430,2,0,P|96:100|97:197,1,134.999995880127,2|0,0:0|0:0,0:0:0:0:
93,209,35767,2,0,B|72:249|72:249|95:301,1,89.9999972534181,10|0,0:0|0:0,0:0:0:0:
213,332,36104,1,0,1:2:0:0:
29,374,36273,1,8,0:0:0:0:
29,374,36357,1,8,0:0:0:0:
29,374,36441,6,0,P|90:350|206:321,1,179.999994506836,2|0,1:2|0:0,0:0:0:0:
312,364,36947,1,0,1:2:0:0:
312,364,37115,2,0,B|290:323|290:323|302:258,1,89.9999972534181,0|8,1:2|0:0,0:0:0:0:
351,161,37368,1,8,0:0:0:0:
350,160,37452,6,0,B|367:122|393:87|393:87|371:103|328:108,1,134.999995880127,10|0,0:0|0:0,0:0:0:0:
268,203,37790,2,0,B|304:183|336:203|336:203|358:243|420:239,1,134.999995880127,2|0,1:2|0:0,0:0:0:0:
399,255,38127,6,0,P|472:270|473:402,2,200,6|0|0,1:2|3:0|3:0,0:0:0:0:
312,364,38969,1,0,1:2:0:0:
170,244,39138,2,0,B|212:120|212:120|132:167,1,200,10|2,0:0|1:2,0:0:0:0:
187,333,39643,1,2,0:0:0:0:
75,291,39812,2,0,P|129:256|186:263,1,100,0|8,1:2|0:0,0:0:0:0:
262,297,40065,1,8,0:0:0:0:
262,297,40149,6,0,P|327:237|305:158,1,150,2|0,1:2|0:0,0:0:0:0:
304,166,40486,2,0,B|281:118|281:118|302:75,1,100,2|0,1:2|1:2,0:0:0:0:
466,97,40823,1,10,0:0:0:0:
410,243,40992,1,0,1:2:0:0:
410,243,41076,1,0,1:2:0:0:
410,243,41160,2,0,P|343:228|199:200,1,200,10|0,0:0|0:0,0:0:0:0:
111,275,41666,1,8,0:0:0:0:
111,275,41750,2,0,B|136:184|136:184|113:211|81:224,1,150,8|4,0:3|0:3,0:0:0:0:
0,302,42087,1,4,0:3:0:0:
0,302,42171,6,0,B|67:247|136:314|88:309|146:378|219:336,1,240,6|0,1:2|0:0,0:0:0:0:
321,368,42846,2,0,P|370:318|432:323,1,120,2|0,1:2|0:0,0:0:0:0:
484,384,43183,2,0,L|499:247,1,120,10|0,0:0|0:0,0:0:0:0:
497,264,43520,1,2,0:0:0:0:
420,144,43688,2,0,L|411:223,1,80,2|0,0:0|1:2,0:0:0:0:
411,223,44025,1,2,0:0:0:0:
490,86,44194,6,0,B|410:59|430:138|334:115,1,160,2|2,1:2|0:0,0:0:0:0:
240,6,44700,2,0,P|295:28|316:68,1,80,2|0,1:2|0:0,0:0:0:0:
341,117,45037,1,0,1:2:0:0:
249,205,45205,2,0,P|187:203|162:305,1,160,10|0,0:0|1:2,0:0:0:0:
210,384,45711,1,8,0:0:0:0:
151,283,45879,1,0,1:2:0:0:
359,340,46048,1,0,1:2:0:0:
359,340,46132,1,0,1:2:0:0:
359,340,46216,6,0,B|300:351|300:351|278:373|278:373|182:389,1,160,6|0,1:2|0:0,0:0:0:0:
39,335,46722,1,8,0:0:0:0:
121,355,46891,2,0,P|146:315|149:269,1,80,2|0,1:2|0:0,0:0:0:0:
68,160,47228,2,0,B|35:88|35:88|55:105|80:120,1,120,10|0,0:0|0:0,0:0:0:0:
73,178,47565,2,0,B|27:242|27:242|31:216|32:187,1,120,2|0,1:2|0:0,0:0:0:0:
161,157,47818,1,2,0:0:0:0:
161,157,47902,2,0,L|252:185,1,80,0|2,1:2|1:2,0:0:0:0:
248,189,48155,1,0,1:2:0:0:
259,198,48239,6,0,P|323:166|312:64,1,160,2|0,1:2|1:2,0:0:0:0:
214,11,48744,2,0,L|232:97,1,80,2|0,1:2|0:0,0:0:0:0:
354,189,49082,1,0,1:2:0:0:
354,189,49166,1,0,1:2:0:0:
354,189,49250,1,10,0:0:0:0:
486,246,49419,1,10,0:3:0:0:
429,378,49587,1,6,0:3:0:0:
262,248,49756,5,8,0:0:0:0:
183,281,49924,1,8,0:3:0:0:
216,360,50093,1,4,0:3:0:0:
219,369,50177,1,4,0:3:0:0:
223,378,50261,6,0,P|109:357|95:232,1,239.999992675781,6|0,1:2|0:0,0:0:0:0:
86,248,51104,1,2,0:0:0:0:
46,141,51273,6,0,B|104:121|134:60|134:60|143:58|143:58|110:120|147:182,1,239.999992675781,6|2,1:2|0:0,0:0:0:0:
346,162,52200,5,8,0:0:0:0:
346,162,52284,2,0,B|303:111|235:149|235:149|233:222|158:261,1,239.999992675781,6|0,1:2|0:0,0:0:0:0:
0,179,53295,5,6,1:2:0:0:
112,159,53464,1,8,0:0:0:0:
180,247,53632,1,8,0:3:0:0:
348,252,53801,5,4,0:3:0:0:
263,277,53969,1,4,0:3:0:0:
244,359,54138,1,0,1:2:0:0:
250,371,54222,1,0,1:2:0:0:
258,384,54306,1,6,1:2:0:0:
258,384,54643,6,0,L|269:315,1,60,2|0,1:2|0:0,0:0:0:0:
183,370,54980,2,0,L|194:301,1,60,2|0,1:2|0:0,0:0:0:0:
50,174,55318,6,0,P|84:218|123:276,1,104.999996795654,10|0,0:0|0:0,0:0:0:0:
118,127,55655,2,0,P|152:171|191:229,1,104.999996795654,8|0,0:0|0:0,0:0:0:0:
186,80,55992,2,0,P|220:124|259:182,1,104.999996795654,10|0,0:0|0:0,0:0:0:0:
372,210,56329,6,0,P|425:176|439:83,1,134.999995880127,10|0,0:0|0:0,0:0:0:0:
306,68,56666,2,0,P|302:141|351:195,1,150,8|0,0:0|0:0,0:0:0:0:
455,91,57003,2,0,P|392:41|313:54,1,165.000005035401,8|0,0:0|0:0,0:0:0:0:
179,211,57340,6,0,P|119:199|64:84,1,179.999994506836,8|0,0:0|0:0,0:0:0:0:
29,259,57677,2,0,P|72:206|199:216,1,194.999991073609,8|0,0:0|0:0,0:0:0:0:
78,96,58014,2,0,P|105:165|33:270,1,209.999993591309,8|0,0:0|0:0,0:0:0:0:
211,93,58351,6,0,B|279:77|349:27|349:27|294:79|288:160,1,259.999988098145,6|2,1:2|1:2,0:0:0:0:
410,259,58857,1,10,0:0:0:0:
233,211,59025,1,10,0:0:0:0:
404,146,59193,1,2,1:2:0:0:
305,299,59362,1,2,1:2:0:0:
309,302,59700,5,2,0:0:0:0:
309,302,59812,2,0,L|325:228,1,53.3333333333333,2|2,0:0|0:0,0:0:0:0:
203,326,60037,1,2,0:0:0:0:
153,323,60121,1,2,0:0:0:0:
115,292,60205,1,2,0:0:0:0:
102,244,60289,1,2,0:0:0:0:
120,198,60374,6,0,B|180:215|180:215|203:254|203:254|295:280,1,179.999994506836,6|0,1:2|0:0,0:0:0:0:
272,274,60711,1,0,1:2:0:0:
427,294,60879,1,2,0:0:0:0:
398,204,61048,2,0,B|367:132|367:132|408:166,1,119.999996337891,0|0,1:2|1:2,0:0:0:0:
506,253,61300,1,0,1:2:0:0:
506,253,61385,2,0,P|444:205|374:243,1,119.999996337891,10|0,0:0|0:0,0:0:0:0:
275,360,61722,1,0,1:2:0:0:
186,243,61890,5,0,1:2:0:0:
186,243,61975,1,0,1:2:0:0:
186,243,62059,1,10,0:0:0:0:
70,362,62227,2,0,P|132:346|203:336,1,119.999996337891,8|0,0:0|1:2,0:0:0:0:
280,203,62565,2,0,P|250:136|232:62,1,119.999996337891,2|0,0:2|1:2,0:2:0:0:
0,106,62902,1,2,1:2:0:0:
0,106,62986,1,0,1:2:0:0:
0,106,63070,2,0,B|53:77|100:132|68:120|106:163|169:149,1,179.999994506836,10|0,0:0|0:0,0:0:0:0:
162,151,63407,1,0,1:2:0:0:
359,109,63576,5,8,0:0:0:0:
359,109,63660,1,8,0:0:0:0:
359,109,63744,2,0,P|412:113|418:244,1,179.999994506836,0|0,1:2|0:0,0:0:0:0:
425,239,64081,2,0,P|352:218|271:214,1,119.999996337891,2|0,1:2|0:0,0:0:0:0:
157,61,64418,2,0,P|216:53|273:35,1,119.999996337891,2|0,1:2|1:2,0:0:0:0:
91,214,64671,1,0,1:2:0:0:
91,214,64756,2,0,P|89:126|5:108,1,179.999994506836,10|0,0:0|0:0,0:0:0:0:
13,105,65093,1,2,1:2:0:0:
74,236,65261,1,2,1:2:0:0:
135,367,65430,5,2,1:2:0:0:
54,316,65598,2,0,B|89:269|89:269|169:281,1,119.999996337891,8|0,0:0|1:2,0:0:0:0:
338,303,65935,1,2,1:2:0:0:
287,384,66104,2,0,B|240:349|240:349|252:269,1,119.999996337891,8|2,0:0|1:2,0:0:0:0:
370,219,66357,1,0,1:2:0:0:
370,219,66441,2,0,P|439:221|469:337,1,179.999994506836,10|0,0:0|0:0,0:0:0:0:
456,384,66778,2,0,P|421:362|408:322,1,59.9999981689454,2|0,1:2|0:0,0:0:0:0:
438,133,66947,1,8,0:0:0:0:
438,133,67031,1,8,0:0:0:0:
438,133,67115,6,0,B|455:77|486:27|486:27|464:46|415:59,1,179.999994506836,6|0,1:2|0:0,0:0:0:0:
343,139,67452,2,0,B|396:110|443:165|411:153|449:196|512:182,1,179.999994506836,0|0,1:2|0:0,0:0:0:0:
505,183,67789,1,0,1:2:0:0:
429,54,67958,1,2,0:0:0:0:
254,190,68126,2,0,B|280:259|280:259|278:272|278:272|314:370,1,179.999994506836,10|0,0:0|0:0,0:0:0:0:
310,359,68463,1,0,1:2:0:0:
370,219,68632,1,10,0:0:0:0:
188,356,68800,6,0,B|89:325|125:228|125:228|166:271|233:264,1,239.999992675781,2|0,1:2|1:2,0:0:0:0:
320,126,69306,2,0,B|272:141|272:141|268:149|268:149|191:169,1,119.999996337891,2|0,0:0|1:2,0:0:0:0:
109,128,69643,1,2,0:0:0:0:
331,130,69812,2,0,B|343:79|371:20|371:20|303:59,1,179.999994506836,10|0,0:0|0:0,0:0:0:0:
312,227,70149,2,0,B|350:262|387:316|387:316|387:238,1,179.999994506836,2|0,1:2|0:0,0:0:0:0:
209,164,70486,6,0,B|156:135|109:190|141:178|103:221|40:207,1,179.999994506836,2|0,1:2|0:0,0:0:0:0:
34,200,70823,2,0,P|104:217|147:267,1,119.999996337891,2|0,1:2|0:0,0:0:0:0:
329,105,71160,2,0,P|284:143|225:154,1,119.999996337891,2|0,1:2|0:0,0:0:0:0:
89,17,71497,2,0,B|136:-13|136:-13|111:40|91:121,1,179.999994506836,10|0,0:0|0:0,0:0:0:0:
95,104,71834,1,2,1:2:0:0:
232,257,72003,5,2,1:2:0:0:
232,257,72087,1,0,1:2:0:0:
232,257,72171,2,0,B|283:265|283:265|293:272|293:272|375:284,1,119.999996337891,2|0,1:2|0:0,0:0:0:0:
225,154,72508,5,2,1:2:0:0:
110,348,72677,1,2,0:0:0:0:
95,104,72845,1,10,0:0:0:0:
232,257,73014,1,2,0:0:0:0:
0,267,73182,5,2,1:2:0:0:
198,41,73351,1,2,1:2:0:0:
228,366,73520,1,10,0:0:0:0:
0,157,73688,5,10,0:0:0:0:
0,157,73772,1,8,0:0:0:0:
0,157,73857,2,0,B|53:128|100:183|68:171|106:214|169:200,1,179.999994506836,6|0,1:2|0:0,0:0:0:0:
162,201,74194,1,0,1:2:0:0:
321,321,74362,1,2,0:0:0:0:
313,223,74531,2,0,B|280:154|280:154|304:170|337:172,1,119.999996337891,0|0,1:2|1:2,0:0:0:0:
413,293,74784,1,0,1:2:0:0:
413,293,74868,2,0,P|372:239|309:233,1,119.999996337891,10|0,0:0|0:0,0:0:0:0:
177,335,75205,1,0,1:2:0:0:
76,128,75373,5,10,0:0:0:0:
76,128,75458,1,8,0:0:0:0:
76,128,75542,2,0,B|103:121|131:110|131:110|89:166|73:247,1,179.999994506836,2|0,1:2|0:0,0:0:0:0:
79,219,75879,1,0,1:2:0:0:
185,343,76048,1,2,0:0:0:0:
185,343,76132,1,2,0:0:0:0:
185,343,76216,2,0,B|216:293|216:293|196:228,1,119.999996337891,2|2,1:2|0:0,0:0:0:0:
254,38,76553,2,0,B|223:88|223:88|243:153,1,119.999996337891,10|0,0:0|0:0,0:0:0:0:
198,234,76890,1,0,1:2:0:0:
341,110,77059,5,8,0:0:0:0:
341,110,77143,1,8,0:0:0:0:
341,110,77227,2,0,P|400:112|437:236,1,179.999994506836,0|0,1:2|0:0,0:0:0:0:
439,217,77565,2,0,B|402:263|402:263|431:348,1,119.999996337891,2|0,1:2|0:0,0:0:0:0:
426,4,77902,2,0,B|463:50|463:50|434:135,1,119.999996337891,2|0,1:2|0:0,0:0:0:0:
303,219,78239,2,0,B|274:231|245:232|245:232|219:278|219:278|187:279|154:296,1,179.999994506836,10|0,0:0|0:0,0:0:0:0:
154,296,78576,1,2,1:2:0:0:
25,151,78744,5,8,0:0:0:0:
25,151,78829,1,8,0:0:0:0:
25,151,78913,1,2,1:2:0:0:
162,202,79081,1,8,0:0:0:0:
91,374,79250,2,0,B|67:347|48:335|48:335|58:311|62:274,1,119.999996337891,0|0,1:2|0:0,0:0:0:0:
133,103,79587,2,0,B|157:130|176:142|176:142|166:166|161:202,1,119.999996337891,0|0,1:2|1:2,0:0:0:0:
97,16,79840,1,0,1:2:0:0:
97,16,79924,2,0,B|150:-13|197:42|165:30|203:73|266:59,1,179.999994506836,8|0,0:0|0:0,0:0:0:0:
259,60,80261,1,0,1:2:0:0:
454,53,80430,5,8,0:0:0:0:
454,53,80514,1,8,0:0:0:0:
454,53,80598,2,0,B|472:44|494:35|494:35|417:0|353:37|337:97|391:159,1,239.999992675781,2|0,1:2|1:2,0:0:0:0:
488,269,81104,1,0,3:2:0:0:
464,177,81272,2,0,B|416:192|416:192|410:203|410:203|330:233,1,119.999996337891,0|0,1:2|0:0,0:0:0:0:
114,333,81609,5,10,0:0:0:0:
357,223,81778,1,8,0:0:0:0:
107,151,81947,1,0,1:2:0:0:
209,355,82115,1,10,0:0:0:0:
255,116,82284,5,2,1:2:0:0:
126,239,82452,1,8,0:0:0:0:
277,113,82621,2,0,P|342:119|402:175,1,119.999996337891,0|0,1:2|0:0,0:0:0:0:
512,0,82958,2,0,P|462:33|403:36,1,119.999996337891,0|0,1:2|1:2,0:0:0:0:
263,6,83211,1,0,1:2:0:0:
263,6,83295,2,0,B|296:53|296:53|268:139,1,119.999996337891,10|8,0:0|0:3,0:0:0:0:
126,239,83632,1,4,0:3:0:0:
11,59,83800,5,6,0:3:0:0:
11,59,83885,1,4,0:3:0:0:
11,59,83969,2,0,B|63:66|63:66|69:72|69:72|134:80,1,119.999996337891,6|2,1:2|0:0,0:0:0:0:
276,112,84306,1,2,1:2:0:0:
126,239,84475,1,2,0:0:0:0:
181,15,84643,1,2,1:2:0:0:
287,205,84812,1,2,0:0:0:0:
40,222,84980,2,0,B|104:241|104:241|118:268|118:268|214:294,1,179.999994506836,2|0,1:2|0:0,0:0:0:0:
197,289,85317,1,2,1:2:0:0:
433,228,85486,5,2,1:2:0:0:
433,228,85570,1,0,1:2:0:0:
433,228,85654,2,0,P|365:266|409:382,1,179.999994506836,6|0,1:2|0:0,0:0:0:0:
372,357,85991,1,0,1:2:0:0:
512,209,86160,1,8,0:0:0:0:
296,120,86329,1,2,1:2:0:0:
442,320,86497,5,8,0:0:0:0:
468,49,86666,1,10,0:0:0:0:
212,199,86834,1,8,0:3:0:0:
482,358,87003,2,0,P|492:296|410:276,1,150,6|0,0:3|0:0,0:0:0:0:
428,284,87340,6,0,B|396:343|474:398|556:343|547:233|461:189|461:189|430:148|434:94|434:94|464:142|525:157,1,500,2|0,0:0|0:0,0:0:0:0:
