osu file format v14

[General]
AudioFilename: audio.mp3
AudioLeadIn: 0
PreviewTime: 69622
Countdown: 0
SampleSet: Soft
StackLeniency: 0.7
Mode: 2
LetterboxInBreaks: 0
WidescreenStoryboard: 0

[Editor]
Bookmarks: 23122,45710,69710,89475,109239,131828,155828,172769,195357,217945,261710,273004
DistanceSpacing: 1.2
BeatDivisor: 4
GridSize: 16
TimelineZoom: 2.2

[Metadata]
Title:Hitoribocchi no Monologue (nenpulse bootleg remix)
TitleUnicode:ひとりぼっちのモノローグ (nenpulse bootleg remix)
Artist:Morishita Chisaki, Tanaka Minami, Kito Akari, Kurose Yuuko
ArtistUnicode:一里ぼっち (CV: 森下千咲), 砂尾なこ (CV: 田中美海), 本庄アル (CV: 鬼頭明里), ソトカ・ラキター (CV: 黒瀬ゆうこ)
Creator:Spectator
Version:Spec Rei's Monologue
Source:ひとりぼっちの○○生活
Tags:bunnrei chara -plus- hitoribocchi no marumaru seikatsu hitori bocchi: life's alone op opening japanese anime pop jpop electronic dnb drum and bass hitori bocchi sunao nako honshou aru sotoka rakita
BeatmapID:2609532
BeatmapSetID:1255650

[Difficulty]
HPDrainRate:6
CircleSize:3.8
OverallDifficulty:9.6
ApproachRate:9.6
SliderMultiplier:2.2
SliderTickRate:2

[Events]
//Background and Video events
0,0,"hitoribocchi.png",0,0
//Break Periods
//Storyboard Layer 0 (Background)
//Storyboard Layer 1 (Fail)
//Storyboard Layer 2 (Pass)
//Storyboard Layer 3 (Foreground)
//Storyboard Layer 4 (Overlay)
//Storyboard Sound Samples

[TimingPoints]
534,352.941176470588,4,2,1,70,1,0
10769,-27.027027027027,4,2,30,70,0,0
11651,-100,4,2,1,70,0,0
17475,-100,4,2,1,60,0,0
18181,-100,4,2,1,65,0,0
18886,-100,4,2,1,70,0,0
19592,-100,4,2,1,75,0,0
20298,-100,4,2,1,80,0,0
21357,-76.9230769230769,4,2,1,70,0,0
21710,-66.6666666666667,4,2,1,65,0,0
22063,-66.6666666666667,4,2,1,75,0,0
22769,-66.6666666666667,4,2,30,75,0,0
23122,-90.9090909090909,4,2,1,85,0,1
28239,-90.9090909090909,4,2,6,85,0,1
28592,-90.9090909090909,4,2,1,85,0,1
33886,-90.9090909090909,4,2,6,85,0,1
34239,-90.9090909090909,4,2,1,85,0,1
39533,-90.9090909090909,4,2,6,85,0,1
39886,-90.9090909090909,4,2,1,85,0,1
45357,-90.9090909090909,4,2,30,85,0,1
45445,-90.9090909090909,4,2,1,85,0,1
45710,-90.9090909090909,4,2,1,70,0,0
48181,-35.7142857142857,4,2,30,70,0,0
48533,-90.9090909090909,4,2,1,85,0,1
50828,-90.9090909090909,4,2,30,65,0,1
51181,-90.9090909090909,4,2,1,85,0,1
51357,-90.9090909090909,4,2,1,70,0,0
53828,-35.7142857142857,4,2,30,70,0,0
54181,-90.9090909090909,4,2,1,85,0,1
56475,-90.9090909090909,4,2,30,70,0,1
56828,-90.9090909090909,4,2,1,85,0,1
57004,-90.9090909090909,4,2,4,70,0,0
57445,-90.9090909090909,4,2,4,5,0,0
57533,-90.9090909090909,4,2,4,70,0,0
57975,-90.9090909090909,4,2,4,5,0,0
58063,-35.7142857142857,4,2,4,70,0,0
58416,-90.9090909090909,4,2,4,70,0,0
58857,-90.9090909090909,4,2,4,5,0,0
58945,-90.9090909090909,4,2,4,70,0,0
59386,-90.9090909090909,4,2,4,5,0,0
59475,-35.7142857142857,4,2,4,70,0,0
59828,-90.9090909090909,4,2,4,70,0,0
60269,-90.9090909090909,4,2,4,5,0,0
60357,-90.9090909090909,4,2,4,70,0,0
60798,-90.9090909090909,4,2,4,5,0,0
60886,-35.7142857142857,4,2,4,70,0,0
61239,-66.6666666666667,4,2,1,70,0,0
61592,-90.9090909090909,4,2,1,70,0,0
62122,-90.9090909090909,4,2,1,80,0,0
62298,-90.9090909090909,4,2,30,80,0,0
62386,-90.9090909090909,4,2,1,50,0,0
62651,-90.9090909090909,4,2,1,80,0,0
63357,-90.9090909090909,4,2,1,84,0,0
64063,-90.9090909090909,4,2,1,88,0,0
66975,-90.9090909090909,4,2,5,80,0,0
67592,-90.9090909090909,4,2,5,85,0,0
68475,-90.9090909090909,4,2,1,80,0,0
69004,-90.9090909090909,4,2,1,85,0,0
69357,-35.7142857142857,4,2,30,70,0,0
69445,-35.7142857142857,4,2,1,70,0,0
69710,-90.9090909090909,4,2,1,85,0,1
74828,-90.9090909090909,4,2,6,85,0,1
75181,-90.9090909090909,4,2,1,85,0,1
80475,-90.9090909090909,4,2,6,85,0,1
80828,-90.9090909090909,4,2,1,85,0,1
81004,-100,4,2,5,70,0,0
81710,-100,4,2,5,73,0,0
82416,-100,4,2,5,75,0,0
83122,-100,4,2,5,77,0,0
83828,-100,4,2,1,70,0,0
84181,-42.5531914893617,4,2,1,90,0,1
84357,-100,4,2,1,90,0,1
84533,-100,4,2,1,70,0,0
84886,-40,4,2,1,90,0,1
85239,-90.9090909090909,4,2,1,80,0,0
86298,-90.9090909090909,4,2,30,85,0,0
86651,-90.9090909090909,4,2,22,70,0,0
86828,-90.9090909090909,4,2,1,5,0,0
87004,-90.9090909090909,4,2,22,70,0,0
87181,-90.9090909090909,4,2,1,5,0,0
87357,-90.9090909090909,4,2,22,70,0,0
87533,-90.9090909090909,4,2,1,5,0,0
87710,-90.9090909090909,4,2,22,70,0,0
88592,-90.9090909090909,4,2,1,5,0,0
88769,-90.9090909090909,4,2,22,70,0,0
88945,-90.9090909090909,4,2,1,70,0,0
89122,-90.9090909090909,4,2,30,70,0,0
89475,-90.9090909090909,4,2,2,70,0,0
92298,-66.6666666666667,4,2,2,70,0,0
93181,-90.9090909090909,4,2,2,70,0,0
93710,-71.4285714285714,4,2,2,70,0,0
94592,-90.9090909090909,4,2,2,70,0,0
95122,-71.4285714285714,4,2,2,70,0,0
95828,-90.9090909090909,4,2,2,70,0,0
97592,-37.037037037037,4,2,30,70,0,0
97769,-37.037037037037,4,2,2,70,0,0
97945,-76.9230769230769,4,2,2,70,0,0
98298,-76.9230769230769,4,2,2,60,0,0
98386,-76.9230769230769,4,2,2,70,0,0
99004,-76.9230769230769,4,2,2,60,0,0
99092,-76.9230769230769,4,2,2,70,0,0
99357,-71.4285714285714,4,2,2,70,0,0
100416,-35.7142857142857,4,2,2,70,0,0
100592,-35.7142857142857,4,2,2,70,0,0
100769,-62.5,4,2,2,70,0,0
100945,-62.5,4,2,22,70,0,0
101122,-62.5,4,2,2,70,0,0
101651,-62.5,4,2,22,70,0,0
101828,-62.5,4,2,2,70,0,0
102357,-62.5,4,2,22,70,0,0
102533,-62.5,4,2,2,70,0,0
103063,-62.5,4,2,22,70,0,0
103239,-62.5,4,2,2,70,0,0
103592,-90.9090909090909,4,2,2,70,0,0
105004,-90.9090909090909,4,2,2,73,0,0
106416,-90.9090909090909,4,2,2,75,0,0
108886,-90.9090909090909,4,2,30,70,0,0
109063,-90.9090909090909,4,2,2,70,0,0
109945,-90.9090909090909,4,2,2,65,0,0
110651,-90.9090909090909,4,2,2,60,0,0
112063,-76.9230769230769,4,2,2,70,0,0
112769,-90.9090909090909,4,2,2,70,0,0
113475,-76.9230769230769,4,2,2,70,0,0
114533,-90.9090909090909,4,2,2,70,0,0
114886,-90.9090909090909,4,2,2,60,0,0
119475,-90.9090909090909,4,2,2,65,0,0
120533,-90.9090909090909,4,2,2,50,0,0
120622,-90.9090909090909,4,2,2,60,0,0
126092,-90.9090909090909,4,2,2,40,0,0
126181,-90.9090909090909,4,2,2,55,0,0
126886,-90.9090909090909,4,2,2,58,0,0
127592,-90.9090909090909,4,2,2,61,0,0
128298,-90.9090909090909,4,2,2,63,0,0
128828,-90.9090909090909,4,2,31,63,0,0
128916,-90.9090909090909,4,2,31,63,0,0
129004,-90.9090909090909,4,2,2,65,0,0
129710,-90.9090909090909,4,2,2,70,0,0
130416,-66.6666666666667,4,2,32,70,0,0
130504,-66.6666666666667,4,2,1,70,0,0
130769,-90.9090909090909,4,2,1,70,0,0
131475,-35.7142857142857,4,2,30,70,0,0
131563,-35.7142857142857,4,2,1,70,0,0
131828,-90.9090909090909,4,2,1,70,0,0
133239,-90.9090909090909,4,2,1,73,0,0
134298,-35.7142857142857,4,2,30,70,0,0
134475,-35.7142857142857,4,2,1,70,0,0
134651,-90.9090909090909,4,2,1,85,0,1
136945,-90.9090909090909,4,2,30,85,0,1
137298,-90.9090909090909,4,2,1,85,0,1
137475,-90.9090909090909,4,2,1,70,0,0
138886,-90.9090909090909,4,2,1,75,0,0
139945,-35.7142857142857,4,2,30,70,0,0
140298,-90.9090909090909,4,2,1,85,0,1
142769,-90.9090909090909,4,2,30,85,0,1
142857,-90.9090909090909,4,2,1,85,0,1
143122,-90.9090909090909,4,2,1,70,0,0
145239,-90.9090909090909,4,2,2,70,0,0
145945,-90.9090909090909,4,2,1,70,0,0
148063,-90.9090909090909,4,2,2,70,0,0
148769,-90.9090909090909,4,2,1,70,0,0
150886,-90.9090909090909,4,2,2,70,0,0
151592,-90.9090909090909,4,2,1,70,0,0
152298,-90.9090909090909,4,2,1,73,0,0
153004,-90.9090909090909,4,2,1,75,0,0
155122,-90.9090909090909,4,2,1,75,0,0
155475,-37.037037037037,4,2,30,70,0,0
155651,-37.037037037037,4,2,1,70,0,0
155828,-90.9090909090909,4,2,1,85,0,1
160945,-90.9090909090909,4,2,6,85,0,1
161298,-90.9090909090909,4,2,1,85,0,1
166592,-90.9090909090909,4,2,6,85,0,1
166945,-90.9090909090909,4,2,1,85,0,1
167122,-100,4,2,5,70,0,0
167828,-100,4,2,5,73,0,0
168533,-100,4,2,5,75,0,0
169239,-100,4,2,5,77,0,0
169945,-100,4,2,1,70,0,0
170298,-41.6666666666667,4,2,1,85,0,1
170475,-100,4,2,1,85,0,1
170651,-100,4,2,1,70,0,0
171004,-40,4,2,1,85,0,1
171357,-90.9090909090909,4,2,1,80,0,0
172416,-90.9090909090909,4,2,30,80,0,0
172769,-90.9090909090909,4,2,1,70,0,0
177886,-90.9090909090909,4,2,6,70,0,0
178239,-90.9090909090909,4,2,1,70,0,0
183533,-90.9090909090909,4,2,6,70,0,0
183886,-90.9090909090909,4,2,1,70,0,0
189181,-90.9090909090909,4,2,6,70,0,0
189533,-90.9090909090909,4,2,1,70,0,0
191122,-90.9090909090909,4,2,1,68,0,0
192622,-90.9090909090909,4,2,1,70,0,0
193945,-100,4,2,1,70,0,0
194298,-100,4,2,5,70,0,0
195004,-100,4,2,30,70,0,0
195357,-153.846153846153,4,2,1,70,0,0
195533,-153.846153846153,4,2,22,5,0,0
196681,-153.846153846153,4,2,1,5,0,0
196769,-153.846153846153,4,2,1,70,0,0
196945,-153.846153846153,4,2,22,5,0,0
198092,-153.846153846153,4,2,1,5,0,0
198181,-153.846153846153,4,2,1,70,0,0
198357,-153.846153846153,4,2,22,5,0,0
200298,-153.846153846153,4,2,22,25,0,0
200475,-153.846153846153,4,2,22,5,0,0
200916,-153.846153846153,4,2,1,5,0,0
201004,-153.846153846153,4,2,1,70,0,0
201181,-153.846153846153,4,2,22,5,0,0
202328,-153.846153846153,4,2,1,5,0,0
202416,-153.846153846153,4,2,1,70,0,0
202592,-153.846153846153,4,2,22,5,0,0
203739,-153.846153846153,4,2,1,5,0,0
203828,-153.846153846153,4,2,1,70,0,0
204004,-153.846153846153,4,2,22,5,0,0
205945,-153.846153846153,4,2,22,25,0,0
206122,-153.846153846153,4,2,22,5,0,0
206651,-117.647058823529,4,2,1,50,0,0
212651,-117.647058823529,4,2,1,55,0,0
216710,-117.647058823529,4,2,1,35,0,0
217063,-117.647058823529,4,2,1,50,0,0
217592,-105.263157894737,4,2,1,65,0,0
217945,-100,4,2,1,70,0,0
223592,-95.2380952380952,4,2,1,70,0,0
225004,-95.2380952380952,4,2,1,75,0,0
226416,-95.2380952380952,4,2,1,80,0,0
229945,-100,4,2,1,70,0,0
231710,-100,4,2,30,75,0,0
232063,-100,4,2,30,70,0,0
233475,-100,4,2,30,75,0,0
234181,-83.3333333333333,4,2,1,80,0,0
234886,-83.3333333333333,4,2,1,85,0,1
237181,-83.3333333333333,4,2,6,85,0,1
237533,-83.3333333333333,4,2,1,85,0,1
242828,-35.7142857142857,4,2,30,85,0,1
243181,-83.3333333333333,4,2,1,85,0,1
243357,-83.3333333333333,4,2,1,80,0,0
245828,-35.7142857142857,4,2,30,85,0,0
246181,-83.3333333333333,4,2,1,85,0,1
248475,-83.3333333333333,4,2,6,85,0,1
248828,-83.3333333333333,4,2,1,85,0,1
253239,-83.3333333333333,4,2,1,80,0,1
254122,-33.3333333333333,4,2,30,85,0,1
254475,-33.3333333333333,4,2,1,85,0,1
254651,-100,4,2,5,70,0,0
255357,-100,4,2,5,73,0,0
256063,-100,4,2,5,75,0,0
256769,-100,4,2,5,77,0,0
257475,-100,4,2,1,70,0,0
257828,-35.7142857142857,4,2,1,90,0,1
258004,-90.9090909090909,4,2,1,85,0,1
258181,-90.9090909090909,4,2,1,70,0,0
258533,-35.7142857142857,4,2,1,95,0,1
258886,-90.9090909090909,4,2,1,80,0,0
260298,-90.9090909090909,4,2,1,90,0,0
261357,-90.9090909090909,4,2,30,90,0,0
261710,-83.3333333333333,4,2,1,85,0,1
266828,-83.3333333333333,4,2,6,85,0,1
267181,-83.3333333333333,4,2,1,85,0,1
272475,-83.3333333333333,4,2,6,85,0,1
272828,-83.3333333333333,4,2,1,85,0,1
278122,-35.7142857142857,4,2,6,85,0,1
278475,-83.3333333333333,4,2,1,85,0,1
280063,-83.3333333333333,4,2,1,88,0,1
281475,-83.3333333333333,4,2,1,90,0,1
283945,-83.3333333333333,4,2,30,90,0,1
284298,-100,4,2,1,70,0,0
285004,-100,4,2,1,65,0,0
285710,-100,4,2,1,60,0,0
286592,-100,4,2,6,60,0,0
286945,-100,4,2,1,60,0,0
288533,-100,4,2,1,57,0,0
289416,-100,4,2,6,57,0,0
289769,-100,4,2,1,57,0,0
289945,-100,4,2,1,55,0,0
292239,-100,4,2,6,55,0,0
292592,-100,4,2,1,55,0,0
292769,-100,4,2,1,52,0,0
294181,-100,4,2,1,48,0,0
295063,-100,4,2,6,48,0,0
295416,-100,4,2,1,48,0,0
295592,-100,4,2,1,45,0,0
295945,-100,4,2,24,45,0,0
296033,-100,4,2,1,45,0,0
297357,-100,4,2,24,45,0,0
297445,-100,4,2,1,45,0,0
298769,-100,4,2,24,45,0,0
298857,-100,4,2,1,45,0,0
300181,-100,4,2,24,45,0,0
300269,-100,4,2,1,45,0,0
302651,-100,4,2,1,47,0,0
304063,-100,4,2,1,50,0,0
304769,-100,4,2,1,52,0,0
305475,-100,4,2,1,55,0,0
306357,-33.3333333333333,4,2,30,45,0,0
306533,-33.3333333333333,4,2,30,60,0,1
306622,-33.3333333333333,4,2,30,65,0,0

[Colours]
Combo1 : 157,227,123
Combo2 : 126,141,245
Combo3 : 240,237,117
Combo4 : 238,106,130

[HitObjects]
284,69,534,6,0,L|276:186,1,110,0|0,3:3|0:0,0:0:0:0:
352,183,798,1,0,0:0:0:0:
436,176,886,2,0,L|512:176,2,55,0|0|0,1:0|0:0|0:0,0:0:0:0:
248,331,1239,1,0,3:0:0:0:
224,280,1328,1,0,0:0:0:0:
246,229,1416,1,0,0:0:0:0:
297,210,1504,1,0,0:0:0:0:
375,211,1592,2,0,L|448:211,2,55,0|0|0,1:0|0:0|0:0,0:0:0:0:
199,142,1945,6,0,L|331:142,1,110,0|0,3:0|0:0,0:0:0:0:
44,219,2298,2,0,L|31:93,1,110,0|0,1:0|0:0,0:0:0:0:
211,105,2651,2,0,L|79:105,1,110,0|0,3:0|0:0,0:0:0:0:
374,132,3004,2,0,L|387:6,1,110,0|0,1:0|0:0,0:0:0:0:
38,342,3357,6,0,L|24:217,1,110,0|0,3:0|0:0,0:0:0:0:
338,341,3710,2,0,L|352:216,1,110,0|0,1:0|0:0,0:0:0:0:
173,342,4063,2,0,L|161:232,1,110,0|0,3:0|0:0,0:0:0:0:
474,343,4416,2,0,L|487:233,1,110,0|0,1:0|0:0,0:0:0:0:
52,337,4769,6,0,L|39:227,1,110,0|0,3:0|0:0,0:0:0:0:
285,104,5122,2,0,L|146:102,1,110,0|0,1:0|0:0,0:0:0:0:
338,194,5475,2,0,L|229:196,1,110,0|0,3:0|0:0,0:0:0:0:
473,228,5828,2,0,L|485:337,1,110,0|0,1:0|0:0,0:0:0:0:
151,343,6181,6,0,L|141:209,1,110,0|0,3:0|0:0,0:0:0:0:
206,197,6445,1,0,0:0:0:0:
298,149,6533,2,0,L|224:144,1,55,0|0,1:0|0:0,0:0:0:0:
152,167,6710,1,0,0:0:0:0:
304,244,6886,1,0,3:0:0:0:
302,189,6975,1,0,0:0:0:0:
280,138,7063,1,0,0:0:0:0:
232,110,7151,1,0,0:0:0:0:
144,106,7239,2,0,L|66:100,2,55,0|0|0,1:0|0:0|0:0,0:0:0:0:
482,149,7592,6,0,L|351:175,1,110,0|0,3:0|0:0,0:0:0:0:
118,343,7945,2,0,L|225:321,1,110,0|0,1:0|0:0,0:0:0:0:
393,216,8298,2,0,L|262:242,1,110,0|0,3:0|0:0,0:0:0:0:
27,267,8651,2,0,L|135:245,1,110,0|0,1:0|0:0,0:0:0:0:
472,72,9004,6,0,L|489:205,1,110,0|0,3:0|0:0,0:0:0:0:
179,144,9357,2,0,L|162:291,1,110,0|0,1:0|0:0,0:0:0:0:
334,79,9710,2,0,L|351:212,1,110,0|0,3:0|0:0,0:0:0:0:
42,153,10063,2,0,L|25:300,1,110,0|0,1:0|3:0,0:0:0:0:
377,144,10416,5,4,2:0:0:0:
54,241,11298,2,0,L|479:239,1,406.999998447418,8|8,0:0|0:0,0:0:0:0:
218,337,11651,2,0,L|163:336,1,55
383,341,11828,6,0,L|383:192,1,110,0|0,3:0|0:0,0:0:0:0:
311,227,12092,1,0,0:0:0:0:
143,226,12181,2,0,L|66:227,2,55,0|0|0,1:0|0:0|0:0,0:0:0:0:
293,129,12533,2,0,L|225:129,1,55,0|0,3:0|0:0,0:0:0:0:
75,339,12710,2,0,L|69:251,1,55
165,342,12886,2,0,L|159:254,1,55,0|0,1:0|0:0,0:0:0:0:
255,285,13063,1,0,0:0:0:0:
140,198,13239,5,0,3:0:0:0:
65,198,13328,2,0,L|55:81,1,110
231,52,13592,2,0,L|364:53,1,110,0|0,1:0|0:0,0:0:0:0:
192,154,13857,2,0,L|101:153,2,55,0|0|0,0:0|3:0|0:0,0:0:0:0:
363,264,14122,2,0,L|287:262,1,55
120,252,14298,2,0,L|111:361,1,110,0|0,1:0|0:0,0:0:0:0:
185,362,14563,1,0,0:0:0:0:
111,361,14651,5,0,3:0:0:0:
318,360,14740,2,0,L|438:360,1,110
260,183,15004,2,0,L|127:184,1,110,0|0,1:0|0:0,0:0:0:0:
141,262,15269,1,0,0:0:0:0:
387,311,15357,2,0,L|306:312,1,55,0|0,3:0|0:0,0:0:0:0:
182,357,15533,2,0,L|101:358,1,55
390,230,15710,2,0,L|390:110,1,110,0|0,1:0|0:0,0:0:0:0:
322,102,15975,1,0,0:0:0:0:
165,165,16063,6,0,L|110:165,1,55,0|0,3:0|0:0,0:0:0:0:
397,29,16239,2,0,L|258:29,1,110,0|0,0:0|1:0,0:0:0:0:
194,73,16504,2,0,L|111:73,1,55
349,203,16681,2,0,L|459:203,1,110
222,325,16945,2,0,L|167:325,1,55
426,183,17122,2,0,L|371:183,1,55,0|0,1:0|0:0,0:0:0:0:
159,111,17298,2,0,L|104:111,1,55
373,354,17475,6,0,L|382:281,1,55,4|0,3:2|0:0,0:0:0:0:
478,297,17651,2,0,L|487:224,1,55
373,222,17828,2,0,L|364:149,1,55,0|0,1:0|0:0,0:0:0:0:
268,165,18004,2,0,L|259:92,1,55
373,354,18181,2,0,L|382:281,1,55,0|0,3:0|0:0,0:0:0:0:
478,297,18357,2,0,L|487:224,1,55
132,233,18533,6,0,L|218:228,1,55,0|0,1:0|0:0,0:0:0:0:
366,249,18710,2,0,L|429:245,1,55
139,354,18886,6,0,L|130:281,1,55,4|0,3:2|0:0,0:0:0:0:
34,297,19062,2,0,L|25:224,1,55
139,222,19239,2,0,L|148:149,1,55,0|0,1:0|0:0,0:0:0:0:
244,165,19415,2,0,L|253:92,1,55
139,354,19592,2,0,L|130:281,1,55,0|0,3:0|0:0,0:0:0:0:
34,297,19768,2,0,L|25:224,1,55
369,259,19944,6,0,L|283:254,1,55,0|0,1:0|0:0,0:0:0:0:
146,249,20121,2,0,L|83:245,1,55
277,111,20298,6,0,L|285:24,1,55,4|0,3:2|0:0,0:0:0:0:
438,114,20475,2,0,L|445:50,1,55
236,191,20651,2,0,L|232:123,1,55,0|0,1:0|0:0,0:0:0:0:
77,190,20828,2,0,L|74:122,1,55
356,294,21004,5,0,3:0:0:0:
290,294,21092,1,0,0:0:0:0:
223,294,21181,1,0,3:0:0:0:
157,295,21269,1,0,0:0:0:0:
366,182,21357,2,0,L|427:182,6,35.749998363495,0|0|0|0|0|0|0,3:0|3:0|3:0|3:0|3:0|3:0|3:0,3:0:0:0:
77,106,21710,6,0,P|206:325|431:79,1,660.000025177003,0|0,3:0|0:0,0:0:0:0:
463,105,22592,1,0,3:0:0:0:
389,104,22651,1,0,3:0:0:0:
314,102,22710,1,0,3:0:0:0:
22,103,22769,1,8,3:2:0:0:
314,102,23122,6,0,L|442:104,1,121.000003692627,4|2,0:0|0:3,0:0:0:0:
254,319,23386,2,0,L|247:181,1,121.000003692627
430,164,23651,2,0,L|435:92,1,60.5000018463135,2|0,0:3|0:0,0:0:0:0:
220,146,23828,6,0,L|358:139,1,121.000003692627,4|2,2:1|0:3,0:0:0:0:
158,297,24092,2,0,L|20:290,1,121.000003692627
220,146,24357,2,0,L|142:142,1,60.5000018463135,2|0,0:3|0:0,0:0:0:0:
371,311,24533,6,0,L|509:304,1,121.000003692627,4|2,0:1|0:3,0:0:0:0:
309,255,24798,2,0,L|302:117,1,121.000003692627
119,108,25063,2,0,L|41:104,1,60.5000018463135,2|0,0:3|0:0,0:0:0:0:
240,208,25239,6,0,L|245:136,1,60.5000018463135,4|0,0:1|0:0,0:0:0:0:
427,92,25416,2,0,L|505:88,1,60.5000018463135,2|0,0:3|0:0,0:0:0:0:
306,337,25592,2,0,L|444:330,1,121.000003692627,8|2,0:1|0:3,0:0:0:0:
85,330,25945,6,0,L|206:337,1,121.000003692627,4|2,0:1|0:3,0:0:0:0:
389,304,26210,2,0,L|268:310,1,121.000003692627
78,330,26475,2,0,L|73:258,1,60.5000018463135,2|0,0:3|0:0,0:0:0:0:
268,310,26651,6,0,L|147:316,1,121.000003692627,4|2,0:1|0:3,0:0:0:0:
142,255,26916,1,0,0:0:0:0:
319,120,27004,2,0,L|247:125,1,60.5000018463135,8|0,0:1|0:0,0:0:0:0:
435,231,27181,2,0,L|496:236,1,60.5000018463135,2|0,0:3|0:0,0:0:0:0:
285,268,27357,6,0,L|278:130,1,121.000003692627,4|2,0:1|0:3,0:0:0:0:
462,113,27622,2,0,L|341:119,1,121.000003692627
160,150,27886,2,0,L|232:155,1,60.5000018463135,2|0,0:3|0:0,0:0:0:0:
37,311,28063,6,0,L|30:173,1,121.000003692627,0|6,0:1|0:2,0:0:0:0:
216,146,28328,1,0,0:0:0:0:
399,154,28416,2,0,L|261:146,1,121.000003692627,12|2,0:2|0:3,0:0:0:0:
347,210,28681,1,0,0:0:0:0:
135,339,28769,6,0,L|14:331,1,121.000003692627,4|2,0:1|0:3,0:0:0:0:
195,266,29033,2,0,L|202:145,1,121.000003692627
14,331,29298,2,0,L|86:336,1,60.5000018463135,2|0,0:3|0:0,0:0:0:0:
289,268,29475,6,0,L|168:260,1,121.000003692627,4|2,0:1|0:3,0:0:0:0:
380,358,29739,2,0,L|500:350,1,121.000003692627
317,194,30004,2,0,L|377:189,1,60.5000018463135,2|0,0:3|0:0,0:0:0:0:
164,306,30181,6,0,L|156:186,1,121.000003692627,4|2,0:1|0:3,0:0:0:0:
348,306,30445,2,0,L|356:186,1,121.000003692627
173,77,30710,2,0,L|233:72,1,60.5000018463135,2|0,0:3|0:0,0:0:0:0:
52,335,30886,6,0,L|47:274,1,60.5000018463135,4|0,0:1|0:0,0:0:0:0:
233,72,31063,2,0,L|173:77,1,60.5000018463135,2|0,0:3|0:0,0:0:0:0:
354,319,31239,2,0,L|474:327,1,121.000003692627,8|2,0:1|0:3,0:0:0:0:
136,168,31592,6,0,L|256:176,1,121.000003692627,4|2,0:1|0:3,0:0:0:0:
73,382,31857,2,0,L|65:262,1,121.000003692627
248,108,32122,2,0,L|188:103,1,60.5000018463135,2|0,0:3|0:0,0:0:0:0:
369,219,32298,6,0,L|377:99,1,121.000003692627,4|2,0:1|0:3,0:0:0:0:
310,82,32563,1,0,0:0:0:0:
496,39,32651,2,0,L|432:32,1,60.5000018463135,8|0,0:1|0:0,0:0:0:0:
253,159,32828,2,0,L|189:152,1,60.5000018463135,2|0,0:3|0:0,0:0:0:0:
376,168,33004,6,0,L|256:176,1,121.000003692627,4|2,0:1|0:3,0:0:0:0:
72,314,33269,2,0,L|192:322,1,121.000003692627
12,321,33533,2,0,L|5:385,1,60.5000018463135,2|0,0:3|0:0,0:0:0:0:
192,322,33710,6,0,L|72:314,1,121.000003692627,4|6,0:1|0:2,0:0:0:0:
139,296,33975,1,0,0:0:0:0:
384,209,34063,2,0,L|264:201,1,121.000003692627,12|2,0:2|0:3,0:0:0:0:
185,217,34328,1,0,0:0:0:0:
459,123,34416,6,0,L|339:115,1,121.000003692627,4|2,0:2|0:3,0:0:0:0:
155,275,34681,2,0,L|275:267,1,121.000003692627
459,123,34945,2,0,L|466:187,1,60.5000018463135,2|0,0:3|0:0,0:0:0:0:
252,192,35122,6,0,L|132:184,1,121.000003692627,4|2,0:1|0:3,0:0:0:0:
312,344,35386,2,0,L|432:336,1,121.000003692627
248,73,35651,2,0,L|312:66,1,60.5000018463135,2|0,0:3|0:0,0:0:0:0:
122,334,35828,6,0,L|114:214,1,121.000003692627,4|2,0:1|0:3,0:0:0:0:
298,179,36092,2,0,L|306:59,1,121.000003692627
492,200,36357,2,0,L|485:260,1,60.5000018463135,2|0,0:3|0:0,0:0:0:0:
298,179,36533,6,0,L|238:172,1,60.5000018463135,4|0,0:1|0:0,0:0:0:0:
431,207,36710,2,0,L|491:200,1,60.5000018463135,2|0,0:3|0:0,0:0:0:0:
298,179,36886,2,0,L|418:187,1,121.000003692627,8|2,0:1|0:3,0:0:0:0:
79,303,37239,6,0,L|199:295,1,121.000003692627,4|2,0:1|0:3,0:0:0:0:
16,384,37504,2,0,L|8:264,1,121.000003692627
191,182,37769,2,0,L|198:118,1,60.5000018463135,2|0,0:3|0:0,0:0:0:0:
381,98,37945,6,0,L|261:90,1,121.000003692627,4|2,0:1|0:3,0:0:0:0:
253,28,38210,1,0,0:0:0:0:
435,22,38298,2,0,L|355:17,1,60.5000018463135,8|0,0:1|0:0,0:0:0:0:
188,181,38475,2,0,L|268:176,1,60.5000018463135,2|0,0:3|0:0,0:0:0:0:
67,320,38651,6,0,L|59:200,1,121.000003692627,4|2,0:1|0:3,0:0:0:0:
256,128,38916,2,0,L|136:136,1,121.000003692627
333,248,39181,2,0,L|413:243,1,60.5000018463135,2|0,0:3|0:0,0:0:0:0:
209,184,39357,6,4,L|89:192,1,121.000003692627,4|6,0:1|0:2,0:2:0:0:
273,103,39622,1,0,0:0:0:0:
457,187,39710,2,0,L|337:179,1,121.000003692627,12|2,0:2|0:3,0:0:0:0:
404,119,39975,1,0,0:0:0:0:
196,319,40063,6,0,L|196:239,1,60.5000018463135,4|0,0:2|0:0,0:0:0:0:
263,233,40239,1,2,0:3:0:0:
80,181,40328,2,0,L|19:181,2,60.5000018463135,0|8|0,0:0|0:1|0:0,0:0:0:0:
261,98,40592,2,0,L|200:98,1,60.5000018463135,2|0,0:3|0:0,0:0:0:0:
384,79,40769,5,4,0:1:0:0:
451,104,40857,2,0,L|451:164,1,60.5000018463135,0|2,0:0|0:3,0:0:0:0:
270,224,41033,1,0,0:0:0:0:
330,224,41121,1,8,0:1:0:0:
391,224,41209,1,0,0:0:0:0:
208,354,41298,2,0,L|128:354,1,60.5000018463135,2|0,0:3|0:0,0:0:0:0:
361,140,41475,5,4,0:2:0:0:
300,140,41563,1,0,0:0:0:0:
240,140,41651,1,2,0:3:0:0:
421,181,41739,2,0,L|482:181,2,60.5000018463135,0|8|0,0:0|0:1|0:0,0:0:0:0:
240,140,42004,2,0,L|301:140,1,60.5000018463135,2|0,0:3|0:0,0:0:0:0:
119,324,42181,6,0,L|119:263,1,60.5000018463135,4|0,0:1|0:0,0:0:0:0:
301,140,42357,2,0,L|240:140,1,60.5000018463135,2|0,0:3|0:0,0:0:0:0:
58,263,42533,2,0,L|119:263,1,60.5000018463135,8|0,0:1|0:0,0:0:0:0:
301,140,42710,2,0,L|362:140,1,60.5000018463135,2|0,0:3|0:0,0:0:0:0:
150,85,42886,5,4,0:2:0:0:
83,110,42974,2,0,L|83:170,1,60.5000018463135,0|2,0:0|0:3,0:0:0:0:
266,301,43151,2,0,L|266:241,1,60.5000018463135,0|8,0:0|0:1,0:0:0:0:
199,216,43327,1,0,0:0:0:0:
382,140,43416,2,0,L|443:140,1,60.5000018463135,2|0,0:3|0:0,0:0:0:0:
256,176,43592,6,0,L|195:176,1,60.5000018463135,4|0,0:2|0:0,0:0:0:0:
382,140,43769,1,2,0:3:0:0:
321,140,43857,1,0,0:0:0:0:
151,142,43945,5,8,0:1:0:0:
113,131,43989,1,0,0:0:0:0:
101,94,44033,1,0,0:0:0:0:
125,64,44077,1,0,0:0:0:0:
256,272,44122,1,0,0:0:0:0:
293,261,44166,1,0,0:0:0:0:
305,224,44210,1,0,0:0:0:0:
281,194,44254,1,0,0:0:0:0:
83,360,44298,6,0,L|75:240,1,121.000003692627,4|0,0:0|0:0,0:0:0:0:
252,249,44563,2,0,L|260:129,1,121.000003692627
437,240,44828,2,0,L|368:240,1,60.5000018463135
195,336,45004,6,0,L|256:336,1,60.5000018463135,2|0,0:0|0:0,0:0:0:0:
73,286,45181,2,0,L|25:286,2,40.333334564209,0|0|0,3:0|3:0|3:0,3:0:0:0:
252,305,45357,2,0,L|258:244,1,60.5000018463135,8|0,0:0|0:0,0:0:0:0:
439,285,45533,2,0,L|446:346,1,60.5000018463135,0|0,3:0|3:0,3:0:0:0:
200,231,45710,6,0,P|128:192|217:97,2,242.000007385254,0|0|0,1:0|0:0|0:0,0:0:0:0:
462,158,46592,2,0,L|325:144,1,121.000003692627,0|0,1:0|0:0,0:0:0:0:
54,224,46945,1,0,1:0:0:0:
342,343,47122,6,0,P|414:304|325:209,1,242.000007385254,0|0,1:0|0:0,0:0:0:0:
201,120,47651,2,0,L|282:119,1,60.5000018463135
440,116,47828,1,2,0:0:0:0:
176,211,48004,5,0,3:0:0:0:
220,212,48063,1,0,3:0:0:0:
264,213,48122,1,0,3:0:0:0:
444,295,48181,2,0,B|134:298|134:298|105:233,1,307.999990600586,12|0,0:0|0:0,0:0:0:0:
303,143,48533,6,0,L|438:143,1,121.000003692627,0|0,3:0|0:0,0:0:0:0:
356,143,48798,1,0,0:0:0:0:
179,237,48886,2,0,L|314:237,1,121.000003692627,0|0,1:0|0:0,0:0:0:0:
56,336,49239,2,0,L|48:210,1,121.000003692627,0|2,3:0|0:3,0:0:0:0:
219,148,49504,2,0,L|91:148,1,121.000003692627,0|0,0:3|0:0,0:0:0:0:
260,67,49769,2,0,L|183:67,1,60.5000018463135,2|0,0:3|0:0,0:0:0:0:
363,140,49945,6,0,L|498:140,1,121.000003692627,0|0,3:0|0:0,0:0:0:0:
169,238,50298,1,0,1:0:0:0:
337,238,50475,1,0,0:0:0:0:
54,242,50651,2,0,L|42:114,1,121.000003692627,0|8,3:0|1:2,0:0:0:0:
337,238,51004,1,8,1:2:0:0:
169,238,51181,1,0,0:0:0:0:
414,261,51357,6,0,P|486:222|397:127,2,242.000007385254,0|0|0,1:0|0:0|0:0,0:0:0:0:
97,266,52239,2,0,L|234:252,1,121.000003692627,0|0,1:0|0:0,0:0:0:0:
455,315,52592,1,0,1:0:0:0:
116,329,52769,6,0,L|115:182,1,121.000003692627,0|0,1:0|0:0,0:0:0:0:
179,191,53033,1,0,0:0:0:0:
327,108,53122,2,0,L|236:108,1,60.5000018463135,2|0,0:0|0:0,0:0:0:0:
100,111,53298,2,0,L|194:112,1,60.5000018463135,2|0,0:0|0:0,0:0:0:0:
362,210,53475,6,0,L|453:210,1,60.5000018463135,2|0,0:0|0:0,0:0:0:0:
233,210,53651,1,0,3:0:0:0:
189,211,53710,1,0,3:0:0:0:
233,210,53769,1,0,3:0:0:0:
470,320,53828,2,0,L|151:320,1,307.999990600586,4|0,1:2|0:0,0:0:0:0:
471,227,54181,6,0,L|482:97,1,121.000003692627,0|0,3:0|0:0,0:0:0:0:
419,104,54445,1,0,0:0:0:0:
241,184,54533,2,0,L|381:185,1,121.000003692627,0|0,1:0|0:0,0:0:0:0:
86,314,54886,6,0,L|75:184,1,121.000003692627,0|2,3:0|0:3,0:0:0:0:
242,170,55151,1,0,0:0:0:0:
181,171,55239,1,0,1:0:0:0:
119,172,55328,1,0,0:0:0:0:
296,238,55416,2,0,L|379:237,1,60.5000018463135,2|0,3:3|0:0,0:0:0:0:
76,351,55592,5,0,3:0:0:0:
207,303,55769,1,2,0:0:0:0:
76,310,55945,1,2,0:0:0:0:
209,265,56122,1,0,0:0:0:0:
76,274,56298,1,2,0:0:0:0:
405,272,56475,1,8,0:0:0:0:
76,110,56651,1,8,0:0:0:0:
209,119,56827,1,2,0:0:0:0:
484,349,57004,6,0,P|470:278|246:136,1,347.875010616303,0|0,3:0|0:0,0:0:0:0:
255,135,57533,2,0,P|113:173|35:350,1,347.875010616303,0|0,3:0|0:0,0:0:0:0:
34,345,58063,2,0,L|376:345,1,307.999990600586,8|0,0:0|0:0,0:0:0:0:
28,349,58416,6,0,P|42:278|266:136,1,347.875010616303,0|0,3:0|0:0,0:0:0:0:
256,135,58945,2,0,P|398:173|476:350,1,347.875010616303,0|0,3:0|0:0,0:0:0:0:
476,345,59475,2,0,L|134:345,1,307.999990600586,8|0,0:0|0:0,0:0:0:0:
484,349,59828,6,0,P|470:278|246:136,1,347.875010616303,0|0,3:0|0:0,0:0:0:0:
255,135,60357,2,0,P|113:173|35:350,1,347.875010616303,0|0,3:0|0:0,0:0:0:0:
34,345,60887,2,0,L|376:345,1,307.999990600586,8|0,0:0|0:0,0:0:0:0:
54,341,61239,6,0,L|316:341,1,247.500009441376,0|0,1:0|0:0,0:0:0:0:
123,233,61592,1,2,0:0:0:0:
68,234,61681,1,2,0:0:0:0:
68,234,61769,1,2,0:0:0:0:
123,233,61857,1,2,0:0:0:0:
305,234,61945,2,0,L|381:234,1,60.5000018463135,2|2,0:0|0:0,0:0:0:0:
150,104,62122,2,0,L|226:104,1,60.5000018463135,0|0,3:0|3:0,3:0:0:0:
410,162,62298,2,0,P|452:128|390:125,1,121.000003692627,8|0,0:0|1:0,0:0:0:0:
257,103,62563,1,0,1:0:0:0:
106,108,62651,6,0,L|98:253,1,121.000003692627,4|0,3:2|0:0,0:0:0:0:
172,227,62916,1,0,0:0:0:0:
392,108,63004,2,0,L|400:253,1,121.000003692627,8|0,2:0|0:0,0:0:0:0:
229,226,63269,1,0,0:0:0:0:
425,227,63357,2,0,L|431:106,1,121.000003692627,0|0,3:0|0:0,0:0:0:0:
358,105,63622,1,0,0:0:0:0:
72,228,63710,2,0,L|65:107,1,121.000003692627,8|0,0:0|0:0,0:0:0:0:
238,107,63975,1,0,3:0:0:0:
409,109,64063,6,0,L|266:109,1,121.000003692627,4|0,3:2|0:0,0:0:0:0:
100,248,64328,2,0,L|243:248,1,121.000003692627
440,336,64592,2,0,L|340:335,1,60.5000018463135
185,340,64769,2,0,L|16:339,1,121.000003692627,0|0,3:0|0:0,0:0:0:0:
334,209,65122,2,0,L|503:208,1,121.000003692627,8|0,0:0|0:0,0:0:0:0:
72,170,65475,5,4,3:2:0:0:
308,135,65651,2,0,L|321:45,2,60.5000018463135,0|0|8,0:0|0:0|0:0,0:0:0:0:
163,130,66004,1,0,0:0:0:0:
445,169,66181,5,4,3:2:0:0:
193,135,66357,2,0,L|180:45,2,60.5000018463135,0|0|8,0:0|0:0|0:0,0:0:0:0:
349,130,66710,1,0,0:0:0:0:
35,291,66886,6,0,L|22:201,3,60.5000018463135,4|0|0|0,3:2|0:0|0:0|0:0,0:0:0:0:
178,226,67239,2,0,L|183:157,3,60.5000018463135,8|0|0|0,0:0|0:0|0:0|0:0,0:0:0:0:
334,156,67592,6,0,L|321:66,3,60.5000018463135,0|0|0|0,3:0|0:0|0:0|0:0,0:0:0:0:
477,83,67945,2,0,L|482:14,3,60.5000018463135,8|0|0|0,0:0|0:0|0:0|0:0,0:0:0:0:
293,181,68298,6,0,P|233:151|314:104,1,181.500005538941,0|0,3:0|0:0,0:0:0:0:
465,92,68651,1,2,0:0:0:0:
406,94,68739,1,2,0:0:0:0:
465,92,68828,1,2,0:0:0:0:
406,94,68916,1,2,0:0:0:0:
216,96,69004,5,2,0:0:0:0:
109,186,69181,1,0,3:0:0:0:
156,186,69239,1,0,3:0:0:0:
204,186,69298,1,0,3:0:0:0:
470,305,69357,2,0,L|113:304,1,307.999990600586,8|0,0:0|3:0,0:0:0:0:
470,305,69710,6,0,L|320:304,1,121.000003692627,0|2,3:0|0:3,0:0:0:0:
166,231,69975,2,0,L|316:230,1,121.000003692627
106,337,70239,2,0,L|101:265,1,60.5000018463135,2|0,0:3|0:0,0:0:0:0:
316,175,70416,6,0,L|166:174,1,121.000003692627,0|2,3:0|0:3,0:0:0:0:
378,344,70681,2,0,L|528:343,1,121.000003692627
318,254,70945,2,0,L|313:182,1,60.5000018463135,2|0,0:3|0:0,0:0:0:0:
130,135,71122,6,0,L|280:134,1,121.000003692627,0|2,3:0|0:3,0:0:0:0:
70,356,71386,2,0,L|63:218,1,121.000003692627
252,187,71651,2,0,L|257:115,1,60.5000018463135,2|0,0:3|0:0,0:0:0:0:
440,99,71828,5,0,3:0:0:0:
174,47,72004,2,0,L|254:47,1,60.5000018463135,2|0,0:3|0:0,0:0:0:0:
500,99,72181,1,8,0:1:0:0:
234,47,72357,1,2,0:3:0:0:
500,99,72533,5,0,3:0:0:0:
497,158,72621,1,0,0:0:0:0:
461,205,72709,1,2,0:3:0:0:
404,224,72797,1,2,0:0:0:0:
219,226,72886,2,0,L|214:154,1,60.5000018463135,8|0,0:1|0:0,0:0:0:0:
404,224,73063,2,0,L|308:224,1,60.5000018463135,2|0,0:3|0:0,0:0:0:0:
132,246,73239,5,0,3:0:0:0:
135,305,73327,1,0,0:0:0:0:
171,352,73416,1,2,0:3:0:0:
228,371,73503,1,2,0:0:0:0:
413,373,73592,2,0,L|418:301,1,60.5000018463135,8|0,0:1|0:0,0:0:0:0:
228,371,73769,2,0,L|324:371,1,60.5000018463135,2|0,0:3|0:0,0:0:0:0:
101,371,73945,6,0,L|94:233,1,121.000003692627,0|2,3:0|0:3,0:0:0:0:
314,172,74210,2,0,L|193:172,1,121.000003692627
412,371,74475,2,0,L|417:299,1,60.5000018463135,2|0,0:3|0:0,0:0:0:0:
204,279,74651,2,0,L|325:279,1,121.000003692627,0|6,3:0|0:2,0:0:0:0:
73,279,75004,1,12,0:2:0:0:
325,279,75181,1,2,0:3:0:0:
73,279,75357,6,0,L|66:141,1,121.000003692627,0|2,3:0|0:3,0:0:0:0:
253,243,75622,2,0,L|259:122,1,121.000003692627
443,218,75886,2,0,L|439:279,1,60.5000018463135,2|0,0:3|0:0,0:0:0:0:
253,243,76063,6,0,L|132:236,1,121.000003692627,0|2,3:0|0:3,0:0:0:0:
318,317,76328,2,0,L|438:310,1,121.000003692627
258,243,76592,2,0,L|340:240,1,60.5000018463135,2|0,0:3|0:0,0:0:0:0:
133,195,76769,6,0,L|126:315,1,121.000003692627,0|2,3:0|0:3,0:0:0:0:
310,89,77033,2,0,L|190:82,1,121.000003692627
16,68,77298,2,0,L|98:65,1,60.5000018463135,2|0,0:3|0:0,0:0:0:0:
325,55,77475,1,0,3:0:0:0:
84,164,77651,2,0,L|166:161,1,60.5000018463135,2|0,0:3|0:0,0:0:0:0:
393,151,77828,1,8,0:1:0:0:
144,161,78004,1,2,0:3:0:0:
393,151,78181,5,0,3:0:0:0:
445,173,78269,1,0,0:0:0:0:
448,230,78357,1,2,0:3:0:0:
398,257,78445,1,2,0:0:0:0:
208,288,78533,2,0,L|272:288,1,60.5000018463135,8|0,0:1|0:0,0:0:0:0:
458,257,78710,2,0,L|394:257,1,60.5000018463135,2|0,0:3|0:0,0:0:0:0:
119,151,78886,5,0,3:0:0:0:
66,173,78974,1,0,0:0:0:0:
63,230,79062,1,2,0:3:0:0:
113,257,79150,1,2,0:0:0:0:
304,288,79239,2,0,L|240:288,1,60.5000018463135,8|0,0:1|0:0,0:0:0:0:
54,257,79416,2,0,L|118:257,1,60.5000018463135,2|0,0:3|0:0,0:0:0:0:
320,352,79592,6,0,L|448:352,1,121.000003692627,0|2,3:0|0:3,0:0:0:0:
256,224,79857,2,0,L|128:224,1,121.000003692627,2|0,0:0|0:0,0:0:0:0:
324,152,80122,2,0,L|328:91,1,60.5000018463135,2|0,0:2|0:0,0:0:0:0:
133,195,80298,6,0,L|126:315,1,121.000003692627,2|6,0:0|0:2,0:0:0:0:
291,330,80563,1,2,0:0:0:0:
454,260,80651,2,0,L|461:380,1,121.000003692627,4|2,0:2|0:0,0:0:0:0:
136,151,81004,5,0,0:0:0:0:
84,173,81092,1,0,0:0:0:0:
81,230,81180,1,0,0:0:0:0:
131,257,81268,1,0,0:0:0:0:
214,259,81357,2,0,L|219:201,1,55,8|0,0:0|0:0,0:0:0:0:
54,141,81533,2,0,L|134:141,1,55,0|0,3:0|0:0,0:0:0:0:
276,228,81710,5,0,0:0:0:0:
328,250,81798,1,0,0:0:0:0:
331,307,81886,1,0,3:0:0:0:
281,334,81974,1,0,0:0:0:0:
198,336,82063,2,0,L|193:278,1,55,8|0,2:0|0:0,0:0:0:0:
358,218,82239,2,0,L|278:218,1,55
470,191,82416,6,0,L|475:133,2,55
305,288,82681,2,0,L|241:288,2,55,0|8|0,0:0|0:0|0:0,0:0:0:0:
470,191,82945,2,0,L|406:191,1,55,0|0,3:0|0:0,0:0:0:0:
247,185,83122,5,0,0:0:0:0:
195,207,83210,1,0,0:0:0:0:
192,264,83298,1,8,0:0:0:0:
242,291,83386,1,8,0:0:0:0:
75,253,83475,1,8,0:0:0:0:
23,275,83563,1,0,0:0:0:0:
20,332,83651,1,0,3:0:0:0:
70,359,83739,1,0,2:0:0:0:
256,352,83828,5,2,2:0:0:0:
128,352,84004,2,0,L|80:352,2,36.6666666666667,0|0|0,3:0|3:0|3:0,3:0:0:0:
386,352,84181,2,0,L|66:352,1,258.499996055603,0|0,1:0|0:0,0:0:0:0:
194,284,84445,1,0,0:0:0:0:
261,246,84533,6,0,P|313:194|252:144,1,165,2|0,0:0|0:0,0:0:0:0:
78,274,84886,2,0,B|352:272|352:272|347:133,1,412.5,0|0,1:0|0:0,0:0:0:0:
133,259,85239,6,0,L|126:121,1,121.000003692627,2|0,0:0|0:0,0:0:0:0:
436,152,85592,2,0,L|443:14,1,121.000003692627,2|0,0:0|0:0,0:0:0:0:
258,45,85857,2,0,L|434:45,1,121.000003692627,2|0,0:0|0:0,0:0:0:0:
195,220,86122,2,0,L|147:220,2,40.333334564209,0|0|0,3:0|3:0|3:0,3:0:0:0:
379,45,86298,1,8,0:0:0:0:
128,304,86651,6,0,B|370:304|370:304|250:93|250:93|492:91|492:91|372:91|372:91|494:91|494:91|374:93|374:93|496:93|496:93|255:93|255:93|376:93,1,1573.00004800415,0|0,1:0|3:0,0:0:0:0:
302,92,89004,1,0,3:0:0:0:
227,90,89063,1,0,3:0:0:0:
16,83,89122,1,8,3:2:0:0:
237,320,89475,6,0,L|251:198,1,121.000003692627,4|0,3:2|0:0,0:0:0:0:
184,197,89739,1,0,0:0:0:0:
116,194,89828,1,8,2:0:0:0:
267,97,90004,1,0,0:0:0:0:
179,96,90092,1,0,0:0:0:0:
91,96,90181,1,0,3:0:0:0:
250,199,90357,1,0,0:0:0:0:
184,197,90445,1,0,0:0:0:0:
116,194,90534,1,8,2:0:0:0:
259,337,90710,2,0,L|270:271,1,60.5000018463135
473,340,90886,6,0,L|487:218,1,121.000003692627,0|0,3:0|0:0,0:0:0:0:
311,339,91239,2,0,L|325:217,1,121.000003692627,8|0,0:0|0:0,0:0:0:0:
58,344,91592,2,0,L|44:222,1,121.000003692627,0|0,3:0|0:0,0:0:0:0:
129,223,91857,1,0,0:0:0:0:
213,223,91945,1,8,0:0:0:0:
56,125,92122,2,0,L|46:41,1,60.5000018463135
259,137,92298,6,0,B|259:301|259:301|93:301,2,330.000012588501,2|10|2,3:2|0:0|0:0,0:0:0:0:
412,231,93181,1,0,0:0:0:0:
351,230,93269,1,0,0:0:0:0:
290,229,93357,1,8,0:0:0:0:
151,146,93533,2,0,L|212:146,1,60.5000018463135
467,233,93710,6,0,B|468:79|468:79|289:79,2,307.999990600586,2|10|2,3:2|0:0|0:0,0:0:0:0:
303,232,94592,1,2,0:0:0:0:
469,234,94769,2,0,L|324:233,1,121.000003692627,10|0,0:0|0:0,0:0:0:0:
45,233,95122,6,0,B|44:79|44:79|223:79,2,307.999990600586,2|10|2,3:2|0:0|0:0,0:0:0:0:
209,232,96004,1,0,0:0:0:0:
45,233,96181,1,8,0:0:0:0:
209,232,96357,1,0,0:0:0:0:
496,233,96533,5,0,1:0:0:0:
196,148,97416,1,0,3:0:0:0:
239,147,97475,1,0,3:0:0:0:
283,147,97534,1,0,3:0:0:0:
471,298,97592,2,0,L|152:299,1,297.000001132965,8|0,2:2|0:0,0:0:0:0:
417,207,97945,6,0,P|482:170|402:84,1,214.49999018097,4|0,0:0|0:0,0:0:0:0:
132,90,98298,2,0,L|352:90,1,214.49999018097,0|0,1:0|0:0,0:0:0:0:
105,207,98651,2,0,P|40:170|120:84,1,214.49999018097,0|0,3:0|0:0,0:0:0:0:
380,90,99004,2,0,L|164:88,1,214.49999018097,0|0,1:0|0:0,0:0:0:0:
382,294,99357,6,0,P|448:245|374:141,1,230.99999295044,0|0,3:0|0:0,0:0:0:0:
130,294,99710,2,0,P|64:245|138:141,1,230.99999295044,0|0,1:0|0:0,0:0:0:0:
421,111,100063,1,0,3:0:0:0:
278,110,100239,1,0,3:0:0:0:
233,109,100298,1,0,3:0:0:0:
188,109,100357,1,0,3:0:0:0:
46,192,100416,2,0,L|460:189,1,307.999990600586,8|0,0:0|0:0,0:0:0:0:
49,337,100769,6,0,B|47:161|47:161|282:160,1,352,0|8,3:0|0:0,0:0:0:0:
98,159,101298,1,0,0:0:0:0:
463,337,101475,2,0,B|465:161|465:161|230:160,1,352,0|8,3:0|0:0,0:0:0:0:
414,159,102004,1,0,0:0:0:0:
64,332,102181,6,0,B|238:295|238:295|239:68,1,352,0|8,3:0|0:0,0:0:0:0:
100,121,102710,1,0,0:0:0:0:
448,332,102886,2,0,B|274:295|274:295|273:68,1,352,0|8,3:0|0:0,0:0:0:0:
412,121,103415,1,0,0:0:0:0:
163,355,103592,6,0,L|153:225,1,121.000003692627,4|0,3:2|0:0,0:0:0:0:
214,232,103857,1,0,0:0:0:0:
274,230,103945,1,8,0:0:0:0:
124,109,104122,1,0,0:0:0:0:
184,108,104210,1,0,0:0:0:0:
244,107,104298,1,0,3:0:0:0:
93,235,104475,1,0,0:0:0:0:
153,234,104563,1,0,0:0:0:0:
213,233,104651,1,8,0:0:0:0:
55,355,104828,1,0,0:0:0:0:
127,353,104916,1,0,0:0:0:0:
339,207,105004,6,0,L|351:336,1,121.000003692627,4|0,3:2|0:0,0:0:0:0:
270,324,105269,1,0,0:0:0:0:
191,321,105357,1,8,0:0:0:0:
360,244,105533,1,0,0:0:0:0:
281,241,105621,1,0,0:0:0:0:
201,239,105710,1,2,3:2:0:0:
460,148,105886,2,0,L|313:147,1,121.000003692627,2|10,0:0|0:0,0:0:0:0:
179,187,106239,1,0,0:0:0:0:
457,338,106416,6,0,L|470:215,1,121.000003692627,4|0,3:2|0:0,0:0:0:0:
402,214,106681,1,0,0:0:0:0:
335,211,106769,1,0,1:0:0:0:
496,151,106945,1,0,0:0:0:0:
55,338,107122,6,0,L|42:215,1,121.000003692627,4|0,3:2|0:0,0:0:0:0:
133,213,107387,1,0,1:0:0:0:
223,209,107475,1,0,1:0:0:0:
403,241,107651,1,0,1:0:0:0:
38,143,107828,5,4,1:2:0:0:
374,138,108710,1,0,3:0:0:0:
325,138,108769,1,0,3:0:0:0:
277,138,108828,1,0,3:0:0:0:
87,136,108887,1,8,0:0:0:0:
326,221,109063,2,0,L|415:219,1,60.5000018463135,0|0,3:0|3:0,3:0:0:0:
180,345,109239,6,0,L|173:207,1,121.000003692627,4|0,1:2|0:0,0:0:0:0:
332,345,109592,2,0,L|339:207,1,121.000003692627,8|0,0:0|0:0,0:0:0:0:
173,224,109945,2,0,L|180:345,1,121.000003692627,0|0,3:0|0:0,0:0:0:0:
338,224,110298,2,0,L|332:345,1,121.000003692627,8|0,0:0|0:0,0:0:0:0:
180,345,110651,6,0,L|173:207,1,121.000003692627,0|0,3:0|0:0,0:0:0:0:
332,345,111004,2,0,L|339:207,1,121.000003692627,8|0,0:0|0:0,0:0:0:0:
173,224,111357,2,0,L|180:345,1,121.000003692627,0|0,3:0|0:0,0:0:0:0:
338,224,111710,2,0,L|332:345,1,121.000003692627,8|0,0:0|0:0,0:0:0:0:
45,205,112063,6,0,B|46:63|46:63|190:63,2,285.99998690796,2|10|2,3:2|2:2|3:2,0:0:0:0:
189,63,112945,1,0,0:0:0:0:
45,205,113122,2,0,L|38:84,1,121.000003692627,8|0,0:0|0:0,0:0:0:0:
325,299,113475,6,0,B|324:157|324:157|194:157,1,214.49999018097,2|2,3:2|0:0,0:0:0:0:
180,157,113828,2,0,L|349:157,1,142.99999345398,8|0,0:0|0:0,0:0:0:0:
180,157,114181,2,0,B|181:299|181:299|325:299,1,285.99998690796,2|8,3:2|0:0,0:0:0:0:
176,288,114710,2,0,L|112:288,1,60.5000018463135,0|0,3:0|3:0,3:0:0:0:
332,345,114886,6,0,L|339:207,1,121.000003692627,0|0,3:0|0:0,0:0:0:0:
180,345,115239,2,0,L|173:207,1,121.000003692627,8|0,0:0|0:0,0:0:0:0:
339,224,115592,2,0,L|332:345,1,121.000003692627,0|0,3:0|0:0,0:0:0:0:
174,224,115945,2,0,L|180:345,1,121.000003692627,8|0,0:0|0:0,0:0:0:0:
332,345,116298,6,0,L|339:207,1,121.000003692627,0|0,3:0|0:0,0:0:0:0:
180,345,116651,2,0,L|173:207,1,121.000003692627,8|0,0:0|0:0,0:0:0:0:
339,224,117004,2,0,L|332:345,1,121.000003692627,0|0,3:0|0:0,0:0:0:0:
174,224,117357,2,8,L|180:345,1,121.000003692627,8|0,0:0|0:0,0:0:0:0:
248,344,117622,1,0,0:0:0:0:
64,350,117710,6,0,L|58:229,1,121.000003692627,2|0,3:2|0:0,0:0:0:0:
210,160,118063,2,0,L|66:160,1,121.000003692627,10|0,0:0|0:0,0:0:0:0:
448,350,118416,2,0,L|454:229,1,121.000003692627,2|0,3:2|0:0,0:0:0:0:
302,160,118769,2,0,L|423:160,1,121.000003692627,10|0,0:0|0:0,0:0:0:0:
136,82,119122,6,0,L|392:82,1,242.000007385254,2|8,3:2|0:0,0:0:0:0:
227,219,119651,1,0,0:0:0:0:
372,202,119828,2,0,L|378:81,1,121.000003692627,0|0,3:0|0:0,0:0:0:0:
136,82,120181,1,10,0:0:0:0:
256,64,120357,2,0,L|176:64,1,60.5000018463135,0|0,3:0|3:0,3:0:0:0:
390,249,120533,5,4,3:2:0:0:
393,188,120621,1,0,3:0:0:0:
396,128,120709,1,0,3:0:0:0:
256,160,120886,1,0,0:0:0:0:
396,128,121063,1,0,0:0:0:0:
262,281,121239,5,0,3:0:0:0:
259,220,121327,1,0,3:0:0:0:
256,160,121415,1,0,3:0:0:0:
396,192,121592,1,8,0:0:0:0:
256,160,121769,1,0,0:0:0:0:
122,249,121945,5,0,3:0:0:0:
119,188,122033,1,0,3:0:0:0:
116,128,122121,1,0,3:0:0:0:
256,160,122298,1,8,0:0:0:0:
116,128,122475,1,0,0:0:0:0:
250,281,122651,5,0,3:0:0:0:
253,220,122739,1,0,3:0:0:0:
256,160,122827,1,0,3:0:0:0:
116,192,123004,1,8,0:0:0:0:
256,160,123181,1,0,0:0:0:0:
396,192,123357,5,0,3:0:0:0:
335,192,123445,1,0,3:0:0:0:
275,192,123533,1,0,3:0:0:0:
427,278,123710,2,0,L|433:157,1,121.000003692627,8|0,0:0|0:0,0:0:0:0:
275,192,124063,5,0,3:0:0:0:
335,192,124151,1,0,3:0:0:0:
396,192,124239,1,0,3:0:0:0:
244,278,124416,2,0,L|238:157,1,121.000003692627,8|0,0:0|0:0,0:0:0:0:
496,304,124769,5,0,3:0:0:0:
345,301,124945,1,2,3:2:0:0:
496,304,125122,1,8,3:2:0:0:
345,301,125298,1,2,3:2:0:0:
496,304,125475,1,0,3:0:0:0:
496,304,125563,1,0,3:0:0:0:
496,304,125651,1,0,3:0:0:0:
345,301,125828,2,0,L|169:300,1,121.000003692627,8|0,0:0|0:0,0:0:0:0:
296,226,126092,1,0,1:0:0:0:
82,307,126181,6,0,L|77:235,1,60.5000018463135,4|0,1:2|0:0,0:0:0:0:
159,253,126357,2,0,L|154:181,1,60.5000018463135
342,116,126533,2,0,L|230:116,1,60.5000018463135,0|0,1:0|0:0,0:0:0:0:
199,154,126710,2,0,L|311:154,1,60.5000018463135
430,307,126886,6,0,L|435:235,1,60.5000018463135,0|0,3:0|0:0,0:0:0:0:
353,253,127062,2,0,L|358:181,1,60.5000018463135
170,116,127239,2,0,L|282:116,1,60.5000018463135,0|0,1:0|0:0,0:0:0:0:
312,154,127415,2,0,L|200:154,1,60.5000018463135
66,331,127592,6,0,L|61:259,1,60.5000018463135,4|0,3:2|0:0,0:0:0:0:
149,277,127768,2,0,L|144:205,1,60.5000018463135
331,46,127945,2,0,L|391:46,1,60.5000018463135,0|0,1:0|0:0,0:0:0:0:
303,148,128122,2,0,L|242:148,1,60.5000018463135
446,331,128298,6,0,L|451:259,1,60.5000018463135,0|0,3:0|0:0,0:0:0:0:
363,277,128474,2,0,L|368:205,1,60.5000018463135
181,46,128651,2,0,L|120:46,1,60.5000018463135,0|0,1:0|0:0,0:0:0:0:
209,148,128828,2,0,L|269:148,1,60.5000018463135,8|0,3:3|3:0,3:0:0:0:
76,347,129004,6,0,L|16:347,1,60.5000018463135,4|0,3:2|0:0,0:0:0:0:
104,268,129181,2,0,L|164:268,1,60.5000018463135
76,347,129357,2,0,L|16:347,1,60.5000018463135,0|0,1:0|0:0,0:0:0:0:
104,268,129534,2,0,L|164:268,1,60.5000018463135,0|0,3:0|3:0,3:0:0:0:
369,58,129710,6,0,L|308:58,1,60.5000018463135,4|0,3:2|0:0,0:0:0:0:
143,58,129886,2,0,L|203:58,1,60.5000018463135
417,64,130063,1,0,1:0:0:0:
451,66,130107,1,0,3:0:0:0:
479,85,130151,1,0,3:0:0:0:
495,115,130195,1,0,3:0:0:0:
495,150,130239,1,0,3:0:0:0:
478,179,130283,1,0,3:0:0:0:
449,197,130327,1,0,3:0:0:0:
414,199,130371,1,0,3:0:0:0:
255,336,130416,6,0,P|142:249|256:164,1,330.000012588501,8|2,1:0|0:0,0:0:0:0:
319,177,130857,1,0,0:0:0:0:
231,233,130945,2,0,L|162:235,1,60.5000018463135,2|0,0:0|0:0,0:0:0:0:
82,315,131122,2,0,L|151:317,1,60.5000018463135,2|0,0:0|0:0,0:0:0:0:
367,244,131298,1,0,3:0:0:0:
323,245,131357,1,0,3:0:0:0:
279,246,131416,1,0,3:0:0:0:
99,328,131475,2,0,B|429:330,1,307.999990600586,8|2,1:2|0:0,0:0:0:0:
145,244,131828,6,0,P|72:205|151:107,2,242.000007385254,0|0|0,1:0|0:0|0:0,0:0:0:0:
414,168,132710,2,0,L|285:167,1,121.000003692627,0|0,1:0|0:0,0:0:0:0:
42,258,133063,1,0,1:0:0:0:
367,244,133239,6,0,P|440:205|360:104,1,242.000007385254,0|0,1:0|0:0,0:0:0:0:
225,75,133769,2,0,L|225:218,1,121.000003692627,2|0,0:0|1:0,0:0:0:0:
367,244,134122,1,0,3:0:0:0:
323,245,134181,1,0,3:0:0:0:
279,246,134240,1,0,3:0:0:0:
99,328,134298,2,0,B|429:330,1,307.999990600586,4|0,1:2|0:0,0:0:0:0:
56,74,134651,6,0,L|55:215,1,121.000003692627,0|0,3:0|0:0,0:0:0:0:
123,194,134916,1,0,0:0:0:0:
295,115,135004,2,0,L|153:115,1,121.000003692627,0|0,1:0|0:0,0:0:0:0:
438,311,135357,2,0,L|437:175,1,121.000003692627,0|0,3:0|0:0,0:0:0:0:
261,195,135622,2,0,L|396:193,1,121.000003692627
205,123,135886,2,0,L|127:122,1,60.5000018463135
355,120,136063,6,0,L|377:263,1,121.000003692627,0|0,3:0|0:0,0:0:0:0:
56,260,136416,1,0,1:0:0:0:
208,260,136592,1,0,0:0:0:0:
456,260,136769,1,0,3:0:0:0:
307,262,136945,1,8,1:2:0:0:
56,260,137122,1,8,1:2:0:0:
360,263,137298,1,0,0:0:0:0:
98,261,137475,6,0,P|26:222|115:127,2,242.000007385254,0|0|0,1:0|0:0|0:0,0:0:0:0:
347,217,138357,2,0,L|468:229,1,121.000003692627,0|0,1:0|0:0,0:0:0:0:
186,327,138710,1,0,1:0:0:0:
468,229,138887,6,0,L|467:82,1,121.000003692627,0|0,1:0|0:0,0:0:0:0:
401,106,139151,1,0,0:0:0:0:
241,106,139239,2,0,L|241:194,1,60.5000018463135,2|0,0:0|0:0,0:0:0:0:
394,278,139416,2,0,L|463:278,1,60.5000018463135,2|0,0:0|0:0,0:0:0:0:
207,282,139592,6,0,L|120:282,1,60.5000018463135,2|0,0:0|3:0,0:0:0:0:
49,194,139769,1,0,3:0:0:0:
93,195,139828,1,0,3:0:0:0:
137,196,139887,1,0,3:0:0:0:
389,105,139945,2,0,L|64:104,1,307.999990600586,4|0,1:2|0:0,0:0:0:0:
364,221,140298,6,0,L|494:223,1,121.000003692627,0|0,3:0|0:0,0:0:0:0:
203,96,140651,2,0,L|333:98,1,121.000003692627,0|0,1:0|0:0,0:0:0:0:
60,169,141004,2,0,L|61:306,1,121.000003692627,0|0,3:0|0:0,0:0:0:0:
219,344,141269,2,0,L|78:346,1,121.000003692627
252,261,141533,2,0,L|332:260,1,60.5000018463135
126,198,141710,5,0,3:0:0:0:
395,205,141886,2,0,L|408:64,1,121.000003692627,0|0,0:0|1:0,0:0:0:0:
346,84,142151,1,0,0:0:0:0:
286,84,142239,1,0,0:0:0:0:
169,182,142416,2,0,L|247:183,1,60.5000018463135,0|0,3:0|0:0,0:0:0:0:
402,273,142592,1,0,3:0:0:0:
362,272,142651,1,0,3:0:0:0:
322,272,142710,1,0,3:0:0:0:
148,323,142769,2,0,L|233:322,1,60.5000018463135,8|0,1:2|0:0,0:0:0:0:
389,353,142945,2,0,L|474:352,1,60.5000018463135,0|0,3:0|3:0,3:0:0:0:
255,218,143122,6,0,L|118:217,1,121.000003692627,0|2,3:0|0:0,0:0:0:0:
459,117,143475,2,0,L|322:116,1,121.000003692627,0|2,1:0|0:0,0:0:0:0:
86,244,143828,2,0,P|36:191|110:152,1,181.500005538941,0|2,3:0|0:0,0:0:0:0:
198,154,144181,1,0,1:0:0:0:
42,160,144357,2,0,L|116:159,1,60.5000018463135
307,275,144533,6,0,L|307:136,1,121.000003692627,0|2,3:0|0:0,0:0:0:0:
121,79,144798,2,0,L|244:80,1,121.000003692627
45,170,145063,2,0,L|136:170,1,60.5000018463135
342,100,145239,2,8,L|493:102,1,121.000003692627
170,100,145592,2,8,L|19:102,1,121.000003692627
328,353,145945,6,0,L|335:265,1,60.5000018463135,0|0,3:0|0:0,0:0:0:0:
239,348,146122,2,0,L|246:260,1,60.5000018463135,2|0,0:0|0:0,0:0:0:0:
343,258,146298,2,0,L|479:257,1,121.000003692627,0|2,1:0|0:0,0:0:0:0:
220,162,146651,2,0,L|91:163,1,121.000003692627,0|0,3:0|0:0,0:0:0:0:
161,162,146916,1,2,0:0:0:0:
311,157,147004,2,0,L|376:158,2,60.5000018463135,0|0|0,1:0|0:0|0:0,0:0:0:0:
168,111,147357,6,0,L|163:27,1,60.5000018463135,0|0,3:0|0:0,0:0:0:0:
81,113,147533,2,0,L|76:29,1,60.5000018463135,2|0,0:0|0:0,0:0:0:0:
301,308,147710,2,0,L|296:224,1,60.5000018463135,0|0,1:0|0:0,0:0:0:0:
214,310,147886,2,0,L|209:226,1,60.5000018463135,2|0,0:0|0:0,0:0:0:0:
454,171,148063,6,8,L|301:169,1,121.000003692627
58,171,148416,2,8,L|211:169,1,121.000003692627
418,253,148769,6,0,L|340:253,1,60.5000018463135,4|0,2:2|0:0,0:0:0:0:
158,307,148945,2,0,L|80:307,1,60.5000018463135,2|0,0:0|0:0,0:0:0:0:
406,344,149122,2,0,L|177:344,1,181.500005538941,0|0,1:0|0:0,0:0:0:0:
455,252,149475,6,0,L|454:110,1,121.000003692627,0|0,3:0|0:0,0:0:0:0:
287,168,149828,1,0,1:0:0:0:
455,252,150004,2,0,L|364:250,1,60.5000018463135
186,162,150181,6,0,L|175:305,1,121.000003692627,4|2,3:2|0:0,0:0:0:0:
352,353,150445,2,0,L|201:353,1,121.000003692627
380,278,150710,2,0,L|455:276,1,60.5000018463135
220,176,150886,6,8,L|352:177,1,121.000003692627
60,278,151239,2,8,L|192:279,1,121.000003692627
460,337,151592,6,0,L|475:254,1,60.5000018463135,4|0,0:0|0:0,0:0:0:0:
382,286,151769,2,0,L|397:203,1,60.5000018463135,2|0,0:0|0:0,0:0:0:0:
304,250,151945,2,0,L|447:253,1,121.000003692627,0|0,1:0|0:0,0:0:0:0:
120,277,152298,2,0,P|59:246|152:214,1,181.500005538941,4|2,0:0|0:0,0:0:0:0:
275,205,152651,2,0,L|275:69,1,121.000003692627,0|0,1:0|0:0,0:0:0:0:
196,82,152916,1,0,0:0:0:0:
389,252,153004,6,0,P|458:222|391:131,1,181.500005538941,4|0,0:0|0:0,0:0:0:0:
358,166,153357,1,0,3:0:0:0:
226,167,153533,1,2,0:0:0:0:
369,166,153710,1,0,3:0:0:0:
46,107,153886,2,0,L|47:236,1,121.000003692627,2|0,0:0|3:0,0:0:0:0:
191,227,154239,1,2,0:0:0:0:
463,312,154416,6,0,L|452:226,1,60.5000018463135,8|0,0:0|0:0,0:0:0:0:
281,245,154592,2,0,L|270:159,1,60.5000018463135
90,295,154769,2,0,L|151:294,1,60.5000018463135,2|0,0:0|0:0,0:0:0:0:
303,354,154945,2,0,L|403:355,1,60.5000018463135,2|0,0:0|3:0,0:0:0:0:
153,214,155122,6,0,L|213:214,1,60.5000018463135,2|0,0:0|3:0,0:0:0:0:
407,272,155298,1,0,3:0:0:0:
366,270,155357,1,0,3:0:0:0:
325,269,155416,1,0,3:0:0:0:
29,159,155475,2,0,L|325:161,1,297.000001132965,8|0,3:2|0:0,0:0:0:0:
29,159,155828,6,0,L|167:152,1,121.000003692627,0|2,3:2|0:3,0:0:0:0:
331,96,156092,2,0,L|193:89,1,121.000003692627
393,244,156357,2,0,L|465:239,1,60.5000018463135,2|0,0:3|0:0,0:0:0:0:
272,245,156533,6,0,L|265:383,1,121.000003692627,0|2,3:0|0:3,0:0:0:0:
449,257,156798,2,0,L|456:395,1,121.000003692627
272,245,157063,2,0,L|344:240,1,60.5000018463135,2|0,0:3|0:0,0:0:0:0:
151,169,157239,6,0,L|30:162,1,121.000003692627,0|2,3:0|0:3,0:0:0:0:
211,246,157504,2,0,L|331:239,1,121.000003692627
149,109,157769,2,0,L|221:104,1,60.5000018463135,2|0,0:3|0:0,0:0:0:0:
451,93,157945,5,0,3:0:0:0:
209,104,158122,2,0,L|137:99,1,60.5000018463135,2|0,0:3|0:0,0:0:0:0:
390,46,158298,1,8,0:1:0:0:
122,46,158475,1,2,0:3:0:0:
390,46,158651,6,0,L|385:118,1,60.5000018463135,0|0,3:0|0:0,0:0:0:0:
297,153,158828,2,0,L|292:225,1,60.5000018463135,2|2,0:3|0:0,0:0:0:0:
474,357,159004,2,0,L|402:352,1,60.5000018463135,8|0,0:1|0:0,0:0:0:0:
237,291,159181,2,0,L|309:286,1,60.5000018463135,2|0,0:3|0:0,0:0:0:0:
122,46,159357,6,0,L|127:118,1,60.5000018463135,0|0,3:0|0:0,0:0:0:0:
215,153,159533,2,0,L|220:225,1,60.5000018463135,2|2,0:3|0:0,0:0:0:0:
38,357,159710,2,0,L|110:352,1,60.5000018463135,8|0,0:1|0:0,0:0:0:0:
275,291,159886,2,0,L|203:286,1,60.5000018463135,2|0,0:3|0:0,0:0:0:0:
375,180,160063,6,0,L|496:173,1,121.000003692627,0|2,3:0|0:3,0:0:0:0:
313,292,160328,2,0,L|306:171,1,121.000003692627
125,154,160592,2,0,L|53:149,1,60.5000018463135,2|0,0:3|0:0,0:0:0:0:
246,64,160769,6,0,L|125:64,1,121.000003692627,0|6,3:0|0:2,0:0:0:0:
387,64,161122,1,12,0:2:0:0:
125,64,161299,1,2,0:3:0:0:
387,64,161475,6,0,L|394:185,1,121.000003692627,0|2,3:0|0:3,0:0:0:0:
213,298,161739,2,0,L|334:291,1,121.000003692627
151,249,162004,2,0,L|146:177,1,60.5000018463135,2|0,0:3|0:0,0:0:0:0:
334,151,162181,6,0,L|213:144,1,121.000003692627,0|2,3:0|0:3,0:0:0:0:
32,311,162445,2,0,L|153:304,1,121.000003692627
334,151,162710,2,0,L|262:156,1,60.5000018463135,2|0,0:3|0:0,0:0:0:0:
455,183,162886,6,0,L|462:304,1,121.000003692627,0|2,3:0|0:3,0:0:0:0:
260,253,163151,2,0,L|253:374,1,121.000003692627
50,304,163416,2,0,L|55:244,1,60.5000018463135,2|0,0:3|0:0,0:0:0:0:
297,160,163592,5,0,3:0:0:0:
29,111,163769,2,0,L|128:112,1,60.5000018463135,2|0,0:3|0:0,0:0:0:0:
334,114,163945,1,8,0:1:0:0:
89,111,164122,1,2,0:3:0:0:
334,114,164298,6,0,L|433:115,1,60.5000018463135,0|0,3:0|0:0,0:0:0:0:
306,192,164475,2,0,L|301:132,1,60.5000018463135,2|2,0:3|0:0,0:0:0:0:
118,298,164651,2,0,L|58:303,1,60.5000018463135,8|0,0:1|0:0,0:0:0:0:
256,352,164828,2,0,L|316:357,1,60.5000018463135,2|0,0:3|0:0,0:0:0:0:
134,85,165004,6,0,L|35:86,1,60.5000018463135,0|0,3:0|0:0,0:0:0:0:
162,163,165181,2,0,L|167:103,1,60.5000018463135,2|2,0:3|0:0,0:0:0:0:
350,269,165357,2,0,L|410:274,1,60.5000018463135,8|0,0:1|0:0,0:0:0:0:
212,323,165534,2,0,L|152:328,1,60.5000018463135,2|0,0:3|0:0,0:0:0:0:
335,162,165710,6,0,L|342:41,1,121.000003692627,0|2,3:0|0:3,0:0:0:0:
177,162,165975,2,0,L|170:41,1,121.000003692627
341,41,166239,2,0,L|421:41,1,60.5000018463135,2|0,0:3|0:0,0:0:0:0:
168,161,166416,6,0,L|47:168,1,121.000003692627,0|6,3:0|0:2,0:0:0:0:
212,56,166681,1,0,0:0:0:0:
375,200,166769,2,0,L|496:207,1,121.000003692627,4|2,0:2|0:3,0:0:0:0:
208,352,167122,5,0,3:0:0:0:
179,307,167210,1,0,0:0:0:0:
195,256,167298,1,0,0:0:0:0:
245,237,167386,1,0,0:0:0:0:
162,216,167475,2,0,L|157:158,1,55,8|0,0:0|0:0,0:0:0:0:
324,78,167651,2,0,L|266:73,1,55,0|0,3:0|0:0,0:0:0:0:
436,336,167828,5,0,0:0:0:0:
464,291,167916,1,0,0:0:0:0:
448,240,168004,1,0,3:0:0:0:
398,221,168092,1,0,0:0:0:0:
482,200,168181,2,0,L|487:142,1,55,8|0,0:0|0:0,0:0:0:0:
320,62,168357,2,0,L|378:57,1,55,0|0,3:0|0:0,0:0:0:0:
210,184,168533,5,0,3:0:0:0:
149,172,168622,2,0,L|149:108,1,55
315,164,168798,1,0,0:0:0:0:
376,152,168887,2,0,L|376:88,1,55,8|0,0:0|0:0,0:0:0:0:
211,72,169063,2,0,L|147:72,1,55,0|0,3:0|0:0,0:0:0:0:
321,150,169239,5,0,0:0:0:0:
373,172,169327,1,0,0:0:0:0:
376,229,169416,1,8,0:0:0:0:
326,256,169503,1,8,0:0:0:0:
156,72,169592,1,8,0:0:0:0:
104,94,169680,1,0,0:0:0:0:
101,151,169768,1,0,3:0:0:0:
151,178,169856,1,0,0:0:0:0:
318,186,169945,6,0,L|321:51,1,110,2|0,0:0|3:0,0:0:0:0:
264,74,170181,1,0,3:0:0:0:
209,72,170239,1,0,3:0:0:0:
56,65,170298,2,0,L|392:79,1,263.99999194336,4|0,1:2|2:0,0:0:0:0:
252,247,170563,1,0,3:0:0:0:
185,209,170651,6,0,P|133:157|194:107,1,165,0|0,3:0|0:0,0:0:0:0:
368,237,171004,2,0,B|94:235|94:235|99:96,1,412.5,4|0,1:2|0:0,0:0:0:0:
285,68,171357,6,0,L|141:68,1,121.000003692627,2|2,0:0|0:0,0:0:0:0:
408,358,171710,2,0,L|264:358,1,121.000003692627,2|0,0:0|0:0,0:0:0:0:
104,358,171975,2,0,L|248:358,1,121.000003692627,2|0,0:0|0:0,0:0:0:0:
44,133,172239,1,0,3:0:0:0:
97,133,172298,1,0,3:0:0:0:
150,135,172357,1,0,3:0:0:0:
367,140,172416,1,8,3:2:0:0:
190,214,172769,5,4,0:0:0:0:
449,344,172945,2,0,L|467:215,1,121.000003692627,2|8,0:3|0:0,0:0:0:0:
298,246,173210,2,0,L|280:117,1,121.000003692627,2|0,0:3|0:0,0:0:0:0:
466,148,173475,2,0,L|333:134,1,121.000003692627,2|0,3:3|0:0,0:0:0:0:
405,125,173739,1,2,0:3:0:0:
314,107,173828,2,0,L|232:107,2,60.5000018463135,10|0|2,0:0|0:0|0:3,0:0:0:0:
457,244,174181,1,0,3:0:0:0:
63,344,174357,6,0,L|45:215,1,121.000003692627,2|8,0:3|0:0,0:0:0:0:
214,246,174622,2,0,L|232:117,1,121.000003692627,2|0,0:3|0:0,0:0:0:0:
46,148,174886,2,0,L|179:134,1,121.000003692627,2|0,3:3|0:0,0:0:0:0:
107,125,175151,1,2,0:3:0:0:
198,158,175239,2,0,L|280:158,2,60.5000018463135,8|0|2,0:0|0:0|0:3,0:0:0:0:
45,216,175593,1,0,3:0:0:0:
360,282,175769,6,0,L|234:274,1,121.000003692627,2|8,0:3|0:0,0:0:0:0:
67,163,176033,2,0,L|193:155,1,121.000003692627,2|0,0:3|0:0,0:0:0:0:
365,53,176298,2,0,P|425:116|342:157,1,181.500005538941,2|2,3:3|0:3,0:0:0:0:
311,152,176651,1,8,0:0:0:0:
460,226,176828,1,2,0:3:0:0:
314,263,177004,1,0,3:0:0:0:
68,329,177181,6,0,L|194:321,1,121.000003692627,2|8,0:3|0:0,0:0:0:0:
378,209,177445,2,0,L|252:201,1,121.000003692627,2|0,0:3|0:0,0:0:0:0:
159,235,177710,2,0,L|153:137,1,60.5000018463135,2|0,3:3|0:0,0:0:0:0:
381,121,177886,1,6,0:2:0:0:
230,106,178063,1,12,0:2:0:0:
472,229,178239,2,0,L|383:228,1,60.5000018463135,2|0,0:3|0:0,0:0:0:0:
188,213,178416,5,0,3:0:0:0:
447,343,178592,2,0,L|465:214,1,121.000003692627,2|8,0:3|0:0,0:0:0:0:
296,245,178857,2,0,L|278:116,1,121.000003692627,2|0,0:3|0:0,0:0:0:0:
464,147,179122,2,0,L|331:133,1,121.000003692627,2|0,3:3|0:0,0:0:0:0:
403,124,179386,1,2,0:3:0:0:
312,106,179475,2,0,L|230:106,2,60.5000018463135,8|0|2,0:0|0:0|0:3,0:0:0:0:
455,243,179828,1,0,3:0:0:0:
65,343,180004,6,0,L|47:214,1,121.000003692627,2|8,0:3|0:0,0:0:0:0:
216,245,180269,2,0,L|234:116,1,121.000003692627,2|0,0:3|0:0,0:0:0:0:
48,147,180533,2,0,L|181:133,1,121.000003692627,2|0,3:3|0:0,0:0:0:0:
109,124,180797,1,2,0:3:0:0:
200,106,180886,2,0,L|282:106,2,60.5000018463135,8|0|2,0:0|0:0|0:3,0:0:0:0:
57,243,181239,1,0,3:0:0:0:
300,223,181416,6,0,L|438:241,1,121.000003692627,2|8,0:3|0:0,0:0:0:0:
212,223,181681,2,0,L|74:241,1,121.000003692627,2|0,0:3|0:0,0:0:0:0:
301,325,181945,2,0,P|361:288|294:226,1,181.500005538941,2|2,3:3|0:3,0:0:0:0:
231,224,182298,1,8,0:0:0:0:
387,221,182475,1,2,0:3:0:0:
228,151,182651,1,0,3:0:0:0:
471,136,182828,6,0,L|332:127,1,121.000003692627,2|8,0:3|0:0,0:0:0:0:
173,47,183092,2,0,L|312:38,1,121.000003692627,2|0,0:3|0:0,0:0:0:0:
466,117,183357,1,0,3:0:0:0:
314,161,183533,1,6,0:2:0:0:
467,208,183710,1,12,0:2:0:0:
180,159,183886,2,0,L|114:159,1,60.5000018463135,2|0,0:3|0:0,0:0:0:0:
315,258,184063,5,4,3:2:0:0:
49,329,184239,2,0,L|178:306,1,121.000003692627,2|8,0:3|0:0,0:0:0:0:
340,237,184504,2,0,L|211:214,1,121.000003692627,2|0,0:3|0:0,0:0:0:0:
52,227,184769,2,0,L|52:94,1,121.000003692627,2|0,3:0|0:0,0:0:0:0:
110,92,185033,1,2,0:3:0:0:
203,62,185122,1,8,0:0:0:0:
142,61,185210,1,0,0:0:0:0:
81,61,185298,1,2,0:3:0:0:
213,61,185475,1,0,3:0:0:0:
463,329,185651,6,0,L|334:306,1,121.000003692627,0|8,0:0|0:0,0:0:0:0:
172,237,185916,2,0,L|301:214,1,121.000003692627,2|0,0:3|0:0,0:0:0:0:
460,227,186181,2,0,L|460:94,1,121.000003692627,2|0,3:0|0:0,0:0:0:0:
402,92,186445,1,2,0:3:0:0:
309,62,186534,1,8,0:0:0:0:
370,61,186622,1,0,0:0:0:0:
431,61,186710,1,2,0:3:0:0:
299,61,186887,1,0,3:0:0:0:
49,329,187063,6,0,L|178:306,1,121.000003692627,2|8,0:3|0:0,0:0:0:0:
340,237,187328,2,0,L|211:214,1,121.000003692627,2|0,0:3|0:0,0:0:0:0:
49,197,187592,2,0,P|64:123|168:81,1,181.500005538941,2|2,3:3|0:3,0:0:0:0:
234,79,187945,1,8,0:0:0:0:
75,106,188122,1,2,0:3:0:0:
225,103,188298,1,0,3:0:0:0:
472,210,188475,6,0,L|483:73,1,121.000003692627,2|8,0:3|0:0,0:0:0:0:
421,88,188739,1,0,0:0:0:0:
359,87,188828,1,2,0:3:0:0:
208,91,189004,1,0,3:0:0:0:
472,263,189181,1,6,0:2:0:0:
208,91,189357,1,12,0:2:0:0:
364,86,189533,1,2,0:3:0:0:
107,320,189710,5,4,0:0:0:0:
56,287,189798,1,0,0:0:0:0:
39,228,189886,1,0,0:0:0:0:
62,171,189975,1,0,0:0:0:0:
276,192,190063,2,0,L|205:192,1,60.5000018463135,8|0,2:0|0:0,0:0:0:0:
58,88,190239,2,0,L|141:91,1,60.5000018463135
307,288,190416,5,0,3:0:0:0:
367,289,190504,1,0,0:0:0:0:
427,290,190592,1,0,0:0:0:0:
277,205,190681,1,0,0:0:0:0:
337,206,190769,1,8,0:0:0:0:
397,207,190857,1,0,0:0:0:0:
245,122,190945,1,0,0:0:0:0:
305,123,191033,1,0,3:0:0:0:
144,272,191122,5,4,0:0:0:0:
93,238,191210,1,0,0:0:0:0:
75,180,191298,1,0,0:0:0:0:
107,129,191386,1,0,0:0:0:0:
299,42,191475,2,0,L|204:42,1,60.5000018463135,8|0,0:0|0:0,0:0:0:0:
442,158,191651,2,0,L|382:158,1,60.5000018463135
133,341,191828,6,0,L|127:270,1,60.5000018463135,0|0,3:0|0:0,0:0:0:0:
289,206,192004,2,0,L|213:206,1,60.5000018463135
400,207,192181,2,0,L|479:207,1,60.5000018463135,8|0,0:0|0:0,0:0:0:0:
201,118,192357,2,0,L|280:118,1,60.5000018463135,0|0,0:0|3:0,0:0:0:0:
412,349,192533,5,4,0:0:0:0:
467,323,192622,1,0,0:0:0:0:
481,264,192710,1,0,0:0:0:0:
460,207,192798,1,0,0:0:0:0:
228,273,192886,2,0,L|168:274,1,60.5000018463135,8|0,0:0|0:0,0:0:0:0:
424,124,193063,2,0,L|505:123,1,60.5000018463135
229,186,193239,5,4,0:0:0:0:
173,161,193328,1,0,0:0:0:0:
154,103,193416,1,0,0:0:0:0:
177,47,193504,1,0,0:0:0:0:
352,69,193592,1,8,0:0:0:0:
385,68,193636,1,0,3:0:0:0:
385,68,193681,1,0,3:0:0:0:
352,69,193725,1,0,3:0:0:0:
160,69,193769,1,0,3:0:0:0:
127,68,193813,1,0,3:0:0:0:
127,68,193858,1,0,3:0:0:0:
160,69,193902,1,0,3:0:0:0:
351,153,193945,6,0,L|474:155,1,110,4|0,0:0|0:0,0:0:0:0:
293,314,194298,2,0,L|308:234,1,55,8|0,0:0|0:0,0:0:0:0:
389,276,194475,2,0,L|404:196,1,55
204,154,194651,2,0,L|281:153,1,55,2|0,0:0|0:0,0:0:0:0:
434,291,194828,2,0,L|511:290,1,55,0|2,0:0|0:0,0:0:0:0:
256,254,195004,1,8,0:0:0:0:
401,254,195181,1,0,0:0:0:0:
111,380,195357,6,0,P|91:342|371:26,1,563.062474225046,4|0,0:0|0:0,0:0:0:0:
366,24,196769,2,0,B|84:73|84:73|361:107,1,563.062474225046,0|0,3:0|0:0,0:0:0:0:
358,106,198181,6,0,P|310:480|282:93,1,1135.06244804096,0|0,3:0|0:0,0:0:0:0:
276,70,201004,6,0,P|332:83|200:375,1,563.062474225046,0|0,3:0|0:0,0:0:0:0:
202,376,202416,2,0,B|488:354|488:354|227:252,1,563.062474225046,0|0,3:0|0:0,0:0:0:0:
230,253,203828,6,0,B|370:290|503:158|461:-11|336:-77|231:-50|231:-49|231:-49|231:-49|231:-49|231:-49|371:-86|503:47|460:216|335:281|230:253,1,1144.0593087758,0|2,3:0|0:0,0:0:0:0:
455,313,207004,5,2,0:0:0:0:
458,219,207180,1,0,0:0:0:0:
462,126,207357,2,0,L|259:126,1,187.000003566742,2|2,0:0|0:0,0:0:0:0:
372,49,207886,1,0,0:0:0:0:
208,242,208063,6,0,L|48:242,2,140.250002675057,2|2|2,0:0|0:0|0:0,0:0:0:0:
109,338,208769,2,0,P|46:286|110:236,1,187.000003566742,2|2,0:0|0:0,0:0:0:0:
382,235,209475,1,2,0:0:0:0:
211,384,209828,5,2,0:0:0:0:
208,290,210004,1,0,0:0:0:0:
204,197,210181,2,0,L|407:197,1,187.000003566742,2|2,0:0|0:0,0:0:0:0:
294,120,210710,1,0,0:0:0:0:
457,46,210886,6,0,L|313:46,2,140.250002675057,2|2|2,0:0|0:0|0:0,0:0:0:0:
363,174,211592,2,0,P|300:122|364:72,1,187.000003566742,2|2,0:0|0:0,0:0:0:0:
98,69,212298,1,2,0:0:0:0:
279,145,212651,6,0,L|407:145,1,93.500001783371,2|0,0:0|0:0,0:0:0:0:
279,145,213004,2,0,P|216:93|280:43,1,187.000003566742,2|2,0:0|0:0,0:0:0:0:
382,47,213533,1,0,0:0:0:0:
218,225,213710,6,0,L|74:225,2,140.250002675057,2|2|2,0:0|0:0|0:0,0:0:0:0:
120,282,214416,2,0,P|57:230|121:180,1,187.000003566742,2|2,0:0|0:0,0:0:0:0:
389,178,215122,1,2,0:0:0:0:
119,99,215475,6,0,L|212:99,1,93.500001783371,2|0,0:0|0:0,0:0:0:0:
336,128,215828,2,0,P|399:76|335:26,1,187.000003566742,2|2,0:0|0:0,0:0:0:0:
186,18,216357,1,0,0:0:0:0:
435,220,216533,5,2,0:0:0:0:
294,91,216710,1,2,0:3:0:0:
291,114,216754,1,2,0:3:0:0:
289,137,216798,1,2,0:3:0:0:
287,160,216842,1,2,0:3:0:0:
285,184,216886,1,2,0:3:0:0:
145,271,217063,1,0,0:0:0:0:
308,247,217239,6,0,L|317:337,1,46.7500008916855,2|0,0:3|0:0,0:0:0:0:
230,334,217416,2,0,L|221:424,1,46.7500008916855,2|0,0:3|0:0,0:0:0:0:
431,116,217592,2,0,L|501:117,1,52.2499986047745,2|0,3:2|3:0,3:0:0:0:
111,240,217945,6,0,P|38:191|67:105,1,165,0|0,1:0|0:0,0:0:0:0:
122,122,218298,1,0,0:0:0:0:
255,121,218475,1,0,1:0:0:0:
122,122,218651,1,0,0:0:0:0:
85,165,218695,2,0,B|70:175|70:175|70:157,2,27.5
121,205,218828,1,0,0:0:0:0:
256,208,219004,2,0,L|146:211,1,110,0|0,1:0|0:0,0:0:0:0:
464,182,219357,5,0,0:0:0:0:
350,182,219533,2,0,P|303:262|412:310,1,220,0|0,1:0|0:0,0:0:0:0:
228,272,220063,1,0,1:0:0:0:
191,315,220107,2,0,B|176:325|176:325|176:307,2,27.5
227,355,220240,1,0,0:0:0:0:
366,315,220416,2,0,P|417:328|486:300,1,110,2|0,2:0|3:0,0:0:0:0:
123,325,220769,6,0,P|44:293|67:195,1,165,4|0,1:2|0:0,0:0:0:0:
107,197,221122,1,0,0:0:0:0:
273,197,221298,1,0,1:0:0:0:
107,197,221475,1,0,0:0:0:0:
70,240,221519,2,0,B|55:250|55:250|55:232,2,27.5
106,280,221652,1,0,0:0:0:0:
246,351,221828,2,0,L|247:232,1,110,0|0,1:0|0:0,0:0:0:0:
97,243,222181,1,0,0:0:0:0:
404,197,222357,5,0,1:0:0:0:
470,222,222446,2,0,P|462:300|389:325,1,165,0|0,2:2|3:0,0:0:0:0:
266,147,222886,1,0,1:0:0:0:
229,190,222930,2,0,B|214:200|214:200|214:182,2,27.5
265,230,223063,1,0,0:0:0:0:
387,224,223239,1,0,3:0:0:0:
230,316,223416,2,0,L|304:316,1,55,0|0,3:0|3:0,3:0:0:0:
469,294,223592,6,0,L|331:275,1,115.49999647522,4|0,3:2|0:0,0:0:0:0:
418,280,223857,1,0,0:0:0:0:
221,251,223945,2,0,L|221:110,1,115.49999647522,8|0,0:2|0:0,0:0:0:0:
290,135,224210,1,0,0:0:0:0:
39,177,224298,6,0,L|177:158,1,115.49999647522,8|0,0:0|0:0,0:0:0:0:
88,161,224563,1,0,0:0:0:0:
301,302,224651,2,0,L|301:161,1,115.49999647522,8|0,2:2|3:0,0:0:0:0:
213,186,224916,1,0,3:0:0:0:
417,216,225004,6,0,P|471:175|390:111,1,173.24999471283,4|0,0:0|0:0,0:0:0:0:
332,104,225357,1,8,0:0:0:0:
492,102,225533,1,0,0:0:0:0:
134,227,225710,6,0,P|78:182|155:123,1,173.24999471283,8|0,0:0|0:0,0:0:0:0:
333,186,226063,1,8,0:0:0:0:
183,189,226239,1,2,0:3:0:0:
448,302,226416,5,4,0:0:0:0:
303,233,226592,1,2,0:3:0:0:
357,231,226681,1,0,0:0:0:0:
410,229,226769,1,0,1:0:0:0:
265,154,226945,1,2,0:3:0:0:
323,152,227034,1,0,0:0:0:0:
67,249,227122,5,4,1:2:0:0:
217,176,227298,1,2,0:3:0:0:
153,173,227387,1,0,0:0:0:0:
91,171,227475,1,0,1:0:0:0:
241,96,227651,1,2,0:3:0:0:
178,94,227740,1,0,3:0:0:0:
392,306,227828,6,0,L|402:218,1,57.7499982376099,0|0,1:0|0:0,0:0:0:0:
308,305,228004,2,0,L|318:217,1,57.7499982376099,2|0,0:0|0:0,0:0:0:0:
120,306,228181,2,0,L|110:218,1,57.7499982376099,0|0,1:0|0:0,0:0:0:0:
204,305,228357,2,0,L|194:217,1,57.7499982376099,2|0,0:0|0:0,0:0:0:0:
394,175,228533,6,0,L|384:87,1,57.7499982376099,0|0,1:0|0:0,0:0:0:0:
124,117,228710,2,0,L|118:175,1,57.7499982376099,0|0,1:0|0:0,0:0:0:0:
405,258,228886,5,0,3:0:0:0:
366,258,228945,1,0,3:0:0:0:
327,257,229004,1,0,3:0:0:0:
171,258,229063,1,0,3:0:0:0:
132,258,229122,1,0,3:0:0:0:
93,257,229181,1,0,3:0:0:0:
407,346,229239,6,0,P|491:284|356:102,1,346.49998942566,0|0,1:0|3:0,0:0:0:0:
272,205,229945,2,0,L|495:205,1,220,2|0,1:3|3:0,0:0:0:0:
30,269,230651,6,0,L|45:192,1,55,0|0,3:0|3:0,3:0:0:0:
256,192,230828,1,0,3:0:0:0:
256,192,231357,1,0,3:3:0:0:
395,100,231533,1,0,3:0:0:0:
431,100,231592,1,0,3:0:0:0:
395,100,231651,1,0,3:0:0:0:
167,106,231710,1,8,1:2:0:0:
309,276,232063,6,0,L|324:209,2,55,4|0|0,0:0|0:0|0:3,0:0:0:0:
199,275,232328,2,0,L|215:208,2,55,2|0|0,0:0|0:0|0:0,0:0:0:0:
91,273,232592,2,0,L|107:206,1,55,2|0,0:0|0:0,0:0:0:0:
375,126,232769,6,0,L|390:59,2,55,2|0|0,0:0|0:0|0:3,0:0:0:0:
266,125,233034,2,0,L|281:58,2,55,2|0|0,0:0|0:0|0:0,0:0:0:0:
157,123,233298,2,0,L|173:56,1,55,2|0,0:0|0:0,0:0:0:0:
418,227,233475,6,0,L|478:219,1,55,2|0,0:0|0:0,0:0:0:0:
418,227,233651,2,0,L|478:219,1,55,2|0,0:0|0:0,0:0:0:0:
246,283,233828,2,0,L|186:275,1,55,2|0,0:0|0:0,0:0:0:0:
246,283,234004,2,0,L|186:275,1,55,2|0,0:0|0:0,0:0:0:0:
439,323,234181,6,0,L|368:323,1,65.9999979858399,2|0,0:0|0:0,0:0:0:0:
201,239,234357,2,0,L|130:239,1,65.9999979858399,2|0,3:0|3:0,3:0:0:0:
348,136,234533,2,0,L|277:136,1,65.9999979858399,4|0,1:2|2:0,0:0:0:0:
110,108,234710,2,0,L|64:107,3,32.99999899292,0|0|0|0,3:0|3:0|3:0|3:0,3:0:0:0:
291,142,234886,5,0,3:0:0:0:
357,172,234975,1,0,0:0:0:0:
379,233,235063,1,2,0:3:0:0:
344,289,235151,1,0,0:0:0:0:
117,351,235239,2,0,L|117:248,1,65.9999979858399,8|2,0:1|0:0,0:0:0:0:
341,362,235416,2,0,L|263:362,1,65.9999979858399,2|0,0:3|0:0,0:0:0:0:
128,57,235592,5,0,3:0:0:0:
63,84,235681,1,0,0:0:0:0:
41,145,235769,1,2,0:3:0:0:
76,201,235857,1,2,0:0:0:0:
302,266,235945,2,0,L|302:163,1,65.9999979858399,8|0,0:1|0:0,0:0:0:0:
78,277,236122,2,0,L|156:277,1,65.9999979858399,2|0,0:3|0:0,0:0:0:0:
349,324,236298,6,0,L|498:323,1,131.99999597168,0|2,3:0|0:3,0:0:0:0:
287,238,236563,2,0,L|436:237,1,131.99999597168
235,154,236828,2,0,L|336:153,1,65.9999979858399,2|0,0:3|0:0,0:0:0:0:
49,80,237004,1,0,3:0:0:0:
193,75,237181,1,6,2:2:0:0:
461,82,237357,1,12,2:2:0:0:
317,77,237534,1,2,0:3:0:0:
62,305,237710,6,0,L|49:160,1,131.99999597168,0|2,3:0|0:3,0:0:0:0:
251,241,237975,2,0,L|264:96,1,131.99999597168
466,193,238239,2,0,L|388:192,1,65.9999979858399,2|0,0:3|0:0,0:0:0:0:
192,70,238416,6,0,L|53:71,1,131.99999597168,0|2,3:0|0:3,0:0:0:0:
247,176,238681,2,0,L|386:177,1,131.99999597168
194,304,238945,2,0,L|109:305,1,65.9999979858399,2|0,0:3|0:0,0:0:0:0:
437,308,239122,6,0,L|450:163,1,131.99999597168,0|2,3:0|0:3,0:0:0:0:
248,244,239387,2,0,L|235:99,1,131.99999597168
33,196,239651,2,0,L|111:195,1,65.9999979858399,2|0,0:3|0:0,0:0:0:0:
333,186,239828,5,0,3:0:0:0:
75,108,240004,2,0,L|153:107,1,65.9999979858399,2|0,0:3|0:0,0:0:0:0:
375,98,240181,1,8,0:1:0:0:
223,100,240357,1,2,0:3:0:0:
466,281,240533,5,0,3:0:0:0:
460,214,240622,1,0,0:0:0:0:
418,163,240710,1,2,0:3:0:0:
353,147,240798,1,2,0:0:0:0:
164,214,240886,2,0,L|266:214,1,65.9999979858399,8|0,0:1|0:0,0:0:0:0:
398,328,241063,2,0,L|500:328,1,65.9999979858399,2|0,0:3|0:0,0:0:0:0:
158,258,241239,5,0,3:0:0:0:
164,191,241328,1,0,0:0:0:0:
206,140,241416,1,2,0:3:0:0:
271,124,241504,1,2,0:0:0:0:
460,191,241592,2,0,L|358:191,1,65.9999979858399,8|0,0:1|0:0,0:0:0:0:
226,318,241769,2,0,L|292:318,1,65.9999979858399,2|0,0:3|0:0,0:0:0:0:
136,257,241945,6,0,P|61:237|82:130,1,197.99999395752,0|0,3:0|0:0,0:0:0:0:
150,98,242298,2,0,L|9:96,2,131.99999597168,2|2|2,0:2|0:3|0:0,0:0:0:0:
451,242,242828,2,0,L|18:238,1,307.999990600586,8|8,0:0|0:0,0:0:0:0:
380,272,243181,2,0,L|382:364,1,65.9999979858399,0|0,3:0|3:0,3:0:0:0:
55,272,243357,6,0,L|206:264,1,131.99999597168,0|0,1:0|0:0,0:0:0:0:
398,138,243622,2,0,L|247:130,1,131.99999597168,0|0,1:0|0:0,0:0:0:0:
48,80,243886,2,0,L|32:173,1,65.9999979858399,2|0,1:3|0:0,0:0:0:0:
422,340,244063,6,0,L|271:332,1,131.99999597168,0|0,1:0|0:0,0:0:0:0:
79,206,244328,2,0,L|230:198,1,131.99999597168,0|0,1:0|0:0,0:0:0:0:
429,148,244592,2,0,L|445:241,1,65.9999979858399,2|0,1:3|0:0,0:0:0:0:
141,337,244769,6,0,L|292:329,1,131.99999597168,0|0,1:0|0:0,0:0:0:0:
484,203,245034,2,0,L|333:195,1,131.99999597168,0|0,1:0|0:0,0:0:0:0:
134,145,245298,2,0,L|234:136,1,65.9999979858399,2|0,3:3|3:0,1:0:0:0:
483,284,245475,1,0,1:0:0:0:
135,211,245651,5,0,3:0:0:0:
183,210,245710,1,0,3:0:0:0:
231,209,245769,1,0,3:0:0:0:
483,284,245828,2,0,L|116:284,1,307.999990600586,8|0,1:2|2:0,0:0:0:0:
465,197,246181,6,0,L|464:96,1,65.9999979858399,0|0,3:0|0:0,0:0:0:0:
382,71,246357,2,0,L|469:69,1,65.9999979858399,2|2,0:3|0:0,0:0:0:0:
191,176,246533,2,0,L|278:176,1,65.9999979858399,8|0,2:1|0:0,0:0:0:0:
471,303,246710,2,0,L|397:302,1,65.9999979858399,2|0,0:3|0:0,0:0:0:0:
47,197,246886,6,0,L|48:96,1,65.9999979858399,0|0,3:0|0:0,0:0:0:0:
131,71,247063,2,0,L|44:69,1,65.9999979858399,2|2,0:3|0:0,0:0:0:0:
321,176,247239,2,0,L|234:176,1,65.9999979858399,8|0,0:1|0:0,0:0:0:0:
41,303,247416,2,0,L|115:302,1,65.9999979858399,2|0,0:3|0:0,0:0:0:0:
417,348,247592,6,0,L|417:204,1,131.99999597168,0|2,3:0|0:3,0:0:0:0:
189,96,247857,2,0,L|339:95,1,131.99999597168
116,252,248122,2,0,L|204:251,1,65.9999979858399,2|0,0:3|0:0,0:0:0:0:
345,332,248298,5,0,3:0:0:0:
482,335,248475,1,6,0:2:0:0:
167,332,248651,1,12,0:2:0:0:
30,335,248828,1,2,0:3:0:0:
348,234,249004,6,0,L|496:235,1,131.99999597168,0|2,3:0|0:3,0:0:0:0:
294,125,249269,2,0,L|150:124,1,131.99999597168
349,29,249533,2,0,L|279:29,1,65.9999979858399,2|0,0:3|0:0,0:0:0:0:
60,336,249710,6,0,L|45:172,1,131.99999597168,0|2,3:0|0:3,0:0:0:0:
250,264,249975,2,0,L|265:100,1,131.99999597168
466,271,250239,2,0,L|363:270,1,65.9999979858399,2|0,0:3|0:0,0:0:0:0:
200,180,250416,6,0,L|355:180,1,131.99999597168,0|2,3:0|0:3,0:0:0:0:
138,102,250681,2,0,L|293:102,1,131.99999597168
68,20,250945,2,0,L|159:18,1,65.9999979858399,2|0,0:3|0:0,0:0:0:0:
436,130,251122,5,0,3:0:0:0:
170,299,251298,2,0,L|263:298,1,65.9999979858399,2|0,0:3|0:0,0:0:0:0:
471,233,251475,2,0,L|312:233,1,131.99999597168,8|2,0:1|0:3,0:0:0:0:
22,337,251828,6,0,L|102:337,1,65.9999979858399,0|0,3:0|0:0,0:0:0:0:
173,262,252004,2,0,L|93:262,1,65.9999979858399,2|2,0:3|0:0,0:0:0:0:
324,159,252181,2,0,L|244:159,1,65.9999979858399,8|0,0:1|0:0,0:0:0:0:
50,63,252357,2,0,L|130:63,1,65.9999979858399,2|0,0:3|0:0,0:0:0:0:
435,325,252533,6,0,L|355:325,1,65.9999979858399,0|0,3:0|0:0,0:0:0:0:
284,250,252709,2,0,L|364:250,1,65.9999979858399,2|2,0:3|0:0,0:0:0:0:
133,147,252886,2,0,L|213:147,1,65.9999979858399,8|0,0:1|0:0,0:0:0:0:
407,51,253062,2,0,L|327:51,1,65.9999979858399,2|0,0:3|0:0,0:0:0:0:
81,339,253239,6,0,L|69:188,1,131.99999597168,0|2,3:0|0:3,0:0:0:0:
230,333,253592,2,0,L|218:182,1,131.99999597168,2|2,0:2|0:3,0:0:0:0:
67,185,253945,1,2,0:0:0:0:
396,182,254122,2,0,L|18:185,1,330.000012588501,8|8,0:0|0:0,0:0:0:0:
189,183,254475,1,0,0:0:0:0:
462,297,254651,5,0,0:0:0:0:
456,236,254739,1,0,0:0:0:0:
417,188,254828,1,0,0:0:0:0:
357,175,254916,1,0,0:0:0:0:
195,176,255004,2,0,L|194:81,1,55,8|0,0:0|0:0,0:0:0:0:
274,111,255181,2,0,L|368:112,1,55,0|0,3:0|0:0,0:0:0:0:
113,283,255357,5,0,0:0:0:0:
60,252,255445,1,0,0:0:0:0:
47,193,255533,1,8,0:0:0:0:
81,142,255622,1,8,0:0:0:0:
245,210,255710,2,0,L|336:210,1,55
78,63,255886,2,0,L|169:63,1,55,0|0,3:0|0:0,0:0:0:0:
346,82,256063,6,0,L|361:148,2,55,0|0|0,3:0|0:0|0:0,0:0:0:0:
262,86,256328,2,0,L|277:152,2,55,0|8|0,0:0|0:0|0:0,0:0:0:0:
178,92,256592,2,0,L|193:158,1,55,0|0,3:0|0:0,0:0:0:0:
405,254,256769,5,0,0:0:0:0:
456,222,256857,1,0,0:0:0:0:
468,163,256945,1,8,0:0:0:0:
438,110,257033,1,8,0:0:0:0:
280,60,257122,2,0,L|348:59,1,55,8|0,0:0|0:0,0:0:0:0:
155,60,257298,2,0,L|223:59,1,55,0|0,3:0|0:0,0:0:0:0:
418,58,257475,5,2,0:0:0:0:
158,277,257828,2,0,L|473:275,1,307.999990600586,0|0,1:0|0:0,0:0:0:0:
456,209,258092,1,0,0:0:0:0:
275,170,258181,2,0,P|215:129|293:77,1,181.500005538941,2|0,0:0|0:0,0:0:0:0:
465,275,258533,2,0,L|158:277,1,307.999990600586,0|0,1:0|0:0,0:0:0:0:
467,178,258886,5,2,0:0:0:0:
334,182,259063,1,2,0:0:0:0:
467,178,259239,1,2,0:0:0:0:
226,74,259416,2,2,L|305:73,1,60.5000018463135,2|2,0:0|0:0,0:0:0:0:
49,221,259681,2,2,L|128:220,1,60.5000018463135
24,153,259857,2,2,L|24:77,1,60.5000018463135
186,89,260122,1,2,0:0:0:0:
473,150,260298,5,2,0:0:0:0:
315,152,260475,1,2,0:0:0:0:
473,150,260651,1,2,0:0:0:0:
192,233,260828,2,0,L|83:233,1,60.5000018463135,2|0,0:0|0:0,0:0:0:0:
375,65,261004,2,0,L|266:65,1,60.5000018463135,2|0,3:2|3:0,3:0:0:0:
133,124,261181,1,0,3:0:0:0:
176,125,261239,1,0,3:0:0:0:
220,126,261298,1,0,3:0:0:0:
473,134,261357,1,8,1:2:0:0:
39,134,261710,6,0,L|221:133,1,131.99999597168,0|2,3:0|0:3,0:0:0:0:
364,305,261975,2,0,L|182:304,1,131.99999597168
423,184,262239,2,0,L|429:112,1,65.9999979858399,2|0,0:3|0:2,0:2:0:0:
235,151,262416,6,0,L|417:150,1,131.99999597168,0|2,3:0|0:3,0:0:0:0:
174,250,262681,2,0,L|356:249,1,131.99999597168
115,91,262945,2,0,L|43:85,1,65.9999979858399,2|0,0:3|0:0,0:0:0:0:
242,322,263122,6,0,L|60:321,1,131.99999597168,0|2,3:0|0:3,0:0:0:0:
297,132,263386,2,0,L|307:278,1,131.99999597168
496,89,263651,2,0,L|424:83,1,65.9999979858399,2|0,0:3|0:0,0:0:0:0:
237,250,263828,6,0,L|309:244,1,65.9999979858399,0|0,3:0|0:0,0:0:0:0:
112,183,264004,2,0,L|40:177,1,65.9999979858399,2|0,0:3|0:0,0:0:0:0:
239,114,264181,2,0,L|93:124,1,131.99999597168,8|2,0:1|0:3,0:0:0:0:
364,293,264533,6,0,L|496:303,1,131.99999597168,0|2,3:0|0:3,0:0:0:0:
303,306,264798,2,0,L|293:174,1,131.99999597168
487,89,265063,2,0,L|415:83,1,65.9999979858399,2|0,0:3|0:0,0:0:0:0:
230,134,265239,6,0,L|361:143,1,131.99999597168,0|2,3:0|0:3,0:0:0:0:
366,77,265504,1,0,0:0:0:0:
175,43,265592,2,0,L|247:37,1,65.9999979858399,8|0,0:1|0:0,0:0:0:0:
48,287,265769,2,0,L|42:215,1,65.9999979858399,2|0,0:3|0:0,0:0:0:0:
233,202,265945,6,0,L|242:333,1,131.99999597168,0|2,3:0|0:3,0:0:0:0:
49,120,266210,2,0,L|180:110,1,131.99999597168
368,38,266475,2,0,L|296:32,1,65.9999979858399,2|0,0:3|0:0,0:0:0:0:
487,211,266651,6,0,L|496:342,1,131.99999597168,0|6,3:0|0:2,0:0:0:0:
316,342,266916,1,0,0:0:0:0:
138,199,267004,2,0,L|147:330,1,131.99999597168,12|2,0:2|0:3,0:0:0:0:
230,326,267269,1,0,0:0:0:0:
32,131,267357,6,0,L|163:122,1,131.99999597168,0|2,3:0|0:3,0:0:0:0:
357,231,267622,2,0,L|226:222,1,131.99999597168
32,131,267886,2,0,L|26:203,1,65.9999979858399,2|0,0:3|0:0,0:0:0:0:
220,335,268063,6,0,L|89:326,1,131.99999597168,0|2,3:0|0:3,0:0:0:0:
282,335,268328,2,0,L|413:326,1,131.99999597168
223,141,268592,2,0,L|295:147,1,65.9999979858399,2|0,0:3|0:0,0:0:0:0:
482,49,268769,6,0,L|351:40,1,131.99999597168,0|2,3:0|0:3,0:0:0:0:
159,210,269033,2,0,L|290:201,1,131.99999597168
97,78,269298,2,0,L|25:84,1,65.9999979858399,2|0,0:3|0:0,0:0:0:0:
224,87,269475,6,0,L|296:93,1,65.9999979858399,0|0,3:0|0:0,0:0:0:0:
481,209,269651,2,0,L|409:215,1,65.9999979858399,2|0,0:3|0:0,0:0:0:0:
224,87,269828,2,0,L|355:78,1,131.99999597168,8|2,0:1|0:3,0:0:0:0:
79,203,270181,6,0,L|210:194,1,131.99999597168,0|2,3:0|0:3,0:0:0:0:
20,366,270445,2,0,L|11:235,1,131.99999597168
204,231,270710,2,0,L|132:237,1,65.9999979858399,2|0,0:3|0:0,0:0:0:0:
329,166,270886,6,0,L|198:175,1,131.99999597168,0|2,3:0|0:3,0:0:0:0:
193,109,271151,1,0,0:0:0:0:
384,75,271239,2,0,L|312:69,1,65.9999979858399,8|0,0:1|0:0,0:0:0:0:
128,75,271416,2,0,L|200:69,1,65.9999979858399,2|0,0:3|0:0,0:0:0:0:
384,248,271592,6,0,L|393:117,1,131.99999597168,0|2,3:0|0:3,0:0:0:0:
198,175,271857,2,0,L|329:166,1,131.99999597168
136,55,272122,2,0,L|208:49,1,65.9999979858399,2|0,0:3|0:0,0:0:0:0:
393,237,272298,6,0,L|262:228,1,131.99999597168,0|6,3:0|0:2,0:0:0:0:
68,215,272563,1,0,0:0:0:0:
262,228,272651,2,0,L|393:237,1,131.99999597168,12|2,0:2|0:3,0:0:0:0:
317,280,272916,1,0,0:0:0:0:
69,327,273004,6,0,L|54:151,1,131.99999597168,4|2,0:0|0:3,0:0:0:0:
278,122,273269,2,0,L|121:111,1,131.99999597168
344,213,273533,2,0,L|443:221,1,65.9999979858399,2|0,0:3|0:0,0:0:0:0:
150,294,273710,6,0,L|298:293,1,131.99999597168,0|2,3:0|0:3,0:0:0:0:
493,126,273975,2,0,L|345:125,1,131.99999597168
154,49,274239,2,0,L|63:47,1,65.9999979858399,2|0,0:3|0:0,0:0:0:0:
312,317,274416,6,0,L|320:140,1,131.99999597168,0|2,3:0|0:3,0:0:0:0:
138,129,274681,2,0,L|296:128,1,131.99999597168
79,214,274945,2,0,L|198:214,1,65.9999979858399,2|0,0:3|0:0,0:0:0:0:
316,279,275122,6,0,L|397:279,1,65.9999979858399,0|0,3:0|0:0,0:0:0:0:
178,135,275298,2,0,L|259:135,1,65.9999979858399,2|0,0:3|0:0,0:0:0:0:
455,195,275475,2,0,L|464:37,1,131.99999597168,8|2,0:1|0:3,0:0:0:0:
162,55,275828,6,0,L|8:63,1,131.99999597168,0|2,3:0|0:3,0:0:0:0:
229,166,276092,2,0,L|383:174,1,131.99999597168
166,274,276357,2,0,L|255:278,1,65.9999979858399,2|0,0:3|0:0,0:0:0:0:
446,328,276533,6,0,L|446:152,1,131.99999597168,0|2,3:0|0:3,0:0:0:0:
379,195,276798,1,0,0:0:0:0:
203,181,276886,2,0,L|202:103,1,65.9999979858399
395,90,277063,2,0,L|491:88,1,65.9999979858399,2|0,0:3|0:0,0:0:0:0:
214,305,277239,6,0,L|66:305,1,131.99999597168,0|2,3:0|0:3,0:0:0:0:
272,195,277504,2,0,L|124:195,1,131.99999597168
318,277,277769,2,0,L|425:277,1,65.9999979858399,2|0,0:3|0:0,0:0:0:0:
176,315,277945,6,0,L|175:237,1,65.9999979858399,0|0,3:0|0:0,0:0:0:0:
424,192,278122,2,0,L|60:190,1,307.999990600586,6|12,0:2|0:2,0:2:0:0:
251,127,278475,2,0,L|360:127,1,65.9999979858399,2|0,3:3|3:0,3:0:0:0:
139,354,278651,6,0,L|130:281,1,65.9999979858399,4|0,0:0|0:0,0:0:0:0:
34,297,278827,2,0,L|25:224,1,65.9999979858399,2|0,0:3|0:0,0:0:0:0:
139,222,279004,2,0,L|148:149,1,65.9999979858399,8|0,0:1|0:0,0:0:0:0:
244,165,279180,2,0,L|253:92,1,65.9999979858399,2|0,0:3|0:0,0:0:0:0:
139,354,279357,2,0,L|130:281,1,65.9999979858399
34,297,279533,2,0,L|25:224,1,65.9999979858399,2|0,0:3|0:0,0:0:0:0:
380,233,279710,6,0,L|294:228,1,65.9999979858399,8|0,0:1|0:0,0:0:0:0:
143,245,279886,2,0,L|57:240,1,65.9999979858399,2|0,0:3|0:0,0:0:0:0:
373,354,280062,6,0,L|382:281,1,65.9999979858399,4|0,0:0|0:0,0:0:0:0:
478,297,280239,2,0,L|487:224,1,65.9999979858399,2|0,0:3|0:0,0:0:0:0:
373,222,280415,2,0,L|364:149,1,65.9999979858399,8|0,0:1|0:0,0:0:0:0:
268,165,280592,2,0,L|259:92,1,65.9999979858399,2|0,0:3|0:0,0:0:0:0:
373,354,280768,2,0,L|382:281,1,65.9999979858399
478,297,280944,2,0,L|487:224,1,65.9999979858399,2|0,0:3|0:0,0:0:0:0:
143,259,281122,6,0,L|229:254,1,65.9999979858399,8|0,0:1|0:0,0:0:0:0:
372,252,281298,2,0,L|439:248,1,65.9999979858399,2|0,0:3|0:0,0:0:0:0:
191,83,281475,6,0,L|109:79,1,65.9999979858399,4|0,0:0|0:0,0:0:0:0:
321,83,281651,2,0,L|403:79,1,65.9999979858399,2|0,0:3|0:0,0:0:0:0:
100,165,281828,6,0,L|191:169,1,65.9999979858399,8|0,0:1|0:0,0:0:0:0:
412,165,282004,2,0,L|321:169,1,65.9999979858399,2|0,0:3|0:0,0:0:0:0:
133,268,282181,6,0,L|51:264,1,65.9999979858399,4|0,0:0|0:0,0:0:0:0:
379,268,282357,2,0,L|461:264,1,65.9999979858399,2|0,0:3|0:0,0:0:0:0:
105,359,282533,6,0,L|45:358,1,32.99999899292,8|0,2:1|0:0,0:0:0:0:
72,358,282622,2,0,L|105:359,1,32.99999899292
407,359,282710,2,0,L|467:358,1,32.99999899292,0|0,2:1|0:0,0:0:0:0:
439,358,282799,2,0,L|407:359,1,32.99999899292
256,263,282886,1,4,2:2:0:0:
267,175,283239,5,2,0:0:0:0:
329,175,283328,1,2,0:0:0:0:
267,175,283416,1,2,0:0:0:0:
329,175,283504,1,2,0:0:0:0:
110,282,283592,1,0,3:0:0:0:
184,282,283681,1,0,3:0:0:0:
445,356,283769,1,0,3:0:0:0:
396,356,283828,1,0,3:0:0:0:
348,357,283886,1,0,3:0:0:0:
167,197,283945,2,0,L|35:196,1,131.99999597168,8|0,0:0|0:0,0:0:0:0:
390,273,284298,6,0,P|444:252|453:176,1,110,0|0,3:0|0:0,0:0:0:0:
309,208,284651,2,0,P|255:187|246:111,1,110,8|0,0:0|0:0,0:0:0:0:
390,140,285004,1,0,3:0:0:0:
237,141,285181,1,0,0:0:0:0:
390,140,285357,2,0,P|444:119|453:43,1,110,8|0,0:0|0:0,0:0:0:0:
122,273,285710,6,0,P|68:252|59:176,1,110,0|0,3:0|0:0,0:0:0:0:
203,208,286063,2,0,P|257:187|266:111,1,110,8|0,0:0|0:0,0:0:0:0:
109,141,286416,1,0,3:0:0:0:
275,141,286593,1,4,0:0:0:0:
109,141,286769,2,0,P|55:120|46:44,1,110,12|0,0:0|0:0,0:0:0:0:
441,137,287122,6,0,L|455:270,1,110,0|0,3:0|0:0,0:0:0:0:
310,354,287475,2,0,P|364:333|373:257,1,110,8|0,0:0|0:0,0:0:0:0:
235,97,287828,2,0,L|221:230,1,110,0|0,3:0|0:0,0:0:0:0:
360,94,288181,2,0,L|374:227,1,110,8|0,0:0|0:0,0:0:0:0:
68,107,288533,6,0,L|54:240,1,110,0|0,3:0|0:0,0:0:0:0:
192,193,288886,2,0,L|206:326,1,110,8|0,0:0|0:0,0:0:0:0:
338,303,289239,1,0,3:0:0:0:
181,303,289416,1,4,0:0:0:0:
338,303,289592,2,0,P|392:282|401:206,1,110,12|0,0:0|0:0,0:0:0:0:
115,189,289945,6,0,P|61:168|52:92,1,110,0|0,3:0|0:0,0:0:0:0:
192,123,290298,2,0,P|246:102|255:26,1,110,8|0,0:0|0:0,0:0:0:0:
105,60,290651,2,0,L|107:194,1,110,0|0,3:0|0:0,0:0:0:0:
276,57,291004,2,0,P|255:106|204:123,1,110,8|0,0:0|0:0,0:0:0:0:
465,69,291357,6,0,L|473:192,1,110,0|0,3:0|0:0,0:0:0:0:
333,225,291710,2,0,P|353:274|404:291,1,110,8|0,0:0|0:0,0:0:0:0:
249,298,292063,1,0,3:0:0:0:
413,296,292239,1,4,0:0:0:0:
249,298,292416,2,0,P|228:347|177:364,1,110,12|0,0:0|0:0,0:0:0:0:
462,95,292769,6,0,L|471:232,1,110,0|0,3:0|0:0,0:0:0:0:
324,92,293122,2,0,L|315:229,1,110,8|0,0:0|0:0,0:0:0:0:
171,91,293475,2,0,L|180:228,1,110,0|0,3:0|0:0,0:0:0:0:
33,88,293828,2,0,L|24:225,1,110,8|0,0:0|0:0,0:0:0:0:
295,323,294181,6,0,P|345:305|366:256,1,110,0|0,3:0|0:0,0:0:0:0:
217,323,294533,2,0,P|166:305|145:256,1,110,8|0,0:0|0:0,0:0:0:0:
310,255,294886,1,0,3:0:0:0:
145,256,295063,1,4,0:0:0:0:
310,255,295239,2,0,P|360:237|381:188,1,110,12|0,0:0|0:0,0:0:0:0:
121,300,295592,6,0,P|52:279|30:183,3,165,4|2|2|2,0:0|0:0|0:0|0:0,0:0:0:0:
234,348,296651,2,0,L|234:230,1,110,8|0,0:0|0:0,0:0:0:0:
391,300,297004,6,0,P|460:279|482:183,3,165,2|2|2|2,0:0|0:0|0:0|0:0,0:0:0:0:
285,171,298063,2,0,L|285:53,1,110,8|0,0:0|0:0,0:0:0:0:
131,166,298416,6,0,P|151:89|226:62,3,165,2|2|2|2,0:0|0:0|0:0|0:0,0:0:0:0:
304,163,299475,1,8,0:0:0:0:
306,244,299651,1,0,2:0:0:0:
149,166,299828,6,0,P|169:89|244:62,3,165,2|2|2|2,0:0|0:0|0:0|0:0,0:0:0:0:
322,163,300887,1,8,0:0:0:0:
324,244,301063,1,0,0:0:0:0:
37,320,301239,5,4,0:0:0:0:
46,265,301328,1,0,0:0:0:0:
83,224,301416,1,0,0:0:0:0:
136,213,301504,1,0,0:0:0:0:
223,155,301592,2,0,L|158:155,1,55,8|0,0:0|0:0,0:0:0:0:
93,156,301769,2,0,L|93:77,1,55
307,225,301945,5,0,0:0:0:0:
355,198,302033,1,0,0:0:0:0:
368,144,302122,1,0,0:0:0:0:
347,93,302210,1,0,0:0:0:0:
266,54,302298,2,0,L|333:54,1,55,8|0,0:0|0:0,0:0:0:0:
403,51,302475,2,0,L|470:51,1,55
229,345,302651,5,4,0:0:0:0:
181,308,302739,1,0,0:0:0:0:
171,242,302828,1,0,0:0:0:0:
212,190,302916,1,0,0:0:0:0:
276,179,303004,1,8,0:0:0:0:
324,154,303092,1,0,0:0:0:0:
339,94,303181,1,0,0:0:0:0:
302,45,303269,1,0,0:0:0:0:
226,47,303357,6,0,L|156:49,1,55
263,123,303533,2,0,L|333:125,1,55
216,86,303710,2,0,L|146:88,1,55,8|0,0:0|0:0,0:0:0:0:
253,162,303886,2,0,L|323:164,1,55
124,326,304063,5,4,0:0:0:0:
65,296,304151,1,0,0:0:0:0:
52,231,304239,1,0,0:0:0:0:
84,172,304328,1,0,0:0:0:0:
264,240,304416,2,0,L|198:240,1,55,8|0,0:0|0:0,0:0:0:0:
131,167,304592,2,0,L|219:167,1,55
388,326,304769,5,4,0:0:0:0:
447,296,304857,1,0,0:0:0:0:
460,231,304945,1,0,0:0:0:0:
425,174,305034,1,0,0:0:0:0:
258,115,305122,2,0,L|225:115,6,27.5,0|0|0|0|0|0|0,3:0|3:0|3:0|3:0|3:0|3:0|3:0,3:0:0:0:
466,113,305475,5,0,1:0:0:0:
256,192,305563,12,0,306181,0:0:0:0:
421,195,306357,6,8,L|55:193,1,330.000012588501,8|8,1:2|1:2,1:2:0:0:
