osu file format v14

[General]
AudioFilename: Hitori Bocchi no Monologue (nenpulse bootleg remix).mp3
AudioLeadIn: 0
PreviewTime: 69710
Countdown: 0
SampleSet: Soft
StackLeniency: 0.7
Mode: 0
LetterboxInBreaks: 0
WidescreenStoryboard: 1

[Editor]
Bookmarks: 115239,118681,158298,208328,232328,236739,279710,286239
DistanceSpacing: 1
BeatDivisor: 8
GridSize: 8
TimelineZoom: 3.550003

[Metadata]
Title:Hitoribocchi no Monologue (nenpulse bootleg remix)
TitleUnicode:ひとりぼっちのモノローグ (nenpulse bootleg remix)
Artist:Morishita Chisaki, Tanaka Minami, Kito Akari, Kurose Yuuko
ArtistUnicode:森下千咲、田中美海、鬼頭明里、黒瀬ゆうこ
Creator:Raytoly
Version:Can We Be Friends?!
Source:ひとりぼっちの○○生活
Tags:Rhytoly Anime Japanese Opening OP Marumaru Seikatsu Hitori Bocchi's ○○ Lifestyle 一里ぼっち Hitori Bocchi 砂尾なこ Sunao Nako 本庄アル Honshou Aru ソトカ・ラキター Sotoka Rakita drum bass d'n'b
BeatmapID:2232950
BeatmapSetID:1049835

[Difficulty]
HPDrainRate:4.5
CircleSize:4
OverallDifficulty:9
ApproachRate:9.5
SliderMultiplier:3
SliderTickRate:1

[Events]
//Background and Video events
0,0,"bocchi and friends.jpg",0,0
//Break Periods
//Storyboard Layer 0 (Background)
//Storyboard Layer 1 (Fail)
//Storyboard Layer 2 (Pass)
//Storyboard Layer 3 (Foreground)
//Storyboard Layer 4 (Overlay)
//Storyboard Sound Samples

[TimingPoints]
534,352.941176470588,4,2,1,90,1,0
534,-166.666666666667,4,2,1,90,0,0
11298,-66.6666666666667,4,2,80,90,0,0
11475,-66.6666666666667,4,2,50,90,0,0
11651,-66.6666666666667,4,2,80,90,0,0
11828,-125,4,2,1,90,0,0
17122,-111.111111111111,4,2,1,90,0,0
17298,-105.263157894737,4,2,1,90,0,0
17475,-100,4,2,1,90,0,0
21357,-66.6666666666667,4,2,1,90,0,0
22063,-100,4,2,80,90,0,0
22416,-100,4,2,1,90,0,0
22769,-100,4,2,50,90,0,0
23122,-100,4,2,1,100,0,1
25416,-80,4,2,1,100,0,1
25769,-100,4,2,1,100,0,1
28239,-80,4,2,1,100,0,1
28592,-100,4,2,1,100,0,1
31063,-80,4,2,1,100,0,1
31416,-100,4,2,1,100,0,1
33886,-80,4,2,1,100,0,1
34239,-100,4,2,1,100,0,1
36710,-80,4,2,1,100,0,1
37063,-100,4,2,1,100,0,1
39533,-80,4,2,1,100,0,1
39886,-100,4,2,1,100,0,1
42357,-80,4,2,1,100,0,1
42710,-100,4,2,1,100,0,1
43945,-66.6666666666667,4,2,1,100,0,1
44651,-100,4,2,1,100,0,1
45357,-100,4,2,50,100,0,1
45710,-100,4,2,1,90,0,0
47828,-66.6666666666667,4,2,1,90,0,0
48004,-100,4,2,1,90,0,0
48533,-100,4,2,1,100,0,1
50828,-80,4,2,1,100,0,1
51181,-100,4,2,1,100,0,1
51357,-100,4,2,1,90,0,0
53475,-66.6666666666667,4,2,1,90,0,0
53651,-100,4,2,50,90,0,0
54181,-100,4,2,1,100,0,1
55592,-100,4,2,80,90,0,0
56475,-66.6666666666667,4,2,1,90,0,0
56651,-66.6666666666667,4,2,50,90,0,0
57004,-133.333333333333,4,2,1,90,0,0
57357,-133.333333333333,4,2,1,5,0,0
57533,-133.333333333333,4,2,1,90,0,0
57886,-133.333333333333,4,2,1,5,0,0
58063,-66.6666666666667,4,2,1,90,0,0
58239,-66.6666666666667,4,2,1,5,0,0
58416,-133.333333333333,4,2,1,90,0,0
58769,-133.333333333333,4,2,1,5,0,0
58945,-133.333333333333,4,2,1,90,0,0
59298,-133.333333333333,4,2,1,5,0,0
59475,-66.6666666666667,4,2,1,90,0,0
59651,-66.6666666666667,4,2,1,5,0,0
59828,-133.333333333333,4,2,1,90,0,0
60181,-133.333333333333,4,2,1,5,0,0
60357,-133.333333333333,4,2,1,90,0,0
60710,-133.333333333333,4,2,1,5,0,0
60886,-66.6666666666667,4,2,1,90,0,0
61063,-66.6666666666667,4,2,1,5,0,0
61239,-133.333333333333,4,2,1,90,0,0
61416,-133.333333333333,4,2,1,5,0,0
61592,-100,4,2,1,90,0,0
62298,-100,4,2,50,90,0,0
62475,-100,4,2,1,90,0,0
66886,-125,4,2,80,90,0,0
67945,-100,4,2,80,90,0,0
69004,-66.6666666666667,4,2,1,90,0,0
69181,-100,4,2,1,90,0,0
69357,-100,4,2,50,90,0,0
69710,-80,4,2,1,100,0,1
72004,-66.6666666666667,4,2,1,100,0,1
72357,-80,4,2,1,100,0,1
74828,-66.6666666666667,4,2,1,100,0,1
75181,-80,4,2,1,100,0,1
77651,-66.6666666666667,4,2,1,100,0,1
78004,-80,4,2,1,100,0,1
79592,-133.333333333333,4,2,80,100,0,1
80475,-66.6666666666667,4,2,1,100,0,1
81004,-111.111111111111,4,2,80,90,0,0
84181,-66.6666666666667,4,2,1,100,0,1
84533,-66.6666666666667,4,2,1,90,0,0
84886,-66.6666666666667,4,2,1,100,0,1
85239,-66.6666666666667,4,2,1,90,0,0
85592,-100,4,2,1,90,0,0
86651,-133.333333333333,4,2,1,90,0,0
86916,-133.333333333333,4,2,1,5,0,0
87004,-133.333333333333,4,2,1,90,0,0
87269,-133.333333333333,4,2,1,5,0,0
87357,-133.333333333333,4,2,1,90,0,0
87622,-133.333333333333,4,2,1,5,0,0
87710,-133.333333333333,4,2,1,90,0,0
87798,-133.333333333333,4,2,1,5,0,0
87886,-133.333333333333,4,2,1,90,0,0
87975,-133.333333333333,4,2,1,5,0,0
88063,-133.333333333333,4,2,1,90,0,0
88151,-133.333333333333,4,2,1,5,0,0
88239,-133.333333333333,4,2,1,90,0,0
88328,-133.333333333333,4,2,1,5,0,0
88416,-133.333333333333,4,2,1,90,0,0
88681,-133.333333333333,4,2,1,5,0,0
88769,-133.333333333333,4,2,1,90,0,0
88857,-133.333333333333,4,2,1,5,0,0
88945,-133.333333333333,4,2,50,90,0,0
89475,-133.333333333333,4,2,80,90,0,0
94416,-133.333333333333,4,2,80,90,0,0
94504,-133.333333333333,4,2,80,5,0,0
94592,-133.333333333333,4,2,80,90,0,0
94681,-133.333333333333,4,2,80,5,0,0
94769,-133.333333333333,4,2,80,90,0,0
95033,-133.333333333333,4,2,80,5,0,0
95122,-133.333333333333,4,2,80,90,0,0
96533,-100,4,2,80,90,0,0
96886,-133.333333333333,4,2,80,90,0,0
97328,-133.333333333333,4,2,80,5,0,0
97416,-133.333333333333,4,2,1,90,0,0
97945,-111.111111111111,4,2,80,90,0,0
100239,-111.111111111111,4,2,1,90,0,0
100769,-117.647058823529,4,2,80,90,0,0
103592,-133.333333333333,4,2,80,90,0,0
107828,-133.333333333333,4,2,30,90,0,0
108004,-133.333333333333,4,2,80,90,0,0
108710,-100,4,2,1,90,0,0
109239,-100,4,2,80,90,0,0
110651,-166.666666666667,4,2,80,90,0,0
120533,-125,4,2,80,90,0,0
128828,-125,4,2,100,90,0,0
128916,-125,4,2,80,90,0,0
130063,-100,4,2,80,90,0,0
130769,-100,4,2,30,90,0,0
130857,-100,4,2,80,90,0,0
131298,-100,4,2,1,90,0,0
131475,-100,4,2,50,90,0,0
131828,-100,4,2,1,90,0,0
133945,-66.6666666666667,4,2,1,90,0,0
134122,-100,4,2,1,90,0,0
134651,-100,4,2,1,100,0,1
136945,-80,4,2,1,100,0,1
137298,-100,4,2,1,100,0,1
137475,-100,4,2,1,90,0,0
139592,-66.6666666666667,4,2,1,90,0,0
139769,-100,4,2,1,90,0,0
139945,-100,4,2,50,90,0,0
140298,-100,4,2,1,100,0,1
141710,-100,4,2,80,90,0,0
142416,-66.6666666666667,4,2,1,90,0,0
142592,-100,4,2,50,90,0,0
142769,-66.6666666666667,4,2,50,90,0,0
143122,-100,4,2,1,90,0,0
143298,-111.111111111111,4,2,1,90,0,0
145239,-86.9565217391304,4,2,1,90,0,0
145945,-111.111111111111,4,2,1,90,0,0
148063,-86.9565217391304,4,2,1,90,0,0
148769,-100,4,2,1,90,0,0
149475,-111.111111111111,4,2,1,90,0,0
150886,-86.9565217391304,4,2,1,90,0,0
151592,-111.111111111111,4,2,1,90,0,0
153004,-133.333333333333,4,2,80,90,0,0
154416,-100,4,2,80,90,0,0
155122,-66.6666666666667,4,2,1,90,0,0
155298,-100,4,2,1,90,0,0
155475,-100,4,2,50,90,0,0
155828,-80,4,2,1,100,0,1
158122,-66.6666666666667,4,2,1,100,0,1
158475,-80,4,2,1,100,0,1
160945,-66.6666666666667,4,2,1,100,0,1
161298,-80,4,2,1,100,0,1
163769,-66.6666666666667,4,2,1,100,0,1
164122,-80,4,2,1,100,0,1
165710,-133.333333333333,4,2,80,90,0,0
166592,-66.6666666666667,4,2,1,90,0,0
167122,-111.111111111111,4,2,80,90,0,0
170298,-66.6666666666667,4,2,1,100,0,1
170651,-66.6666666666667,4,2,1,90,0,0
171004,-66.6666666666667,4,2,1,100,0,1
171357,-100,4,2,1,90,0,0
172416,-100,4,2,50,90,0,0
172769,-100,4,2,1,90,0,0
175063,-80,4,2,1,90,0,0
175416,-100,4,2,1,90,0,0
177886,-80,4,2,1,90,0,0
178239,-100,4,2,1,90,0,0
180710,-80,4,2,1,90,0,0
181063,-100,4,2,1,90,0,0
183533,-80,4,2,1,90,0,0
183886,-100,4,2,1,90,0,0
186357,-80,4,2,1,90,0,0
186710,-100,4,2,1,90,0,0
189181,-80,4,2,1,90,0,0
189533,-100,4,2,1,90,0,0
192004,-80,4,2,1,90,0,0
192533,-100,4,2,1,90,0,0
193592,-66.6666666666667,4,2,1,90,0,0
194298,-100,4,2,80,90,0,0
195004,-66.6666666666667,4,2,50,90,0,0
195269,-66.6666666666667,4,2,50,5,0,0
195357,-200,4,2,100,75,0,0
195533,-200,4,2,100,5,0,0
196769,-200,4,2,100,35,0,0
196945,-200,4,2,100,5,0,0
198181,-200,4,2,100,20,0,0
198357,-200,4,2,100,5,0,0
201004,-200,4,2,100,20,0,0
201181,-200,4,2,100,5,0,0
202416,-200,4,2,100,20,0,0
202592,-200,4,2,100,5,0,0
203828,-166.666666666667,4,2,100,20,0,0
204004,-166.666666666667,4,2,100,5,0,0
206651,-166.666666666667,4,2,1,60,0,0
209475,-111.111111111111,4,2,1,60,0,0
209828,-166.666666666667,4,2,1,60,0,0
215122,-111.111111111111,4,2,1,60,0,0
215475,-166.666666666667,4,2,1,60,0,0
216533,-125,4,2,100,90,0,0
217592,-125,4,2,0,90,0,0
217945,-125,4,2,100,90,0,0
223592,-125,4,2,90,90,0,0
227122,-111.111111111111,4,2,90,90,0,0
227828,-100,4,2,90,90,0,0
229239,-125,4,2,80,90,0,0
230651,-125,4,2,80,60,0,0
231181,-125,4,2,80,90,0,0
231710,-125,4,2,50,90,0,0
232063,-142.857142857143,4,2,80,90,0,0
232769,-125,4,2,80,90,0,0
233475,-111.111111111111,4,2,80,90,0,0
234445,-100,4,2,1,90,0,0
234533,-100,4,2,50,90,0,0
234886,-80,4,2,1,100,0,1
237181,-66.6666666666667,4,2,1,100,0,1
237533,-80,4,2,1,100,0,1
240004,-66.6666666666667,4,2,1,100,0,1
240357,-80,4,2,1,100,0,1
241945,-133.333333333333,4,2,80,100,0,1
242828,-66.6666666666667,4,2,1,100,0,1
243357,-105.263157894737,4,2,1,90,0,0
244063,-95.2380952380952,4,2,1,90,0,0
244769,-86.9565217391304,4,2,1,90,0,0
245475,-80,4,2,80,90,0,0
245828,-80,4,2,50,90,0,0
246181,-80,4,2,1,100,0,1
248475,-66.6666666666667,4,2,1,100,0,1
248828,-80,4,2,1,100,0,1
251298,-66.6666666666667,4,2,1,100,0,1
251651,-80,4,2,1,100,0,1
253239,-133.333333333333,4,2,80,100,0,1
254122,-66.6666666666667,4,2,1,100,0,1
254651,-111.111111111111,4,2,80,90,0,0
257828,-66.6666666666667,4,2,80,100,0,1
258181,-66.6666666666667,4,2,80,90,0,0
258533,-66.6666666666667,4,2,80,100,0,1
258886,-100,4,2,80,90,0,0
261181,-100,4,2,50,90,0,0
261710,-100,4,2,1,100,0,1
264004,-80,4,2,1,100,0,1
264357,-100,4,2,1,100,0,1
266828,-80,4,2,1,100,0,1
267181,-100,4,2,1,100,0,1
269651,-80,4,2,1,100,0,1
270004,-100,4,2,1,100,0,1
272475,-80,4,2,1,100,0,1
272828,-100,4,2,1,100,0,1
275298,-80,4,2,1,100,0,1
275651,-100,4,2,1,100,0,1
278122,-80,4,2,1,100,0,1
278475,-100,4,2,1,100,0,1
280945,-80,4,2,1,100,0,1
281298,-100,4,2,1,100,0,1
282533,-66.6666666666667,4,2,1,100,0,1
282886,-100,4,2,1,100,0,1
283945,-100,4,2,50,100,0,1
284298,-111.111111111111,4,2,1,90,0,0
286592,-86.9565217391304,4,2,1,90,0,0
287122,-125,4,2,1,90,0,0
289416,-95.2380952380952,4,2,1,90,0,0
289945,-142.857142857143,4,2,1,90,0,0
292239,-105.263157894737,4,2,1,90,0,0
292769,-166.666666666667,4,2,1,90,0,0
294975,-117.647058823529,4,2,1,90,0,0
295592,-200,4,2,1,60,0,0
298416,-250,4,2,1,60,0,0
301239,-200,4,2,1,60,0,0
302651,-166.666666666667,4,2,1,60,0,0
304063,-142.857142857143,4,2,1,60,0,0
304769,-125,4,2,1,60,0,0
305122,-100,4,2,1,60,0,0
306357,-100,4,2,80,90,0,0
306533,-100,4,2,50,90,0,0

[Colours]
Combo1 : 128,255,128
Combo2 : 128,128,255
Combo3 : 255,255,128
Combo4 : 255,128,192

[HitObjects]
175,56,534,5,4,1:2:0:0:
91,126,710,1,0,0:0:0:0:
91,126,798,2,0,L|105:195,1,44.999998626709,0|8,0:0|1:2,0:0:0:0:
120,256,975,1,0,0:0:0:0:
120,256,1063,1,0,0:0:0:0:
279,146,1239,6,0,L|215:132,1,44.999998626709,0|0,1:2|0:0,0:0:0:0:
189,205,1416,1,0,0:0:0:0:
189,205,1504,2,0,L|267:223,1,44.999998626709,0|8,0:0|1:2,0:0:0:0:
260,301,1681,1,0,0:0:0:0:
260,301,1769,1,0,0:0:0:0:
409,101,1945,6,0,L|387:218,1,89.9999972534181,0|0,1:2|0:0,0:0:0:0:
306,77,2298,2,0,L|328:194,1,89.9999972534181,8|0,1:2|0:0,0:0:0:0:
205,47,2651,2,0,L|183:164,1,89.9999972534181,0|0,1:2|0:0,0:0:0:0:
102,23,3004,2,0,L|124:140,1,89.9999972534181,8|0,1:2|0:0,0:0:0:0:
195,306,3357,6,0,P|228:268|225:200,1,89.9999972534181,0|0,1:2|0:0,0:0:0:0:
318,221,3710,2,0,P|301:173|241:142,1,89.9999972534181,8|0,1:2|0:0,0:0:0:0:
147,123,4063,2,0,P|114:161|117:229,1,89.9999972534181,0|0,1:2|0:0,0:0:0:0:
24,208,4416,2,0,P|40:255|100:286,1,89.9999972534181,8|0,1:2|0:0,0:0:0:0:
390,193,4769,6,0,P|340:205|292:191,1,89.9999972534181,0|0,1:2|0:0,0:0:0:0:
300,54,5122,2,0,P|342:42|386:50,1,89.9999972534181,8|0,1:2|0:0,0:0:0:0:
303,196,5475,2,0,P|253:208|205:194,1,89.9999972534181,0|0,1:2|0:0,0:0:0:0:
213,57,5828,2,0,P|255:45|299:53,1,89.9999972534181,8|0,1:2|0:0,0:0:0:0:
464,175,6181,5,0,1:2:0:0:
383,123,6357,1,0,0:0:0:0:
383,123,6445,2,0,L|369:192,1,44.999998626709,0|8,0:0|1:2,0:0:0:0:
354,253,6622,1,0,0:0:0:0:
354,253,6710,1,0,0:0:0:0:
195,143,6886,6,0,L|259:129,1,44.999998626709,0|0,1:2|0:0,0:0:0:0:
285,202,7063,1,0,0:0:0:0:
285,202,7151,2,0,L|207:220,1,44.999998626709,0|8,0:0|1:2,0:0:0:0:
214,298,7328,1,0,0:0:0:0:
214,298,7416,1,0,0:0:0:0:
52,282,7592,6,0,L|157:261,1,89.9999972534181,0|0,1:2|0:0,0:0:0:0:
177,179,7945,2,0,L|72:200,1,89.9999972534181,8|0,1:2|0:0,0:0:0:0:
24,103,8298,2,0,L|129:82,1,89.9999972534181,0|0,1:2|0:0,0:0:0:0:
149,0,8651,2,0,L|44:21,1,89.9999972534181,8|0,1:2|0:0,0:0:0:0:
253,210,9004,6,0,P|282:173|283:117,1,89.9999972534181,0|0,1:0|0:0,0:0:0:0:
210,100,9357,2,0,P|181:137|180:193,1,89.9999972534181,8|0,1:2|0:0,0:0:0:0:
357,267,9710,6,0,P|355:220|320:176,1,89.9999972534181,0|0,1:0|0:0,0:0:0:0:
253,210,10063,2,0,P|254:256|289:300,1,89.9999972534181,8|0,1:2|0:0,0:0:0:0:
409,129,10416,5,4,1:0:0:0:
274,36,10592,1,0,0:0:0:0:
274,36,10945,1,0,0:0:0:0:
75,308,11298,5,8,0:0:0:0:
159,72,11475,1,8,0:0:0:0:
306,273,11651,1,0,3:0:0:0:
311,302,11739,1,0,3:0:0:0:
289,336,11828,5,4,1:0:0:0:
203,186,12004,1,0,0:0:0:0:
203,186,12092,2,0,L|282:206,1,60,0|8,0:0|1:2,0:0:0:0:
375,238,12269,1,0,0:0:0:0:
375,238,12357,1,0,0:0:0:0:
326,22,12533,6,0,L|263:30,1,60,0|0,1:2|0:0,0:0:0:0:
171,59,12710,1,0,0:0:0:0:
171,59,12798,2,0,P|162:99|169:134,1,60,0|8,0:0|1:2,0:0:0:0:
245,103,12975,1,0,0:0:0:0:
245,103,13063,1,0,0:0:0:0:
153,297,13239,5,0,1:2:0:0:
153,297,13328,2,0,P|148:255|163:226,1,60
310,230,13504,1,0,0:0:0:0:
310,230,13592,2,0,P|288:209|232:203,1,60,8|0,1:2|0:0,0:0:0:0:
222,271,13769,2,0,P|244:292|300:298,1,60
393,253,13945,5,0,1:2:0:0:
393,253,14033,2,0,L|380:176,1,60
436,129,14210,1,0,0:0:0:0:
436,129,14298,1,8,1:2:0:0:
368,11,14475,2,0,L|281:20,1,60
222,78,14651,5,0,1:2:0:0:
222,78,14739,2,0,P|196:120|197:158,1,60
315,194,14916,1,0,0:0:0:0:
315,194,15004,2,0,L|244:179,1,60,8|0,1:2|0:0,0:0:0:0:
296,109,15181,2,0,L|367:124,1,60
389,230,15357,5,0,1:2:0:0:
389,230,15445,2,0,P|369:258|319:273,1,60
253,263,15622,1,0,0:0:0:0:
253,263,15710,1,8,1:2:0:0:
127,227,15886,2,0,L|121:151,1,60
107,55,16063,6,0,P|76:28|35:29,1,60,0|0,1:2|0:0,0:0:0:0:
16,94,16239,2,0,P|47:121|88:120,1,60
207,129,16416,1,8,1:2:0:0:
207,129,16504,2,0,L|202:188,1,60
196,282,16681,2,0,L|264:258,1,60,0|0,0:0|1:2,0:0:0:0:
335,311,16857,5,0,0:0:0:0:
335,311,16945,1,0,0:0:0:0:
402,66,17122,2,0,P|404:108|382:148,1,67.4999979400635,8|0,1:2|0:0,0:0:0:0:
308,123,17298,2,0,P|306:81|331:37,1,71.2499980974198
138,86,17475,5,4,1:2:0:0:
119,109,17563,1,0,3:0:0:0:
108,137,17651,1,0,3:0:0:0:
104,166,17739,1,0,3:0:0:0:
106,196,17828,1,8,1:2:0:0:
115,224,17916,1,0,3:0:0:0:
129,250,18004,1,0,3:0:0:0:
149,272,18092,1,0,3:0:0:0:
175,286,18181,2,0,L|233:222,3,75,0|0|0|0,1:2|3:0|3:0|3:0,0:0:0:0:
199,160,18533,2,0,L|217:75,3,75,8|0|0|0,1:2|3:0|3:0|3:0,0:0:0:0:
375,113,18886,5,4,1:2:0:0:
394,145,18975,1,0,3:0:0:0:
398,182,19063,1,0,3:0:0:0:
386,217,19151,1,0,3:0:0:0:
362,246,19239,1,8,1:2:0:0:
327,261,19328,1,0,3:0:0:0:
289,264,19416,1,0,3:0:0:0:
252,257,19504,1,0,3:0:0:0:
225,230,19592,2,0,P|243:168|293:135,3,75,0|0|0|0,1:2|3:0|3:0|3:0,0:0:0:0:
179,129,19945,2,0,P|225:84|285:80,3,75,8|0|0|0,1:2|3:0|3:0|3:0,0:0:0:0:
130,342,20298,5,4,1:2:0:0:
174,340,20386,1,0,3:0:0:0:
219,338,20475,1,0,3:0:0:0:
263,335,20563,1,0,3:0:0:0:
307,333,20651,2,0,L|334:233,3,75,8|0|0|0,1:2|3:0|3:0|3:0,0:0:0:0:
417,101,21004,5,4,1:2:0:0:
365,89,21092,1,0,3:0:0:0:
313,77,21181,1,0,3:0:0:0:
261,66,21269,1,0,3:0:0:0:
202,54,21357,6,0,P|158:73|145:104,1,56.2500021457673,8|0,1:2|3:0,0:0:0:0:
134,37,21445,6,0,P|116:81|129:112,1,56.2500021457673,0|0,3:0|3:0,0:0:0:0:
74,75,21533,6,0,P|93:119|124:132,1,56.2500021457673,0|0,3:0|3:0,0:0:0:0:
59,144,21622,6,0,P|103:161|134:148,1,56.2500021457673,0|0,3:0|3:0,0:0:0:0:
184,146,21710,5,4,1:2:0:0:
358,157,22063,5,0,0:0:0:0:
369,184,22151,1,0,0:0:0:0:
373,213,22239,1,0,0:0:0:0:
369,243,22328,1,0,0:0:0:0:
359,271,22416,6,0,P|329:309|286:320,1,75
280,229,22592,2,0,L|270:148,2,50,0|0|0,1:2|1:2|1:2,1:2:0:0:
211,289,22769,5,8,1:2:0:0:
447,57,23122,6,0,B|381:21|381:21|296:32,1,150,6|0,1:2|0:0,0:0:0:0:
393,192,23386,2,0,P|428:158|435:127,1,75,2|8,0:0|1:2,0:0:0:0:
290,108,23563,1,0,0:0:0:0:
290,108,23651,2,0,P|291:145|310:177,1,75,2|0,0:0|0:0,0:0:0:0:
444,323,23828,6,0,L|336:315,1,75,2|0,1:2|0:0,0:0:0:0:
196,257,24004,1,0,0:0:0:0:
196,257,24092,2,0,P|171:293|173:343,1,75,2|8,0:0|1:2,0:0:0:0:
261,368,24269,1,0,0:0:0:0:
261,368,24357,2,0,P|286:332|284:282,1,75,2|0,0:0|0:0,0:0:0:0:
227,145,24533,6,0,P|262:214|336:235,1,150,2|0,1:2|0:0,0:0:0:0:
376,46,24798,1,2,0:0:0:0:
376,46,24886,2,0,P|309:49|284:66,1,75,8|0,1:2|0:0,0:0:0:0:
312,152,25063,2,0,P|379:149|404:132,1,75,2|0,0:0|0:0,0:0:0:0:
216,65,25239,6,0,P|157:94|137:121,1,75,2|0,1:2|0:0,0:0:0:0:
85,251,25416,2,0,L|76:149,1,93.75,10|0,0:0|0:0,0:0:0:0:
155,285,25592,2,0,L|164:183,1,93.75,10|0,1:2|0:0,0:0:0:0:
15,292,25769,2,0,P|43:324|98:331,1,75,2|0,0:0|0:0,0:0:0:0:
391,216,25945,6,0,P|387:151|294:109,1,150,2|0,1:2|0:0,0:0:0:0:
244,234,26210,2,0,P|300:201|321:165,1,75,2|8,0:0|1:2,0:0:0:0:
230,72,26386,1,0,0:0:0:0:
230,72,26475,2,0,P|231:154|259:183,1,75,2|0,0:0|0:0,0:0:0:0:
409,295,26651,6,0,L|334:285,1,75,2|0,1:2|0:0,0:0:0:0:
102,179,26828,1,2,0:0:0:0:
85,251,26916,1,2,0:0:0:0:
136,304,27004,2,0,P|186:330|222:327,1,75,10|0,1:2|0:0,0:0:0:0:
244,234,27181,2,0,P|194:208|158:211,1,75,2|0,0:0|0:0,0:0:0:0:
20,144,27357,6,0,B|54:106|54:106|177:85,1,150,2|0,1:2|0:0,0:0:0:0:
282,145,27622,2,0,P|245:145|187:117,1,75,2|8,0:0|1:2,0:0:0:0:
301,7,27798,1,0,0:0:0:0:
301,7,27886,2,0,P|319:39|324:103,1,75,2|0,0:0|0:0,0:0:0:0:
387,206,28063,6,0,P|359:170|357:112,1,75,2|0,1:2|0:0,0:0:0:0:
512,78,28239,2,0,L|495:214,1,93.75,10|0,0:0|0:0,0:0:0:0:
416,39,28416,2,0,L|433:175,1,93.75,10|0,1:2|0:0,0:0:0:0:
467,314,28592,2,0,P|485:275|481:224,1,75,2|0,0:0|0:0,0:0:0:0:
224,100,28769,6,0,P|267:89|361:170,1,150,2|0,1:2|0:0,0:0:0:0:
255,249,29033,1,2,0:0:0:0:
255,249,29122,2,0,P|253:206|278:168,1,75,8|0,1:2|0:0,0:0:0:0:
404,236,29298,2,0,P|384:274|343:294,1,75,2|0,0:0|0:0,0:0:0:0:
125,191,29475,6,0,B|170:165|170:165|271:178,1,150,2|0,1:2|0:0,0:0:0:0:
146,329,29739,2,0,P|116:289|112:240,1,75,2|8,0:0|1:2,0:0:0:0:
290,316,29916,1,0,0:0:0:0:
290,316,30004,2,0,P|250:346|201:350,1,75,2|0,0:0|0:0,0:0:0:0:
200,147,30181,6,0,P|242:173|293:175,1,75,2|0,1:2|0:0,0:0:0:0:
296,22,30357,1,0,0:0:0:0:
296,22,30445,2,0,L|261:107,1,75,2|8,0:0|1:2,0:0:0:0:
395,120,30622,1,0,0:0:0:0:
395,120,30710,2,0,L|385:45,1,75,2|0,0:0|0:0,0:0:0:0:
204,0,30886,6,0,L|131:56,1,75,2|0,1:2|0:0,0:0:0:0:
56,204,31063,2,0,P|59:160|123:104,1,93.75,10|0,0:0|0:0,0:0:0:0:
139,192,31239,2,0,P|172:163|257:168,1,93.75,10|0,1:2|0:0,0:0:0:0:
198,315,31416,2,0,P|158:300|137:264,1,75,2|0,0:0|0:0,0:0:0:0:
395,120,31592,6,0,L|356:279,1,150,2|0,1:2|0:0,0:0:0:0:
245,120,31857,2,0,P|292:99|346:108,1,75,2|8,0:0|1:2,0:0:0:0:
283,243,32033,1,0,0:0:0:0:
283,243,32122,2,0,P|241:212|222:161,1,75,2|0,0:0|0:0,0:0:0:0:
145,63,32298,6,0,L|164:146,1,75,2|0,1:2|0:0,0:0:0:0:
134,349,32475,1,2,0:0:0:0:
65,319,32563,1,2,0:0:0:0:
54,244,32651,2,0,P|65:191|90:164,1,75,10|0,1:2|0:0,0:0:0:0:
196,210,32828,2,0,P|185:263|160:290,1,75,2|0,0:0|0:0,0:0:0:0:
299,380,33004,6,0,P|266:304|305:216,1,150,2|0,1:2|0:0,0:0:0:0:
327,125,33269,1,2,0:0:0:0:
327,125,33357,2,0,L|246:176,1,75,8|0,1:2|0:0,0:0:0:0:
203,77,33533,2,0,L|284:26,1,75,2|0,0:0|0:0,0:0:0:0:
419,163,33710,6,0,P|382:192|333:188,1,75,2|0,1:2|0:0,0:0:0:0:
177,192,33886,2,0,P|252:163|298:175,1,93.75,10|0,0:0|0:0,0:0:0:0:
244,251,34063,2,0,P|317:283|341:324,1,93.75,10|0,1:2|0:0,0:0:0:0:
436,330,34239,2,0,P|408:299|399:260,1,75,2|0,0:0|0:0,0:0:0:0:
333,52,34416,6,0,P|237:44|191:105,1,150,6|0,1:2|0:0,0:0:0:0:
293,190,34681,1,2,0:0:0:0:
293,190,34769,2,0,P|293:147|281:115,1,75,8|0,1:2|0:0,0:0:0:0:
136,138,34945,2,0,P|173:159|206:165,1,75,2|0,0:0|0:0,0:0:0:0:
453,145,35122,6,0,P|394:163|371:246,1,150,2|0,1:2|0:0,0:0:0:0:
495,279,35386,2,0,P|472:239|435:220,1,75,2|8,0:0|1:2,0:0:0:0:
339,314,35563,1,0,0:0:0:0:
339,314,35651,2,0,P|362:354|399:373,1,75,2|0,0:0|0:0,0:0:0:0:
343,185,35828,6,0,B|305:171|305:171|260:188,1,75,2|0,1:2|0:0,0:0:0:0:
152,275,36004,1,0,0:0:0:0:
152,275,36092,2,0,P|198:278|229:258,1,75,2|8,0:0|1:2,0:0:0:0:
206,127,36269,1,0,0:0:0:0:
206,127,36357,2,0,P|160:124|129:144,1,75,2|0,0:0|0:0,0:0:0:0:
279,327,36533,6,0,P|301:290|301:224,1,75,2|0,1:2|0:0,0:0:0:0:
379,131,36710,2,0,B|394:184|394:184|383:221,1,93.75,10|0,0:0|0:0,0:0:0:0:
303,85,36886,2,0,B|288:138|288:138|298:175,1,93.75,10|0,1:2|0:0,0:0:0:0:
447,83,37063,2,0,P|401:53|351:57,1,75,2|0,0:0|0:0,0:0:0:0:
182,259,37239,6,0,P|222:198|186:107,1,150,2|0,1:2|0:0,0:0:0:0:
44,208,37504,1,2,0:0:0:0:
44,208,37592,2,0,P|84:247|117:257,1,75,8|0,1:2|0:0,0:0:0:0:
128,100,37769,2,0,P|73:115|48:138,1,75,2|0,0:0|0:0,0:0:0:0:
115,351,37945,6,0,L|211:338,1,75,2|0,1:2|0:0,0:0:0:0:
389,161,38122,1,2,0:0:0:0:
429,224,38210,1,2,0:0:0:0:
410,296,38298,2,0,P|375:343|333:357,1,75,10|0,1:2|0:0,0:0:0:0:
267,276,38475,2,0,P|302:229|344:215,1,75,2|0,0:0|0:0,0:0:0:0:
470,70,38651,6,0,L|288:86,1,150,2|0,1:2|0:0,0:0:0:0:
189,143,38916,2,0,P|233:170|285:172,1,75,2|8,0:0|1:2,0:0:0:0:
248,4,39092,1,0,0:0:0:0:
248,4,39181,2,0,P|202:28|174:72,1,75,2|0,0:0|0:0,0:0:0:0:
429,224,39357,6,0,P|383:195|339:198,1,75,2|0,1:2|0:0,0:0:0:0:
189,235,39533,2,0,B|182:185|182:185|190:130,1,93.75,10|0,0:0|0:0,0:0:0:0:
267,276,39710,2,0,B|274:226|274:226|266:171,1,93.75,10|0,1:2|0:0,0:0:0:0:
164,13,39886,2,0,P|189:60|235:73,1,75,2|0,0:0|0:0,0:0:0:0:
427,85,40063,5,6,1:2:0:0:
382,76,40151,1,0,3:0:0:0:
337,67,40239,1,0,3:0:0:0:
305,99,40328,5,2,0:0:0:0:
273,131,40416,1,8,1:2:0:0:
241,163,40504,1,0,3:0:0:0:
279,186,40592,5,2,0:0:0:0:
320,205,40681,1,0,3:0:0:0:
363,193,40769,6,0,L|437:159,2,75,2|0|0,1:2|3:0|3:0,0:0:0:0:
313,276,41033,2,0,L|389:304,2,75,2|8|0,0:0|1:2|3:0,0:0:0:0:
216,275,41298,2,8,L|250:349,1,75,2|0,0:0|3:0,0:0:0:0:
60,258,41475,5,6,1:2:0:0:
42,208,41563,1,0,3:0:0:0:
53,156,41651,1,0,3:0:0:0:
105,156,41739,5,2,0:0:0:0:
147,124,41828,1,8,1:2:0:0:
169,77,41916,1,0,3:0:0:0:
160,25,42004,5,2,0:0:0:0:
211,31,42092,1,0,3:0:0:0:
256,58,42181,6,0,P|287:97|293:135,1,75,2|0,1:2|3:0,0:0:0:0:
210,226,42357,2,0,L|221:119,1,93.75,10|0,0:0|3:0,0:0:0:0:
302,283,42533,2,0,L|291:176,1,93.75,10|0,1:2|3:0,0:0:0:0:
138,262,42710,2,0,P|197:309|242:303,1,75,2|0,0:0|3:0,0:0:0:0:
316,68,42886,5,6,1:2:0:0:
256,58,42975,1,0,3:0:0:0:
196,49,43063,1,0,3:0:0:0:
143,78,43151,5,2,0:0:0:0:
90,107,43239,1,8,1:2:0:0:
37,137,43328,1,0,3:0:0:0:
24,195,43416,6,0,P|26:244|51:279,1,75,2|0,0:0|3:0,0:0:0:0:
388,293,43592,5,6,1:2:0:0:
389,224,43681,1,0,3:0:0:0:
342,165,43769,5,2,0:0:0:0:
268,148,43857,1,2,0:0:0:0:
194,132,43945,6,0,P|183:154|189:201,1,56.2500021457673,10|0,1:2|0:0,0:0:0:0:
127,176,44033,6,0,P|134:199|172:228,1,56.2500021457673
108,252,44122,6,0,P|130:262|176:257,1,56.2500021457673,2|0,0:0|0:0,0:0:0:0:
154,318,44210,6,0,P|177:310|206:272,1,56.2500021457673,0|0,2:0|2:0,2:0:0:0:
252,227,44298,5,6,1:2:0:0:
50,15,44651,5,0,0:0:0:0:
27,34,44739,1,0,0:0:0:0:
14,61,44828,1,0,0:0:0:0:
9,90,44916,1,0,0:0:0:0:
12,119,45004,6,0,P|25:167|64:200,1,75
135,179,45181,2,0,L|203:177,2,50,0|0|0,1:2|1:2|1:2,1:2:0:0:
92,265,45357,5,8,1:2:0:0:
313,47,45710,5,4,1:2:0:0:
192,348,46592,5,4,1:2:0:0:
365,136,46945,5,4,1:2:0:0:
391,266,47122,5,4,1:2:0:0:
101,169,47828,6,0,L|221:147,1,112.500004291535,10|0,0:0|0:0,0:0:0:0:
310,133,48004,2,0,L|324:81,2,50,2|0|0,1:2|1:2|1:2,1:2:0:0:
276,223,48181,5,10,1:2:0:0:
144,51,48533,5,4,1:2:0:0:
53,246,48710,1,0,0:0:0:0:
53,246,48798,1,0,0:0:0:0:
53,246,48886,2,0,P|82:210|87:174,1,75,10|0,1:2|0:0,0:3:0:0:
163,122,49063,2,0,P|168:180|191:203,1,75,2|0,0:0|0:0,0:0:0:0:
310,133,49239,6,0,P|264:128|224:147,1,75,2|0,1:2|0:0,0:0:0:0:
244,236,49416,1,2,0:0:0:0:
244,236,49504,2,0,P|289:240|329:221,1,75,2|8,0:0|1:2,0:0:0:0:
448,49,49769,2,0,P|459:105|448:139,1,75,2|0,0:0|0:0,0:0:0:0:
312,51,49945,6,0,P|345:24|379:16,1,75,2|0,1:2|0:0,0:0:0:0:
376,160,50122,2,0,P|322:145|300:118,1,75,2|0,0:0|0:0,0:0:0:0:
232,62,50298,2,0,L|239:166,1,75,10|0,1:2|0:0,0:0:0:0:
144,208,50475,2,0,L|151:104,1,75,2|0,0:0|0:0,0:0:0:0:
298,187,50651,6,0,P|265:213|213:210,1,75,2|0,1:2|0:0,0:0:0:0:
54,74,50828,2,0,L|71:174,1,93.75,10|0,0:0|0:0,0:0:0:0:
164,40,51004,2,0,L|147:140,1,93.75,10|0,1:2|0:0,0:0:0:0:
111,296,51181,2,0,P|158:281|209:291,1,75,2|0,0:0|0:0,0:0:0:0:
371,330,51357,5,4,1:2:0:0:
29,313,52239,5,4,1:2:0:0:
272,120,52592,5,4,1:2:0:0:
199,296,52769,5,4,1:2:0:0:
409,54,53122,6,0,P|371:68|345:105,1,75
285,49,53298,2,0,P|268:85|275:130,1,75
442,191,53475,6,2,L|278:166,1,112.500004291535,10|2,0:0|0:0,0:0:0:0:
206,159,53651,2,0,L|154:206,2,50,2|0|0,1:2|1:2|1:2,1:2:0:0:
264,238,53828,5,10,1:2:0:0:
119,13,54181,6,0,P|139:65|161:78,1,75,4|0,1:2|0:0,0:0:0:0:
134,176,54357,1,2,0:0:0:0:
134,176,54445,1,2,0:0:0:0:
134,176,54533,2,0,P|99:139|48:145,1,75,10|0,1:2|0:0,0:0:0:0:
25,209,54710,2,0,P|60:246|111:240,1,75,2|0,0:0|0:0,0:0:0:0:
310,81,54886,6,0,B|352:87|352:87|394:130,1,75,6|0,1:2|0:0,0:0:0:0:
273,222,55063,1,2,0:0:0:0:
273,222,55151,2,0,L|315:154,1,75,2|8,0:0|1:2,0:0:0:0:
139,278,55416,2,0,L|178:341,1,75,2|0,0:0|0:0,0:0:0:0:
221,88,55592,5,6,1:2:0:0:
202,188,55769,1,2,0:0:0:0:
163,3,55945,5,10,0:0:0:0:
221,88,56122,1,2,0:0:0:0:
398,64,56298,5,2,2:0:0:0:
443,341,56475,2,0,P|422:289|450:240,1,112.500004291535,10|0,0:0|0:0,0:0:0:0:
501,143,56651,6,0,L|259:216,1,225.000008583069,10|2,0:0|0:0,0:0:0:0:
113,47,57004,6,0,L|65:266,1,225.000008583069,4|0,1:0|0:0,0:0:0:0:
224,332,57533,2,0,L|176:113,1,225.000008583069,0|0,1:0|0:0,0:0:0:0:
3,256,58063,6,0,B|71:187|71:187|316:118,1,337.500012874604,8|0,0:0|0:0,0:0:0:0:
366,16,58416,6,0,B|307:20|253:-11|253:-11|232:47|185:81,1,225.000008583069,0|0,1:0|0:0,0:0:0:0:
255,260,58945,2,0,B|313:255|367:287|367:287|388:228|435:194,1,225.000008583069,0|0,1:0|0:0,0:0:0:0:
61,221,59475,6,0,L|384:110,1,337.500012874604,8|0,0:0|3:0,3:0:0:0:
390,263,59828,6,0,P|274:229|238:123,1,225.000008583069,0|0,1:0|0:0,0:0:0:0:
120,75,60357,2,0,P|148:192|74:276,1,225.000008583069,0|0,1:0|0:0,0:0:0:0:
418,151,60886,6,0,B|287:46|287:46|95:79,1,337.500012874604,8|0,0:0|0:0,0:0:0:0:
273,328,61239,6,0,P|235:251|271:155,1,168.750006437302,0|0,1:0|0:0,0:0:0:0:
451,228,61592,5,0,0:0:0:0:
420,229,61681,1,0,0:0:0:0:
388,232,61769,2,0,L|307:238,1,75,0|0,1:0|0:0,0:0:0:0:
155,236,61945,5,0,0:0:0:0:
143,192,62033,1,0,0:0:0:0:
129,133,62122,5,0,1:2:0:0:
180,102,62210,1,0,1:2:0:0:
239,108,62298,5,8,1:2:0:0:
387,325,62475,1,2,3:2:0:0:
314,345,62563,1,2,3:2:0:0:
242,365,62651,5,6,1:2:0:0:
239,108,62828,1,2,0:0:0:0:
289,122,62916,1,2,0:0:0:0:
339,136,63004,5,10,1:2:0:0:
77,168,63181,1,2,0:0:0:0:
65,226,63269,1,2,0:0:0:0:
53,284,63357,5,2,1:2:0:0:
403,257,63533,1,2,0:0:0:0:
371,196,63622,1,2,0:0:0:0:
339,136,63710,5,10,1:2:0:0:
142,295,63886,1,2,0:0:0:0:
105,91,64063,6,0,P|186:102|259:52,1,150,6|0,1:2|0:0,0:0:0:0:
85,11,64328,1,2,0:0:0:0:
85,11,64416,2,0,P|43:35|24:90,1,75,10|0,1:2|0:0,0:0:0:0:
127,170,64592,2,0,P|169:146|188:91,1,75,2|0,0:0|0:0,0:0:0:0:
292,49,64769,6,0,B|261:118|261:118|294:205,1,150,2|0,1:2|0:0,0:0:0:0:
397,191,65033,1,0,0:0:0:0:
396,190,65122,2,0,B|423:121|423:121|392:52,1,150,10|0,1:2|0:0,0:0:0:0:
0,226,65475,6,0,P|103:166|153:180,1,150,6|0,1:2|0:0,0:0:0:0:
197,376,65828,2,0,P|172:326|181:281,1,75,8|0,1:2|0:0,0:0:0:0:
217,217,66004,2,0,P|247:252|287:262,1,75,2|0,0:0|0:0,0:0:0:0:
392,52,66181,6,0,B|321:24|321:24|239:40,1,150,6|0,1:2|0:0,0:0:0:0:
299,175,66445,1,2,0:0:0:0:
299,175,66533,2,0,P|315:123|312:94,1,75,8|0,1:2|0:0,0:0:0:0:
176,77,66710,2,0,P|160:129|163:158,1,75,2|0,0:0|0:0,0:0:0:0:
317,354,66886,6,0,P|360:335|378:309,2,60,6|0|0,1:2|0:0|0:0,0:0:0:0:
439,273,67151,2,0,P|467:281|490:300,2,60,2|8|0,0:0|0:0|0:0,0:0:0:0:
306,255,67416,2,0,P|349:236|367:210,1,60,2|0,0:0|0:0,0:0:0:0:
427,144,67592,6,0,P|377:129|346:138,1,60,2|0,0:0|0:0,0:0:0:0:
333,55,67769,2,0,P|307:71|291:95,1,60
227,199,67945,2,0,P|189:109|91:185,1,225,8|0,0:0|0:0,0:0:0:0:
166,320,68298,5,2,0:0:0:0:
192,306,68386,1,0,0:0:0:0:
218,292,68475,1,0,0:0:0:0:
244,278,68563,1,0,0:0:0:0:
285,294,68651,5,2,0:0:0:0:
328,282,68739,1,0,0:0:0:0:
358,248,68828,1,0,0:0:0:0:
366,203,68916,1,2,0:0:0:0:
340,148,69004,6,0,P|296:97|243:85,1,112.500004291535,10|0,0:0|0:0,0:0:0:0:
248,184,69181,2,0,L|175:184,2,50,2|0|0,1:2|1:2|1:2,1:2:0:0:
162,95,69357,5,10,1:2:0:0:
433,347,69710,6,0,P|380:320|368:198,1,187.5,6|0,1:2|0:0,0:0:0:0:
456,52,69975,2,0,P|415:93|358:97,1,93.75,2|8,0:0|1:2,0:0:0:0:
260,9,70151,1,0,0:0:0:0:
260,9,70239,2,0,P|315:-6|366:19,1,93.75,2|0,0:0|0:0,0:0:0:0:
160,206,70416,6,0,B|207:181|207:181|250:108,1,93.75,2|0,1:2|0:0,0:0:0:0:
111,8,70592,1,0,0:0:0:0:
111,8,70681,2,0,P|147:49|148:96,1,93.75,2|8,0:0|1:2,0:0:0:0:
0,177,70857,1,0,0:0:0:0:
0,177,70945,2,0,P|41:141|88:140,1,93.75,2|0,0:0|0:0,0:0:0:0:
346,224,71122,6,0,L|132:203,1,187.5,2|0,1:2|0:0,0:0:0:0:
242,115,71386,1,2,0:0:0:0:
242,115,71475,2,0,L|370:126,1,93.75,8|0,1:2|0:0,0:0:0:0:
334,298,71651,5,2,0:0:0:0:
257,331,71739,5,2,0:0:0:0:
181,291,71828,6,0,P|156:243|164:193,1,93.75,2|0,1:2|0:0,0:0:0:0:
274,7,72004,2,0,L|240:120,1,112.500004291535,10|0,0:0|0:0,0:0:0:0:
129,18,72181,2,0,L|163:131,1,112.500004291535,10|0,1:2|0:0,0:0:0:0:
243,234,72357,2,0,B|259:176|313:165,1,93.75,2|0,0:0|0:0,0:0:0:0:
478,33,72533,6,0,L|362:15,1,93.75,2|0,1:2|0:0,0:0:0:0:
243,234,72710,1,2,0:0:0:0:
316,246,72798,1,2,0:0:0:0:
389,258,72886,6,0,L|499:273,1,93.75,10|0,1:2|0:0,0:0:0:0:
249,108,73063,1,2,0:0:0:0:
182,142,73151,1,2,0:0:0:0:
159,213,73239,6,0,P|165:266|197:301,1,93.75,2|0,1:2|0:0,0:0:0:0:
478,33,73416,1,2,0:0:0:0:
451,102,73504,1,2,0:0:0:0:
425,171,73592,6,0,L|382:273,1,93.75,10|0,1:2|0:0,0:0:0:0:
86,177,73769,5,2,0:0:0:0:
111,96,73857,5,2,0:0:0:0:
181,49,73945,6,0,P|228:24|281:25,1,93.75,2|0,1:2|0:0,0:0:0:0:
336,148,74122,1,0,0:0:0:0:
336,148,74210,2,0,P|289:123|236:124,1,93.75,2|8,0:0|1:2,0:0:0:0:
180,233,74386,1,0,0:0:0:0:
180,233,74475,2,0,P|233:231|278:203,1,93.75,2|0,0:0|0:0,0:0:0:0:
475,123,74651,6,0,P|426:160|417:229,1,93.75,2|0,1:2|0:0,0:0:0:0:
337,366,74828,2,0,L|349:247,1,112.500004291535,10|0,0:0|0:0,0:0:0:0:
235,319,75004,2,0,L|274:190,1,112.500004291535,10|0,1:2|0:0,0:0:0:0:
277,19,75181,2,0,P|226:54|178:58,1,93.75,2|0,0:0|0:0,0:0:0:0:
2,228,75357,6,0,B|78:200|78:200|186:235,1,187.5,2|0,1:2|0:0,0:0:0:0:
348,254,75622,2,0,P|317:206|319:160,1,93.75,2|8,0:0|1:2,0:0:0:0:
475,123,75798,1,0,0:0:0:0:
475,123,75886,2,0,P|448:160|405:179,1,93.75,2|0,0:0|0:0,0:0:0:0:
163,120,76063,6,0,L|286:89,1,93.75,2|0,1:2|0:0,0:0:0:0:
428,3,76239,1,0,0:0:0:0:
428,3,76328,2,0,P|394:61|398:126,1,93.75,2|8,0:0|1:2,0:0:0:0:
478,232,76504,1,0,0:0:0:0:
478,232,76592,2,0,P|446:197|404:178,1,93.75,2|0,0:0|0:0,0:0:0:0:
159,217,76769,6,0,B|254:200|254:200|345:261,1,187.5,2|0,1:2|0:0,0:0:0:0:
226,371,77033,1,2,0:0:0:0:
226,371,77122,2,0,P|221:316|236:277,1,93.75,8|0,1:2|0:0,0:0:0:0:
382,110,77298,5,2,0:0:0:0:
327,45,77386,5,2,0:0:0:0:
242,39,77475,6,0,P|171:53|138:89,1,93.75,2|0,1:2|0:0,0:0:0:0:
317,234,77651,2,0,L|297:123,1,112.500004291535,10|0,0:0|0:0,0:0:0:0:
198,243,77828,2,0,L|217:132,1,112.500004291535,10|0,1:2|0:0,0:0:0:0:
415,27,78004,2,0,P|406:81|369:118,1,93.75,2|0,0:0|0:0,0:0:0:0:
138,178,78181,6,0,P|184:140|234:132,1,93.75,2|0,1:2|0:0,0:0:0:0:
377,334,78357,1,2,0:0:0:0:
302,326,78445,1,2,0:0:0:0:
227,319,78533,6,0,L|125:308,1,93.75,10|0,1:2|0:0,0:0:0:0:
331,180,78710,1,2,0:0:0:0:
399,210,78798,1,2,0:0:0:0:
438,273,78886,6,0,P|462:351|455:373,1,93.75,2|0,1:2|0:0,0:0:0:0:
267,79,79063,1,2,0:0:0:0:
255,152,79151,1,2,0:0:0:0:
244,226,79239,6,0,L|224:334,1,93.75,10|0,1:2|0:0,0:0:0:0:
356,54,79416,5,2,0:0:0:0:
278,1,79504,5,2,0:0:0:0:
190,34,79592,5,2,1:2:0:0:
61,139,79857,2,0,L|32:195,1,56.2500021457673,2|8,0:0|0:0,0:0:0:0:
179,174,80122,1,2,0:0:0:0:
102,289,80298,5,2,0:0:0:0:
271,204,80475,2,0,P|322:249|331:295,1,112.500004291535,8|2,0:0|0:0,0:0:0:0:
373,378,80651,2,0,B|344:327|344:327|388:159,1,225.000008583069,8|2,0:0|0:0,0:0:0:0:
258,52,81004,5,6,0:0:0:0:
360,203,81357,1,8,0:0:0:0:
405,287,81533,2,0,L|434:354,1,67.4999979400635,2|0,0:0|0:0,0:0:0:0:
315,293,81710,6,0,L|267:348,3,67.4999979400635,2|0|0|0,0:0|0:0|0:0|0:0,0:0:0:0:
184,346,82063,2,0,P|196:296|229:274,1,67.4999979400635,8|0,0:0|0:0,0:0:0:0:
205,181,82239,2,0,P|170:216|134:225,1,67.4999979400635,2|0,0:0|0:0,0:0:0:0:
71,259,82416,6,0,P|74:210|97:174,2,67.4999979400635,2|0|0,0:0|0:0|0:0,0:0:0:0:
139,137,82681,2,0,P|136:88|113:52,2,67.4999979400635,2|8|0,0:0|0:0|0:0,0:0:0:0:
223,102,82945,2,0,P|226:53|249:17,1,67.4999979400635,2|0,0:0|0:0,0:0:0:0:
328,37,83122,6,0,L|405:33,3,67.4999979400635,2|0|0|0,0:0|0:0|0:0|0:0,0:0:0:0:
329,126,83475,2,0,L|406:130,3,67.4999979400635,10|0|0|0,0:0|0:0|0:0|0:0,0:0:0:0:
272,206,83828,5,2,0:0:0:0:
160,319,84181,6,0,P|197:150|421:230,1,450.000017166138,4|0,1:2|0:0,0:0:0:0:
414,208,84886,6,0,P|229:130|146:257,1,337.500012874604,4|0,1:2|0:0,0:0:0:0:
285,273,85239,5,2,0:0:0:0:
154,210,85416,1,2,0:0:0:0:
370,37,85592,5,2,0:0:0:0:
393,53,85681,1,0,0:0:0:0:
410,79,85769,1,2,0:0:0:0:
422,106,85857,1,2,0:0:0:0:
425,135,85945,6,0,P|422:185|402:230,1,75,0|2,0:0|0:0,0:0:0:0:
330,160,86122,2,2,L|255:166,2,50,2|2|2,1:2|1:2|1:2,1:2:0:0:
374,288,86298,5,10,1:2:0:0:
281,164,86651,6,0,P|198:174|118:147,1,168.750006437302,4|0,0:0|0:0,0:0:0:0:
39,180,87004,2,0,P|40:121|138:62,1,168.750006437302
118,147,87357,6,0,P|139:227|230:293,1,168.750006437302
275,247,87710,2,0,P|308:278|350:297,1,56.2500021457673
345,207,87886,2,0,P|389:217|434:212,1,56.2500021457673
351,124,88063,6,0,P|318:93|276:74,1,56.2500021457673
281,164,88239,2,0,P|236:153|191:158,1,56.2500021457673
228,68,88416,2,0,P|153:78|75:159,1,168.750006437302
70,275,88769,6,0,P|74:232|99:174,1,56.2500021457673
158,273,88945,2,0,L|216:295,2,37.5000014305115,0|0|0,1:2|1:2|1:2,1:2:0:0:
155,176,89122,1,8,1:2:0:0:
434,63,89475,5,4,1:2:0:0:
396,209,89651,2,2,L|443:157,2,56.2500021457673,2|2|10,0:0|0:0|1:2,0:0:0:0:
320,117,90004,1,2,0:0:0:0:
316,139,90092,1,2,0:0:0:0:
312,161,90181,1,2,1:2:0:0:
228,67,90357,1,0,0:0:0:0:
241,199,90533,1,8,1:2:0:0:
83,336,90886,5,2,1:2:0:0:
149,228,91063,1,2,0:0:0:0:
282,352,91239,2,0,P|191:341|150:222,1,225.000008583069,10|0,1:2|1:2,0:0:0:0:
351,301,91945,1,10,1:2:0:0:
504,141,92298,6,0,P|439:164|376:136,1,112.500004291535,2|0,1:2|0:0,0:0:0:0:
383,0,92651,2,0,P|435:44|442:113,1,112.500004291535,10|0,1:2|0:0,0:0:0:0:
429,247,93004,2,0,P|318:252|230:186,1,225.000008583069,2|8,1:2|1:2,0:0:0:0:
179,359,93710,6,0,P|166:301|197:245,1,112.500004291535,2|0,1:2|0:0,0:0:0:0:
291,101,94063,2,0,P|272:157|217:189,1,112.500004291535,10|0,1:2|0:0,0:0:0:0:
60,196,94416,6,0,P|118:161|152:162,1,56.2500021457673,2|0,1:2|0:0,0:0:0:0:
116,302,94592,2,0,P|132:236|157:212,1,56.2500021457673
222,346,94769,2,0,P|203:274|235:179,1,168.750006437302,8|0,1:2|0:0,0:0:0:0:
199,110,95122,6,0,P|137:158|71:159,1,112.500004291535,2|0,1:2|0:0,0:0:0:0:
28,23,95475,2,0,P|100:52|134:109,1,112.500004291535,10|0,1:2|0:0,0:0:0:0:
188,254,95828,2,0,P|112:231|33:341,1,225.000008583069,2|8,1:2|1:2,0:0:0:0:
440,307,96533,6,0,L|287:233,1,150,6|0,0:0|0:0,0:0:0:0:
275,162,96798,1,2,0:0:0:0:
275,162,96886,2,0,P|209:101|336:91,1,281.250010728836,2|0,0:0|0:0,0:0:0:0:
362,167,97416,6,0,L|339:237,2,37.5000014305115,0|0|0,1:2|1:2|1:2,1:2:0:0:
421,69,97592,1,10,1:2:0:0:
229,28,97945,6,0,P|174:77|161:117,1,67.4999979400635,4|0,1:2|0:0,0:0:0:0:
101,41,98122,2,0,P|96:114|115:152,1,67.4999979400635
146,206,98298,2,0,P|226:209|247:98,1,202.499993820191,10|0,1:2|0:0,0:0:0:0:
320,42,98651,6,0,P|353:108|481:210,1,202.499993820191,2|0,1:2|0:0,0:0:0:0:
385,316,99004,2,0,P|378:239|354:201,1,67.4999979400635,10|0,1:2|0:0,0:0:0:0:
308,280,99181,2,0,P|248:230|204:220,1,67.4999979400635,2|0,0:0|0:0,0:0:0:0:
245,105,99357,6,0,P|266:130|294:149,1,67.4999979400635,2|0,1:2|0:0,0:0:0:0:
168,68,99533,2,0,P|165:101|171:134,1,67.4999979400635,2|0,0:0|0:0,0:0:0:0:
146,281,99710,2,0,P|235:229|316:313,1,202.499993820191,10|0,1:2|0:0,0:0:0:0:
416,253,100063,6,0,P|447:190|452:149,1,67.4999979400635,2|0,1:2|0:0,0:0:0:0:
337,162,100239,2,0,L|284:146,2,44.999998626709,0|0|0,1:2|1:2|1:2,1:2:0:0:
427,90,100416,5,10,1:2:0:0:
109,280,100769,6,0,L|144:380,1,63.7500012159348,6|0,1:2|0:0,0:0:0:0:
217,213,100945,2,0,L|183:298,1,63.7500012159348,2|0,0:0|0:0,0:0:0:0:
1,330,101122,2,0,P|69:280|140:292,1,127.50000243187,10|0,1:2|0:0,0:0:0:0:
301,220,101475,6,0,L|266:320,1,63.7500012159348,2|0,1:2|0:0,0:0:0:0:
193,153,101651,2,0,L|227:238,1,63.7500012159348,2|0,0:0|0:0,0:0:0:0:
409,270,101828,2,0,P|341:220|270:232,1,127.50000243187,10|0,1:2|0:0,0:0:0:0:
108,160,102181,6,0,L|143:260,1,63.7500012159348,2|0,1:2|0:0,0:0:0:0:
216,93,102357,2,0,L|182:178,1,63.7500012159348,2|0,0:0|0:0,0:0:0:0:
0,210,102533,2,0,P|68:160|139:172,1,127.50000243187,10|0,1:2|0:0,0:0:0:0:
300,100,102886,6,0,L|265:200,1,63.7500012159348,2|0,1:2|0:0,0:0:0:0:
192,33,103063,2,0,L|226:118,1,63.7500012159348,2|0,0:0|0:0,0:0:0:0:
408,150,103239,2,0,P|340:100|269:112,1,127.50000243187,10|0,1:2|0:0,0:0:0:0:
252,362,103592,6,0,P|256:285|305:224,1,112.500004291535,6|0,1:2|0:0,0:0:0:0:
198,209,103857,1,2,2:0:0:0:
198,208,103945,2,0,P|216:187|241:174,1,56.2500021457673,10|0,1:2|2:0,2:0:0:0:
338,153,104122,2,0,B|253:106|231:12|231:12|123:42|93:238,1,450.000017166138,2|0,0:0|0:0,0:0:0:0:
205,311,105004,6,0,B|282:323|319:253|319:253|405:236|405:236|445:184|403:125,1,337.500012874604,6|0,1:2|0:0,0:0:0:0:
351,87,105622,1,2,0:0:0:0:
351,87,105710,6,0,P|275:74|258:81,1,56.2500021457673,0|0,1:2|0:0,0:0:0:0:
309,152,105886,2,0,P|246:196|238:213,1,56.2500021457673
205,311,106063,2,0,P|209:241|108:200,1,168.750006437302,8|0,1:2|0:0,0:0:0:0:
102,290,106416,5,6,1:2:0:0:
290,249,106592,1,2,0:0:0:0:
166,127,106769,1,10,1:2:0:0:
166,127,106857,2,0,P|89:126|54:160,1,112.500004291535,2|2,0:0|0:0,0:0:0:0:
364,294,107122,5,6,1:2:0:0:
291,119,107298,1,2,0:0:0:0:
215,291,107475,1,10,1:2:0:0:
215,291,107563,2,0,P|210:225|242:179,1,112.500004291535,2|0,0:0|0:0,0:0:0:0:
392,71,107828,5,10,1:2:0:0:
423,175,108004,2,0,L|485:184,2,56.2500021457673,2|2|2,0:0|0:0|0:0,0:0:0:0:
420,261,108357,2,0,L|358:270,2,56.2500021457673,2|2|2,0:0|0:0|0:0,0:0:0:0:
240,262,108710,6,0,L|263:200,2,50,2|0|0,1:2|1:2|1:2,1:2:0:0:
209,355,108886,5,10,1:2:0:0:
175,62,109239,6,0,B|98:85|98:85|1:343|1:343|120:307|120:307|167:168|167:168|266:69|396:179|342:278,1,900,4|8,1:2|0:0,0:0:0:0:
431,211,110651,6,0,P|397:240|341:246,1,89.9999972534181,0|0,1:2|0:0,0:0:0:0:
370,331,111004,2,0,P|325:327|281:292,1,89.9999972534181,8|0,1:2|0:0,0:0:0:0:
197,146,111357,2,0,P|241:149|277:174,1,89.9999972534181,0|0,1:2|0:0,0:0:0:0:
136,266,111710,2,0,P|169:237|213:229,1,89.9999972534181,8|0,1:2|0:0,0:0:0:0:
386,83,112063,6,0,L|359:196,1,89.9999972534181,2|0,1:2|0:0,0:0:0:0:
270,18,112416,2,0,L|297:131,1,89.9999972534181,10|0,1:2|0:0,0:0:0:0:
386,83,112769,2,0,L|336:293,1,179.999994506836,2|8,1:2|1:2,0:0:0:0:
56,175,113475,6,0,P|117:184|141:235,1,89.9999972534181,2|0,1:2|0:0,0:0:0:0:
91,309,113739,1,2,0:0:0:0:
91,309,113828,2,0,P|30:300|6:249,1,89.9999972534181,10|0,1:2|0:0,0:0:0:0:
187,275,114181,2,0,P|265:267|365:330,1,179.999994506836,2|8,1:2|1:2,0:0:0:0:
364,191,114710,1,0,0:0:0:0:
364,191,114798,1,0,0:0:0:0:
364,191,114886,6,0,P|326:156|316:103,1,89.9999972534181,0|0,1:2|0:0,0:0:0:0:
257,36,115239,2,0,P|237:83|190:111,1,89.9999972534181,8|0,1:2|0:0,0:0:0:0:
248,219,115592,2,0,P|286:254|296:307,1,89.9999972534181,0|0,1:2|0:0,0:0:0:0:
355,374,115945,2,0,P|374:326|421:298,1,89.9999972534181,8|0,1:2|0:0,0:0:0:0:
451,168,116298,6,0,L|332:198,1,89.9999972534181,0|0,1:2|0:0,0:0:0:0:
221,98,116651,2,0,L|340:128,1,89.9999972534181,8|0,1:2|0:0,0:0:0:0:
277,209,117004,2,0,L|158:239,1,89.9999972534181,0|0,1:2|0:0,0:0:0:0:
47,139,117357,2,0,L|166:169,1,89.9999972534181,8|0,1:2|0:0,0:0:0:0:
215,141,117622,1,2,0:0:0:0:
215,141,117710,6,0,P|233:93|227:39,1,89.9999972534181,2|0,1:2|0:0,0:0:0:0:
359,74,118063,2,0,P|341:122|347:176,1,89.9999972534181,10|0,1:2|0:0,0:0:0:0:
486,227,118416,2,0,P|468:179|474:125,1,89.9999972534181,2|0,1:2|0:0,0:0:0:0:
342,160,118769,2,0,P|360:208|354:262,1,89.9999972534181,10|0,1:2|0:0,0:0:0:0:
127,294,119122,6,0,B|166:234|166:234|289:215,1,179.999994506836,2|8,1:2|1:2,0:0:0:0:
452,302,119828,2,0,P|414:260|407:209,1,89.9999972534181,0|0,1:2|0:0,0:0:0:0:
469,140,120181,2,0,P|424:103|375:99,1,89.9999972534181,10|0,1:2|0:0,0:0:0:0:
305,103,120445,1,0,0:0:0:0:
305,103,120533,6,0,L|178:117,1,120,4|0,1:2|0:0,0:0:0:0:
107,250,120886,2,0,L|234:264,1,120,8|0,1:2|0:0,0:0:0:0:
187,34,121239,2,0,P|128:60|99:125,1,120,0|0,1:2|0:0,0:0:0:0:
226,263,121592,2,0,P|285:237|314:172,1,120,8|0,1:2|0:0,0:0:0:0:
487,17,121945,6,0,L|326:47,1,120,0|0,1:2|0:0,0:0:0:0:
427,228,122298,2,0,P|456:159|437:92,1,120,8|0,1:2|0:0,0:0:0:0:
254,80,122651,2,0,P|312:159|372:161,1,120,0|0,1:2|0:0,0:0:0:0:
227,264,123004,2,0,P|169:185|109:183,1,120,8|0,1:2|0:0,0:0:0:0:
286,354,123357,6,0,L|424:324,1,120,0|0,1:2|0:0,0:0:0:0:
427,228,123710,2,0,P|370:188|282:207,1,120,8|0,1:2|0:0,0:0:0:0:
136,327,124063,2,0,P|195:292|227:213,1,120,0|0,1:2|0:0,0:0:0:0:
227,27,124416,2,0,P|213:89|267:181,1,120,8|0,1:2|0:0,0:0:0:0:
396,110,124769,5,2,1:2:0:0:
220,248,124945,1,2,0:0:0:0:
315,81,125122,1,10,1:2:0:0:
352,264,125298,1,2,0:0:0:0:
228,78,125475,2,0,B|185:58|185:58|220:251,1,240,2|8,1:2|1:2,0:0:0:0:
495,133,126004,1,0,0:0:0:0:
479,138,126092,1,0,0:0:0:0:
453,127,126181,6,0,L|395:109,3,60,4|2|0|2,1:2|0:0|3:0|0:0,0:0:0:0:
361,34,126533,2,0,L|307:62,3,60,8|0|2|0,1:2|3:0|0:0|3:0,0:0:0:0:
227,20,126886,2,0,L|209:78,3,60,2|0|0|0,1:2|3:0|3:0|3:0,0:0:0:0:
134,112,127239,2,0,L|162:165,3,60,8|0|0|0,1:2|3:0|3:0|3:0,0:0:0:0:
180,315,127592,6,0,L|208:261,3,60,6|0|0|0,1:2|3:0|3:0|3:0,0:0:0:0:
304,258,127945,2,0,L|286:200,3,60,8|0|0|0,1:2|3:0|3:0|3:0,0:0:0:0:
337,131,128298,2,0,L|283:102,1,60,0|0,1:2|3:0,0:0:0:0:
211,59,128475,2,0,P|264:23|301:29,3,60,2|2|10|0,0:0|0:0|1:2|3:0,0:0:0:0:
208,143,128828,2,0,L|214:256,1,60,2|0,0:0|0:0,0:0:0:0:
299,304,129004,6,0,P|305:238|330:215,3,60,6|0|0|0,1:2|3:0|3:0|3:0,0:0:0:0:
388,282,129357,2,0,P|454:288|477:313,3,60,8|0|0|0,1:2|3:0|3:0|3:0,0:0:0:0:
459,136,129710,6,0,P|421:121|375:68,1,60,6|0,1:2|0:0,0:0:0:0:
395,18,129886,2,0,P|366:27|341:44,1,60,2|0,0:0|0:0,0:0:0:0:
316,124,130063,6,0,L|324:174,7,37.5,10|0|0|2|0|0|2|0,1:2|3:0|3:0|0:0|0:0|3:0|0:0|3:0,0:0:0:0:
225,87,130416,5,4,1:2:0:0:
115,271,130769,6,0,L|198:286,1,75,8|0,1:2|0:0,0:0:0:0:
293,341,130945,1,0,0:0:0:0:
314,320,131033,1,0,0:0:0:0:
325,291,131122,6,0,P|328:244|312:206,1,75
233,191,131298,2,0,L|163:167,2,50,2|0|0,1:2|1:2|1:2,1:2:0:0:
225,87,131475,5,10,1:2:0:0:
470,189,131828,5,4,1:2:0:0:
83,332,132710,5,4,1:2:0:0:
225,87,133063,5,4,1:2:0:0:
319,218,133239,5,4,1:2:0:0:
438,23,133945,6,0,L|282:64,1,112.500004291535,10|0,0:0|0:0,0:0:0:0:
225,87,134122,2,0,L|221:161,2,50,2|0|0,1:2|1:2|1:2,1:2:0:0:
322,140,134298,5,10,1:2:0:0:
83,211,134651,5,4,1:2:0:0:
138,345,134828,1,2,0:0:0:0:
138,345,134916,1,2,0:0:0:0:
138,345,135004,2,0,P|166:303|167:265,1,75,10|0,1:2|0:0,0:0:0:0:
243,214,135181,2,0,P|248:264|272:293,1,75,2|0,0:0|0:0,0:0:0:0:
393,259,135357,6,2,P|336:238|312:209,1,75,2|0,1:2|0:0,0:0:0:0:
359,144,135533,1,2,0:0:0:0:
359,144,135622,2,0,P|412:158|444:197,1,75,2|8,0:0|1:2,0:0:0:0:
171,5,135886,2,0,P|166:52|195:97,1,75,2|0,0:0|0:0,0:0:0:0:
243,214,136063,6,0,P|225:164|186:133,1,75,2|0,1:2|0:0,0:0:0:0:
88,234,136239,2,0,P|127:242|171:233,1,75,2|0,0:0|0:0,0:0:0:0:
249,60,136416,2,0,L|160:80,1,75,10|0,1:2|0:0,0:0:0:0:
56,168,136592,2,0,L|145:148,1,75,2|0,0:0|0:0,0:0:0:0:
278,149,136769,6,0,P|246:197|244:248,1,75,2|0,1:2|0:0,0:0:0:0:
412,265,136945,2,0,L|397:153,1,93.75,10|0,0:0|0:0,0:0:0:0:
311,308,137122,2,0,L|326:196,1,93.75,10|0,1:2|0:0,0:0:0:0:
321,52,137298,2,0,P|279:49|232:71,1,75,2|0,0:0|0:0,0:0:0:0:
119,80,137475,5,4,1:2:0:0:
472,256,138357,5,4,1:2:0:0:
279,109,138710,5,4,1:2:0:0:
239,285,138886,5,4,1:2:0:0:
176,41,139239,6,0,P|154:99|168:136,1,75
78,122,139416,2,0,P|103:178|139:194,1,75
216,194,139592,6,0,L|364:173,1,112.500004291535,10|0,0:0|0:0,0:0:0:0:
438,163,139769,2,0,L|454:112,2,50,2|0|0,1:2|1:2|1:2,1:2:0:0:
336,92,139945,5,10,1:2:0:0:
358,340,140298,5,4,1:2:0:0:
189,282,140475,2,0,L|268:266,1,75,2|0,0:0|0:0,0:0:0:0:
374,232,140651,2,0,P|335:200|325:162,1,75,10|0,1:2|0:0,0:0:0:0:
260,137,140828,2,0,P|235:180|199:197,1,75,2|0,0:0|0:0,0:0:0:0:
40,53,141004,6,0,L|131:70,1,75,6|0,1:2|0:0,0:0:0:0:
88,208,141181,1,2,0:0:0:0:
88,208,141269,2,0,P|66:158|73:123,1,75,2|8,0:0|1:2,0:0:0:0:
319,181,141533,2,0,P|257:136|198:131,1,75,2|0,0:0|0:0,0:0:0:0:
222,307,141710,6,0,L|217:409,1,75,4|0,1:2|0:0,0:0:0:0:
189,282,141886,2,0,L|184:384,1,75,0|0,1:2|0:0,0:0:0:0:
153,258,142063,1,8,0:0:0:0:
435,216,142416,5,8,0:0:0:0:
320,78,142592,2,0,L|355:31,2,50,8|0|0,1:2|1:2|1:2,1:2:0:0:
319,181,142769,5,8,1:2:0:0:
108,18,143122,5,4,1:2:0:0:
1,227,143298,2,0,P|69:202|96:157,1,67.4999979400635,2|0,0:0|0:0,0:0:0:0:
175,175,143475,2,0,P|132:244|206:340,1,202.499993820191,10|0,1:2|0:0,0:0:0:0:
329,315,143828,6,0,L|316:150,1,134.999995880127,2|0,1:2|0:0,0:0:0:0:
302,39,144092,2,0,L|309:137,1,67.4999979400635,2|8,0:0|1:2,0:0:0:0:
412,76,144269,1,0,0:0:0:0:
412,76,144357,2,0,L|367:163,1,67.4999979400635,2|0,0:0|0:0,0:0:0:0:
175,175,144533,6,0,P|243:143|290:154,1,67.4999979400635,2|0,1:2|0:0,0:0:0:0:
310,236,144710,1,2,0:0:0:0:
310,236,144798,2,0,P|233:213|220:188,1,67.4999979400635,2|8,0:0|1:2,0:0:0:0:
164,25,144975,1,2,0:0:0:0:
164,25,145063,2,0,P|216:72|223:107,1,67.4999979400635,2|0,0:0|0:0,0:0:0:0:
413,255,145239,6,0,P|373:196|372:147,1,86.2500016450882,10|0,1:2|0:0,0:0:0:0:
288,34,145416,2,0,P|288:91|262:141,1,86.2500016450882,10|0,0:0|0:0,0:0:0:0:
65,257,145592,2,0,P|139:255|180:226,1,86.2500016450882,10|0,1:2|0:0,0:0:0:0:
142,102,145769,2,0,P|68:104|27:133,1,86.2500016450882,10|0,0:0|0:0,0:0:0:0:
175,175,145945,5,0,1:2:0:0:
261,324,146122,1,2,0:0:0:0:
261,324,146210,1,2,0:0:0:0:
261,324,146298,2,0,P|284:283|288:235,1,67.4999979400635,10|0,1:2|0:0,0:0:0:0:
368,203,146475,2,0,P|368:257|391:293,1,67.4999979400635,2|0,0:0|0:0,0:0:0:0:
440,156,146651,6,0,P|402:129|351:130,1,67.4999979400635,2|0,1:2|0:0,0:0:0:0:
252,187,146828,1,2,0:0:0:0:
252,187,146916,2,0,P|294:167|319:122,1,67.4999979400635,2|8,0:0|1:2,0:0:0:0:
242,44,147092,1,2,0:0:0:0:
242,44,147181,2,2,P|210:55|186:78,1,67.4999979400635
125,257,147357,5,2,1:2:0:0:
140,279,147445,1,2,0:0:0:0:
160,296,147533,1,2,0:0:0:0:
186,300,147622,1,2,0:0:0:0:
201,322,147710,5,10,1:2:0:0:
223,336,147798,1,2,0:0:0:0:
249,339,147886,1,2,0:0:0:0:
275,332,147975,1,2,0:0:0:0:
306,318,148063,6,0,P|341:279|344:217,1,86.2500016450882,10|0,1:2|0:0,0:0:0:0:
297,35,148239,2,0,P|262:74|259:136,1,86.2500016450882,10|0,0:0|0:0,0:0:0:0:
492,302,148416,2,0,L|368:327,1,86.2500016450882,10|0,1:2|0:0,0:0:0:0:
334,103,148592,2,0,L|458:128,1,86.2500016450882,10|0,0:0|0:0,0:0:0:0:
265,250,148769,6,0,P|226:214|193:210,1,75,6|0,1:2|0:0,0:0:0:0:
116,159,148945,2,0,P|156:133|203:133,1,75,2|0,0:0|0:0,0:0:0:0:
348,183,149122,2,0,P|281:162|302:29,1,225,10|0,1:2|0:0,0:0:0:0:
410,108,149475,6,0,B|434:177|434:177|415:255,1,134.999995880127,2|0,1:2|0:0,0:0:0:0:
316,332,149739,1,2,0:0:0:0:
316,332,149828,2,0,L|407:322,1,67.4999979400635,8|0,1:2|0:0,0:0:0:0:
297,254,150004,2,0,L|206:264,1,67.4999979400635,2|0,0:0|0:0,0:0:0:0:
27,316,150181,6,0,P|57:278|60:240,1,67.4999979400635,6|0,1:2|0:0,0:0:0:0:
116,157,150357,1,2,0:0:0:0:
116,157,150445,2,0,P|124:208|160:232,1,67.4999979400635,2|8,0:0|1:2,0:0:0:0:
272,158,150622,2,0,L|199:170,1,67.4999979400635,2|0,0:0|0:0,0:0:0:0:
262,331,150798,1,2,0:0:0:0:
262,331,150886,6,0,P|294:269|298:221,1,86.2500016450882,10|0,1:2|0:0,0:0:0:0:
276,9,151063,2,0,P|252:45|240:86,1,86.2500016450882,10|0,0:0|0:0,0:0:0:0:
84,284,151239,2,0,P|151:292|191:276,1,86.2500016450882,10|0,1:2|0:0,0:0:0:0:
168,88,151416,2,0,P|126:78|83:84,1,86.2500016450882,10|0,0:0|0:0,0:0:0:0:
360,128,151592,5,4,1:2:0:0:
365,321,151769,1,2,0:0:0:0:
365,321,151857,1,2,0:0:0:0:
365,321,151945,2,0,P|334:267|335:233,1,67.4999979400635,10|0,1:2|0:0,0:0:0:0:
469,224,152122,2,0,P|446:276|424:292,1,67.4999979400635,2|0,0:0|0:0,0:0:0:0:
239,380,152298,6,0,L|214:226,1,134.999995880127,6|0,1:2|0:0,0:0:0:0:
334,264,152563,2,0,L|292:182,1,67.4999979400635,2|8,0:0|1:2,0:0:0:0:
423,153,152739,1,0,0:0:0:0:
423,153,152828,2,0,L|349:124,1,67.4999979400635,2|0,0:0|0:0,0:0:0:0:
193,0,153004,6,0,P|246:52|259:107,1,112.500004291535,6|0,1:2|0:0,0:0:0:0:
147,199,153269,2,0,P|116:161|110:136,1,56.2500021457673,2|8,0:0|0:0,0:0:0:0:
228,250,153533,1,2,0:0:0:0:
174,85,153710,6,8,B|96:42|-4:95|-1:172|-1:172|69:211|74:270,1,337.500012874604,2|0,0:0|0:0,0:0:0:0:
220,324,154416,5,2,0:0:0:0:
249,329,154504,1,0,0:0:0:0:
278,334,154592,1,0,0:0:0:0:
307,339,154681,1,0,0:0:0:0:
342,311,154769,5,2,0:0:0:0:
356,268,154857,1,0,0:0:0:0:
356,223,154945,1,0,0:0:0:0:
335,183,155033,1,2,0:0:0:0:
302,150,155122,6,0,P|262:122|167:132,1,112.500004291535,10|0,0:0|0:0,0:0:0:0:
214,248,155298,2,0,L|236:178,2,50,2|0|0,1:2|1:2|1:2,1:2:0:0:
129,181,155475,5,10,1:2:0:0:
500,236,155828,6,0,B|443:271|443:271|293:255,1,187.5,6|0,1:2|0:0,0:0:0:0:
169,327,156092,2,0,P|204:282|212:211,1,93.75,2|8,0:0|1:2,0:0:0:0:
87,135,156269,1,0,0:0:0:0:
87,135,156357,2,0,P|117:170|131:214,1,93.75,2|0,0:0|0:0,0:0:0:0:
300,344,156533,6,0,P|310:272|353:236,1,93.75,2|0,1:2|0:0,0:0:0:0:
472,329,156710,1,0,0:0:0:0:
472,329,156798,2,0,P|394:324|352:298,1,93.75,2|8,0:0|1:2,0:0:0:0:
273,173,156975,1,0,0:0:0:0:
273,173,157063,2,0,P|351:178|393:204,1,93.75,2|0,0:0|0:0,0:0:0:0:
477,247,157239,6,0,L|450:50,1,187.5,2|0,1:2|0:0,0:0:0:0:
265,81,157504,1,2,0:0:0:0:
265,81,157592,2,0,P|210:108|177:168,1,93.75,8|0,1:2|0:0,0:0:0:0:
214,353,157769,5,2,0:0:0:0:
296,370,157857,5,2,0:0:0:0:
362,318,157945,6,0,P|369:266|356:218,1,93.75,2|0,1:2|0:0,0:0:0:0:
356,36,158122,2,0,L|345:179,1,112.500004291535,10|0,0:0|0:0,0:0:0:0:
265,81,158298,2,0,L|276:224,1,112.500004291535,10|0,1:2|0:0,0:0:0:0:
441,264,158475,2,0,P|397:232|341:228,1,93.75,2|0,0:0|0:0,0:0:0:0:
119,304,158651,6,0,P|169:279|189:215,1,93.75,2|0,1:2|0:0,0:0:0:0:
356,36,158828,1,2,0:0:0:0:
381,106,158916,1,2,0:0:0:0:
406,176,159004,6,0,L|445:275,1,93.75,10|0,1:2|0:0,0:0:0:0:
177,148,159181,1,2,0:0:0:0:
201,77,159269,1,2,0:0:0:0:
264,36,159357,6,0,P|317:27|365:39,1,93.75,2|0,1:2|0:0,0:0:0:0:
135,384,159533,1,2,0:0:0:0:
205,359,159622,1,2,0:0:0:0:
275,334,159710,6,0,L|374:295,1,93.75,10|0,1:2|0:0,0:0:0:0:
164,0,159886,5,2,0:0:0:0:
102,58,159975,5,2,0:0:0:0:
87,140,160063,6,0,P|92:195|116:237,1,93.75,2|0,1:2|0:0,0:0:0:0:
269,143,160239,1,0,0:0:0:0:
269,143,160328,2,0,P|199:141|160:155,1,93.75,2|8,0:0|1:2,0:0:0:0:
275,334,160504,2,0,P|341:311|373:285,1,93.75,0|2,0:0|0:0,0:0:0:0:
386,150,160681,1,2,0:0:0:0:
386,150,160769,6,0,P|336:182|309:234,1,93.75,2|0,1:2|0:0,0:0:0:0:
139,269,160945,2,0,L|172:144,1,112.500004291535,10|0,0:0|0:0,0:0:0:0:
248,235,161122,2,0,L|236:105,1,112.500004291535,10|0,1:2|0:0,0:0:0:0:
98,4,161298,2,0,P|137:53|182:70,1,93.75,2|0,0:0|0:0,0:0:0:0:
408,39,161475,6,0,B|351:7|351:7|229:31,1,187.5,2|0,1:2|0:0,0:0:0:0:
168,180,161739,2,0,P|204:137|267:119,1,93.75,2|8,0:0|1:2,0:0:0:0:
386,150,161916,1,0,0:0:0:0:
386,150,162004,2,0,P|350:107|287:89,1,93.75,2|0,0:0|0:0,0:0:0:0:
259,348,162181,6,0,L|375:295,1,93.75,2|0,1:2|0:0,0:0:0:0:
466,163,162357,1,0,0:0:0:0:
466,163,162445,2,0,P|438:219|379:238,1,93.75,2|8,0:0|1:2,0:0:0:0:
279,256,162622,1,0,0:0:0:0:
279,256,162710,2,0,P|286:193|335:155,1,93.75,2|0,0:0|0:0,0:0:0:0:
366,0,162886,6,0,P|285:0|219:94,1,187.5,2|0,1:2|0:0,0:0:0:0:
201,200,163151,1,2,0:0:0:0:
201,200,163239,2,0,P|122:160|76:161,1,93.75,8|0,1:2|0:0,0:0:0:0:
186,368,163416,5,2,0:0:0:0:
269,379,163504,5,2,0:0:0:0:
331,322,163592,6,0,P|357:265|354:214,1,93.75,2|0,1:2|0:0,0:0:0:0:
259,61,163769,2,0,L|288:193,1,112.500004291535,10|0,0:0|0:0,0:0:0:0:
381,26,163945,2,0,L|357:172,1,112.500004291535,10|0,1:2|0:0,0:0:0:0:
198,298,164122,2,0,P|250:280|288:249,1,93.75,2|0,0:0|0:0,0:0:0:0:
453,146,164298,6,0,P|400:132|345:142,1,93.75,2|0,1:2|0:0,0:0:0:0:
124,289,164475,1,2,0:0:0:0:
198,298,164563,1,2,0:0:0:0:
272,308,164651,6,0,L|367:321,1,93.75,10|0,1:2|0:0,0:0:0:0:
129,119,164828,1,2,0:0:0:0:
76,172,164916,1,2,0:0:0:0:
53,243,165004,6,0,P|42:294|63:349,1,93.75,2|0,1:2|0:0,0:0:0:0:
422,4,165181,1,2,0:0:0:0:
408,78,165269,1,2,0:0:0:0:
394,152,165357,6,0,L|373:268,1,93.75,10|0,1:2|0:0,0:0:0:0:
37,70,165533,5,2,0:0:0:0:
121,27,165622,5,2,0:0:0:0:
209,58,165710,5,2,1:2:0:0:
158,278,165975,2,0,L|171:213,1,56.2500021457673,2|8,0:0|0:0,0:0:0:0:
261,338,166239,1,2,0:0:0:0:
269,137,166416,5,2,0:0:0:0:
399,78,166592,2,0,P|370:133|401:189,1,112.500004291535,8|2,0:0|0:0,0:0:0:0:
474,208,166769,2,0,L|235:237,1,225.000008583069,8|2,0:0|0:0,0:0:0:0:
155,80,167122,5,6,0:0:0:0:
64,278,167475,1,8,0:0:0:0:
160,191,167651,1,2,0:0:0:0:
160,191,167739,1,2,0:0:0:0:
160,191,167828,6,0,L|235:178,3,67.4999979400635,2|0|0|0,0:0|0:0|0:0|0:0,0:0:0:0:
162,279,168181,2,0,L|228:290,1,67.4999979400635,8|0,0:0|0:0,0:0:0:0:
350,312,168357,2,0,P|315:275|309:234,1,67.4999979400635,2|0,0:0|0:0,0:0:0:0:
392,177,168533,6,0,P|399:212|389:251,2,67.4999979400635,2|0|0,0:0|0:0|0:0,0:0:0:0:
452,123,168798,2,0,P|409:96|366:95,2,67.4999979400635,2|8|0,0:0|0:0|0:0,0:0:0:0:
299,46,169063,2,0,P|340:36|366:19,1,67.4999979400635,2|0,0:0|0:0,0:0:0:0:
228,5,169239,6,0,P|217:44|224:83,3,67.4999979400635,2|0|0|0,0:0|0:0|0:0|0:0,0:0:0:0:
277,125,169592,2,0,P|288:164|281:203,3,67.4999979400635,10|0|0|0,0:0|0:0|0:0|0:0,0:0:0:0:
199,165,169945,5,2,0:0:0:0:
87,308,170298,6,0,B|344:281|344:281|375:185|375:185|241:192,1,450.000017166138,4|0,1:2|0:0,0:0:0:0:
87,308,171004,6,0,B|344:281|344:281|375:185|375:185,1,337.500012874604,4|0,1:2|0:0,0:0:0:0:
240,88,171357,5,2,0:0:0:0:
387,123,171533,1,2,0:0:0:0:
126,75,171710,5,2,0:0:0:0:
107,98,171798,1,0,0:0:0:0:
100,127,171886,1,2,0:0:0:0:
102,157,171975,1,2,0:0:0:0:
112,185,172063,6,0,P|148:236|180:251,1,75,0|2,0:0|0:0,0:0:0:0:
264,273,172239,2,2,L|317:250,2,50,2|2|2,1:2|1:2|1:2,1:2:0:0:
168,331,172416,5,8,1:2:0:0:
331,47,172769,5,4,1:2:0:0:
375,235,172945,2,0,P|310:189|293:111,1,150,2|8,0:0|1:2,0:0:0:0:
245,41,173210,2,0,P|204:118|234:228,1,150,2|0,0:0|0:0,0:0:0:0:
490,199,173475,6,0,P|428:133|306:135,1,150,2|0,1:2|0:0,0:0:0:0:
326,289,173739,1,2,0:0:0:0:
326,289,173828,2,0,P|375:234|381:200,1,75,8|0,1:2|0:0,0:0:0:0:
373,120,174004,2,8,P|267:150|228:222,1,150,2|0,0:0|1:2,0:0:0:0:
40,358,174357,6,0,P|77:280|71:159,1,150,2|8,0:0|1:2,0:0:0:0:
162,151,174622,2,0,P|184:258|266:299,1,150,2|0,0:0|0:0,0:0:0:0:
397,304,174886,6,0,P|340:296|284:246,1,75,2|0,1:2|0:0,0:0:0:0:
227,86,175063,2,0,L|244:178,1,93.75,8|2,0:0|0:0,0:0:0:0:
343,112,175239,2,0,L|325:204,1,93.75,8|0,1:2|0:0,0:0:0:0:
186,302,175416,2,0,P|195:220|308:172,1,150,2|0,0:0|1:2,0:0:0:0:
164,9,175769,6,0,P|129:82|51:113,1,150,2|8,0:0|1:2,0:0:0:0:
0,162,176033,2,0,P|78:207|153:169,1,150,2|0,0:0|0:0,0:0:0:0:
338,88,176298,6,0,P|295:93|243:186,1,150,2|0,1:2|0:0,0:0:0:0:
328,246,176563,1,2,0:0:0:0:
328,246,176651,2,0,P|335:198|327:152,1,75,8|0,1:2|0:0,0:0:0:0:
156,130,176828,2,0,P|137:210|168:298,1,150,2|0,0:0|1:2,0:0:0:0:
429,356,177181,6,2,P|357:315|264:326,1,150,2|8,0:0|1:2,0:0:0:0:
154,275,177445,2,0,P|226:316|319:305,1,150,2|0,0:0|0:0,0:0:0:0:
441,261,177710,6,0,P|394:228|347:217,1,75,2|0,1:2|0:0,0:0:0:0:
223,140,177886,2,0,L|238:239,1,93.75,8|2,0:0|0:0,0:0:0:0:
323,106,178063,2,0,L|308:205,1,93.75,8|0,1:2|0:0,0:0:0:0:
139,157,178239,2,0,P|165:75|250:59,1,150,2|0,0:0|1:2,0:0:0:0:
385,251,178592,6,0,L|211:229,1,150,2|8,0:0|1:2,0:0:0:0:
223,140,178857,2,0,L|397:162,1,150,2|0,0:0|0:0,0:0:0:0:
447,317,179122,6,0,P|471:228|433:173,1,150,2|0,1:2|0:0,0:0:0:0:
353,80,179386,1,2,0:0:0:0:
353,80,179475,2,0,P|401:63|421:38,1,75,8|0,1:2|0:0,0:0:0:0:
235,54,179651,2,0,P|163:73|132:159,1,150,2|0,0:0|1:2,0:0:0:0:
350,298,180004,6,0,B|382:253|382:253|369:135,1,150,2|8,0:0|1:2,0:0:0:0:
280,243,180269,2,0,P|269:327|324:383,1,150,2|0,0:0|0:0,0:0:0:0:
447,322,180533,6,0,P|421:356|374:375,1,75,2|0,1:2|0:0,0:0:0:0:
176,185,180710,2,0,L|196:297,1,93.75,8|2,0:0|0:0,0:0:0:0:
296,150,180886,2,0,L|276:262,1,93.75,8|0,1:2|0:0,0:0:0:0:
56,251,181063,2,0,P|81:211|185:187,1,150,2|0,0:0|1:2,0:0:0:0:
404,67,181416,6,0,P|304:56|249:-1,1,150,2|8,0:0|1:2,0:0:0:0:
146,45,181681,2,0,P|177:95|165:204,1,150,2|0,0:0|0:0,0:0:0:0:
134,280,181945,6,0,L|287:240,1,150,2|0,1:2|0:0,0:0:0:0:
336,146,182210,1,2,0:0:0:0:
336,146,182298,2,0,L|230:168,1,75,8|0,1:2|0:0,0:0:0:0:
285,327,182475,2,0,P|353:283|355:204,1,150,2|0,0:0|1:2,0:0:0:0:
132,120,182828,6,0,P|209:116|271:184,1,150,2|8,0:0|1:2,0:0:0:0:
227,273,183092,2,0,P|150:277|88:209,1,150,2|0,0:0|0:0,0:0:0:0:
184,192,183357,6,0,P|228:200|271:188,1,75,2|0,1:2|0:0,0:0:0:0:
423,94,183533,2,0,L|409:208,1,93.75,8|2,0:0|0:0,0:0:0:0:
324,52,183710,2,0,L|338:166,1,93.75,8|0,1:2|0:0,0:0:0:0:
394,280,183886,2,0,P|343:239|330:198,1,75,2|0,0:0|0:0,0:0:0:0:
189,28,184063,5,4,1:2:0:0:
166,243,184239,2,0,P|200:184|174:78,1,150,2|8,0:0|1:2,0:0:0:0:
263,22,184504,2,0,P|277:87|367:155,1,150,2|0,0:0|0:0,0:0:0:0:
432,214,184769,6,0,P|359:255|286:221,1,150,2|0,1:2|0:0,0:0:0:0:
191,105,185033,1,2,0:0:0:0:
191,105,185122,2,0,P|219:156|212:201,1,75,8|0,1:2|0:0,0:0:0:0:
105,63,185298,2,8,P|171:13|250:38,1,150,2|0,0:0|1:2,0:0:0:0:
391,314,185651,6,0,P|365:263|318:241,1,75,2|0,0:0|0:0,0:0:0:0:
216,313,185828,1,10,1:2:0:0:
216,313,185916,2,0,P|268:333|311:326,1,75,0|0,0:0|0:0,0:0:0:0:
263,230,186092,1,0,0:0:0:0:
263,230,186181,6,0,P|254:168|237:140,1,75,2|0,1:2|0:0,0:0:0:0:
89,108,186357,2,0,L|103:219,1,93.75,8|0,0:0|0:0,0:0:0:0:
187,75,186533,2,0,L|173:186,1,93.75,10|0,1:2|0:0,0:0:0:0:
135,305,186710,2,0,P|160:254|208:234,1,75,0|0,0:0|0:0,0:0:0:0:
304,112,186886,5,2,1:2:0:0:
384,326,187063,2,0,P|309:321|241:265,1,150,2|8,0:0|1:2,0:0:0:0:
298,196,187328,2,0,P|371:172|390:89,1,150,2|0,0:0|0:0,0:0:0:0:
363,11,187592,6,0,B|312:2|312:2|205:47,1,150,2|0,1:2|0:0,0:0:0:0:
200,199,187857,1,2,0:0:0:0:
200,199,187945,2,0,P|227:172|238:124,1,75,8|0,1:2|0:0,0:0:0:0:
131,3,188122,2,0,P|114:66|176:136,1,150,2|0,0:0|1:2,0:0:0:0:
436,161,188475,6,0,P|399:187|386:231,1,75,2|0,0:0|0:0,0:0:0:0:
308,267,188651,2,0,P|310:223|286:181,1,75,8|2,1:2|0:0,0:0:0:0:
110,211,188828,1,2,0:0:0:0:
120,221,188916,1,2,0:0:0:0:
130,231,189004,6,0,P|193:230|225:209,1,75,2|0,1:2|0:0,0:0:0:0:
247,60,189181,2,0,L|229:177,1,93.75,10|0,0:0|0:0,0:0:0:0:
142,46,189357,2,0,L|160:163,1,93.75,10|0,1:2|0:0,0:0:0:0:
308,267,189533,2,0,P|303:200|320:163,1,75,2|0,0:0|0:0,0:0:0:0:
446,1,189710,6,0,L|420:72,1,75,4|0,1:2|3:0,0:0:0:0:
500,137,189886,2,0,P|502:178|461:241,2,75,2|0|8,0:0|3:0|1:2,0:0:0:0:
420,165,190151,2,0,P|401:201|334:235,2,75,2|0|0,0:0|3:0|3:0,0:0:0:0:
304,193,190416,6,0,P|264:158|217:148,2,75,2|0|0,1:2|3:0|3:0,0:0:0:0:
264,75,190681,2,0,P|210:78|170:104,2,75,2|8|0,0:0|1:2|3:0,0:0:0:0:
148,21,190945,2,0,P|113:61|103:108,1,75,2|0,0:0|3:0,0:0:0:0:
184,299,191122,6,0,P|227:224|225:176,1,75,4|0,1:2|3:0,0:0:0:0:
453,119,191298,1,2,0:0:0:0:
451,148,191386,1,0,3:0:0:0:
441,177,191475,6,0,P|404:211|358:222,1,75,10|0,1:2|0:0,0:0:0:0:
361,18,191651,1,0,3:0:0:0:
373,44,191739,1,0,3:0:0:0:
379,74,191828,6,0,P|363:121|329:154,1,75,2|0,1:2|3:0,0:0:0:0:
147,75,192004,2,0,L|157:199,1,93.75,8|0,0:0|0:0,0:0:0:0:
251,57,192181,6,0,L|241:181,1,93.75,10|0,1:2|3:0,0:0:0:0:
260,340,192357,2,0,P|266:275|306:230,1,93.75,0|0,0:0|3:0,0:0:0:0:
441,177,192533,6,0,L|472:98,3,75,6|0|0|0,1:2|3:0|0:0|3:0,0:0:0:0:
295,43,192886,1,8,1:2:0:0:
251,57,192975,1,0,0:0:0:0:
233,98,193063,6,0,P|216:136|226:193,1,75,2|0,0:0|3:0,0:0:0:0:
439,316,193239,5,4,1:2:0:0:
378,323,193328,1,0,3:0:0:0:
318,330,193416,1,0,3:0:0:0:
258,337,193504,1,0,0:0:0:0:
198,346,193592,6,0,L|127:359,7,56.2500021457673,8|0|0|0|0|0|0|0,1:2|3:0|3:0|3:0|0:0|3:0|3:0|3:0,0:0:0:0:
216,252,193945,5,4,1:2:0:0:
395,50,194298,6,0,L|388:138,1,75,8|0,0:0|0:0,0:0:0:0:
380,229,194475,1,0,0:0:0:0:
261,31,194651,1,0,0:0:0:0:
261,31,195004,6,0,B|185:98|185:98|203:189|203:189|273:131|273:131|261:37,1,337.500012874604,8|0,1:2|0:0,0:0:0:0:
376,41,195357,6,0,B|406:165|406:165|361:220|361:220|436:236|436:236|373:327|373:327|236:295,1,525,4|0,0:0|0:0,0:0:0:0:
177,209,196769,2,0,B|117:201|117:201|71:135|71:135|147:141|208:71|208:71|224:132|224:132|301:129|301:129|283:37,1,525
392,113,198181,6,0,B|363:268|363:268|258:387|258:387|151:385|151:385|285:237|285:237|179:237|179:237|54:373|54:373|22:261|22:261|57:162,1,1125
149,118,201004,6,0,B|216:111|246:30|211:-15|211:-15|312:17|343:103|343:103|285:132|275:196|309:259,1,525
186,248,202416,2,0,B|141:213|129:169|150:116|150:116|115:161|72:173|19:152|19:152|64:186|75:230|54:283|54:283|89:238|136:237,1,525
298,185,203828,6,0,B|376:143|496:239|367:325|295:257|295:257|375:330|310:419|212:387|226:283|226:283|172:369|44:338|98:217|188:219|188:219|96:215|39:97|184:49|228:158|228:158|205:51|342:-7|353:110|318:142|318:142,1,1349.99995880127
488,283,206651,6,0,L|470:169,1,89.9999972534181
405,116,207004,1,2,0:0:0:0:
405,116,207181,1,2,0:0:0:0:
405,116,207357,2,0,P|459:82|465:38,1,89.9999972534181,2|0,0:0|0:0,0:0:0:0:
304,22,207710,1,2,0:0:0:0:
304,22,207886,1,2,0:0:0:0:
304,22,208063,6,0,P|293:81|256:116,1,89.9999972534181,2|0,0:0|0:0,0:0:0:0:
252,96,208328,2,0,P|263:37|300:2,1,89.9999972534181,2|0,0:0|0:0,0:0:0:0:
196,13,208592,1,2,0:0:0:0:
196,13,208769,2,0,L|99:31,1,89.9999972534181,2|0,0:0|0:0,0:0:0:0:
34,98,209122,2,0,L|131:116,1,89.9999972534181,2|0,0:0|0:0,0:0:0:0:
262,275,209475,6,0,P|169:270|135:214,1,134.999995880127,2|0,0:0|0:0,0:0:0:0:
252,123,209828,1,2,0:0:0:0:
252,123,210004,1,2,0:0:0:0:
252,123,210181,2,0,L|218:221,1,89.9999972534181,2|0,0:0|0:0,0:0:0:0:
354,276,210533,1,2,0:0:0:0:
354,276,210710,1,2,0:0:0:0:
354,276,210886,6,0,L|320:178,1,89.9999972534181,2|0,0:0|0:0,0:0:0:0:
295,202,211151,2,0,L|324:287,1,89.9999972534181,2|0,0:0|0:0,0:0:0:0:
234,345,211416,1,2,0:0:0:0:
234,345,211592,2,0,P|180:355|127:320,1,89.9999972534181,2|0,0:0|0:0,0:0:0:0:
149,243,211945,2,0,P|203:233|256:268,1,89.9999972534181,2|0,0:0|0:0,0:0:0:0:
381,93,212298,6,0,L|249:107,1,89.9999972534181
162,125,212651,1,2,0:0:0:0:
162,125,212828,1,2,0:0:0:0:
162,125,213004,2,0,P|235:148|251:184,1,89.9999972534181,2|0,0:0|0:0,0:0:0:0:
150,280,213357,1,2,0:0:0:0:
150,280,213533,1,2,0:0:0:0:
150,280,213710,6,0,B|176:251|176:251|175:200,1,89.9999972534181,2|0,0:0|0:0,0:0:0:0:
154,197,213975,2,0,B|127:225|127:225|128:276,1,89.9999972534181,2|0,0:0|0:0,0:0:0:0:
189,365,214239,1,2,0:0:0:0:
189,365,214416,2,0,L|311:341,1,89.9999972534181,2|0,0:0|0:0,0:0:0:0:
354,254,214769,2,0,L|232:278,1,89.9999972534181,2|0,0:0|0:0,0:0:0:0:
83,217,215122,6,0,P|118:140|171:124,1,134.999995880127,2|0,0:0|0:0,0:0:0:0:
234,237,215475,1,2,0:0:0:0:
234,237,215651,1,2,0:0:0:0:
234,237,215828,2,0,L|269:139,1,89.9999972534181,2|0,0:0|0:0,0:0:0:0:
364,130,216181,1,2,0:0:0:0:
364,130,216357,1,2,0:0:0:0:
177,47,216533,5,2,0:0:0:0:
177,47,216710,2,0,L|169:73,8,15,0|0|0|0|2|0|0|0|0,0:0|0:0|0:0|0:0|0:0|0:0|0:0|0:0|0:0,0:0:0:0:
96,131,217063,1,2,0:0:0:0:
224,179,217239,5,2,0:0:0:0:
215,214,217328,1,0,0:0:0:0:
206,248,217416,1,0,0:0:0:0:
198,283,217504,1,0,0:0:0:0:
190,318,217592,6,0,B|190:357|190:357|211:323,1,60,4|0,0:0|0:0,0:0:0:0:
431,58,217945,6,0,P|357:42|260:91,1,180,4|0,1:2|0:0,0:0:0:0:
312,218,218298,1,2,0:0:0:0:
312,218,218475,2,0,L|370:206,1,60,2|0,1:2|0:0,0:0:0:0:
436,154,218651,2,0,L|471:124,4,30,10|0|0|0|0,0:0|0:0|0:0|0:0|0:0,0:0:0:0:
321,85,219004,2,0,L|188:107,1,120,2|2,1:2|0:0,0:0:0:0:
67,198,219357,6,0,P|115:211|178:178,1,120,2|0,0:0|1:2,0:0:0:0:
172,136,219622,2,0,P|124:123|61:156,1,120,2|0,0:0|0:0,0:0:0:0:
91,282,219886,1,2,0:0:0:0:
265,238,220063,2,0,L|275:190,4,30,10|0|0|0|0,1:2|0:0|0:0|0:0|0:0,0:0:0:0:
129,202,220416,1,2,0:0:0:0:
81,58,220769,6,0,P|155:42|252:91,1,180,2|0,1:2|0:0,0:0:0:0:
187,214,221122,1,2,0:0:0:0:
187,214,221298,2,0,L|129:202,1,60,2|0,1:2|0:0,0:0:0:0:
63,150,221475,2,0,L|28:120,4,30,10|0|0|0|0,0:0|0:0|0:0|0:0|0:0,0:0:0:0:
154,67,221739,2,0,L|141:126,1,60,2|0,0:0|1:2,0:0:0:0:
293,69,222004,1,2,0:0:0:0:
445,198,222181,6,0,P|397:211|334:178,1,120,2|0,0:0|1:2,0:0:0:0:
340,136,222445,2,0,P|388:123|451:156,1,120,2|0,0:0|0:0,0:0:0:0:
421,282,222710,1,2,0:0:0:0:
247,238,222886,2,0,L|237:190,4,30,10|0|0|0|0,1:2|0:0|0:0|0:0|0:0,0:0:0:0:
383,202,223239,1,0,0:0:0:0:
139,68,223416,1,2,0:0:0:0:
131,96,223504,1,2,0:0:0:0:
123,125,223592,5,14,0:0:0:0:
265,308,223769,1,2,0:0:0:0:
256,273,223857,1,2,0:0:0:0:
247,238,223945,5,10,0:0:0:0:
411,30,224122,1,2,0:0:0:0:
420,70,224210,1,2,0:0:0:0:
429,110,224298,5,10,0:0:0:0:
330,345,224475,1,2,0:0:0:0:
349,301,224563,1,2,0:0:0:0:
368,257,224651,5,10,0:0:0:0:
208,150,224828,1,2,0:0:0:0:
489,173,225004,6,0,P|414:189|359:157,1,120,14|0,0:0|0:0,0:0:0:0:
270,69,225269,1,10,0:0:0:0:
270,69,225357,2,0,P|292:110|289:149,1,60,8|0,0:0|0:0,0:0:0:0:
229,204,225533,2,0,P|210:170|211:128,1,60,10|0,0:0|0:0,0:0:0:0:
97,82,225710,6,0,P|57:144|56:193,1,120,10|0,0:0|0:0,0:0:0:0:
173,264,225975,1,8,0:0:0:0:
173,264,226063,2,0,P|133:202|132:153,1,120,10|8,0:0|0:0,0:0:0:0:
308,173,226416,6,0,P|337:173|366:183,1,60,14|0,0:0|0:0,0:0:0:0:
382,328,226592,2,0,P|361:305|348:279,1,60,10|0,0:0|0:0,0:0:0:0:
383,107,226769,2,0,P|410:118|434:137,1,60,8|0,0:0|0:0,0:0:0:0:
483,271,226945,2,0,P|453:270|424:260,1,60,8|0,0:0|0:0,0:0:0:0:
131,157,227122,6,0,P|176:175|219:176,1,67.4999979400635,14|0,0:0|0:0,0:0:0:0:
383,108,227298,2,0,P|338:90|295:89,1,67.4999979400635,8|2,0:0|0:0,0:0:0:0:
167,250,227475,2,0,P|215:251|256:237,1,67.4999979400635,8|0,0:0|0:0,0:0:0:0:
346,17,227651,2,0,P|297:15|256:29,1,67.4999979400635,10|0,0:0|0:0,0:0:0:0:
276,338,227828,5,14,0:0:0:0:
285,309,227916,1,8,0:0:0:0:
294,280,228004,1,8,0:0:0:0:
330,270,228092,5,10,0:0:0:0:
326,232,228181,1,8,0:0:0:0:
321,194,228269,1,8,0:0:0:0:
290,161,228357,5,10,0:0:0:0:
299,117,228445,1,8,0:0:0:0:
346,94,228533,5,10,0:0:0:0:
322,46,228622,1,8,0:0:0:0:
270,38,228710,1,8,0:0:0:0:
221,57,228798,1,8,0:0:0:0:
201,105,228886,6,8,L|184:166,5,50
223,235,229239,5,4,1:2:0:0:
403,304,229769,5,0,1:0:0:0:
409,142,229945,1,8,0:0:0:0:
300,347,230298,1,0,1:0:0:0:
236,103,230651,6,0,L|313:78,2,60,8|0|0,0:0|0:0|0:0,0:0:0:0:
153,372,231181,5,0,0:0:0:0:
247,219,231357,1,8,0:0:0:0:
148,283,231533,2,0,L|89:288,2,40,0|0|0,1:2|1:2|1:2,1:2:0:0:
146,192,231710,5,8,1:2:0:0:
402,45,232063,6,0,P|385:67|390:116,2,52.4999983978272,6|0|0,1:2|3:0|3:0,0:0:0:0:
297,143,232328,2,0,P|293:115|255:84,2,52.4999983978272,2|8|0,0:0|0:0|3:0,0:0:0:0:
379,176,232592,2,0,P|383:201|399:221,1,52.4999983978272,2|0,0:0|3:0,0:0:0:0:
391,315,232769,6,0,L|316:308,2,60,2|0|0,0:0|3:0|3:0,0:0:0:0:
249,259,233033,2,0,P|307:224|353:227,2,60,2|8|0,0:0|0:0|3:0,0:0:0:0:
173,230,233298,2,0,P|163:289|186:322,1,60,2|0,0:0|3:0,0:0:0:0:
62,339,233475,6,0,L|47:262,2,67.4999979400635,2|0|0,0:0|3:0|3:0,0:0:0:0:
97,203,233739,2,0,L|112:126,2,67.4999979400635,2|8|0,0:0|0:0|3:0,0:0:0:0:
192,77,234004,5,2,0:0:0:0:
245,73,234092,5,2,0:0:0:0:
291,100,234181,6,0,P|323:162|323:197,1,67.4999979400635,2|0,0:0|3:0,0:0:0:0:
318,321,234357,5,2,1:2:0:0:
245,339,234445,2,0,L|244:378,1,37.5,0|0,1:2|1:2,1:2:0:0:
171,355,234533,6,0,L|141:390,7,37.5,10|0|0|0|2|0|0|0,1:2|3:0|3:0|3:0|0:0|3:0|3:0|3:0,0:0:0:0:
62,339,234886,6,0,P|66:285|93:247,1,93.75,6|0,1:2|0:0,0:0:0:0:
432,137,235063,1,2,0:0:0:0:
349,122,235151,1,2,0:0:0:0:
266,107,235239,6,0,L|137:83,1,93.75,10|0,1:2|0:0,0:0:0:0:
374,333,235416,1,2,0:0:0:0:
444,287,235504,1,2,0:0:0:0:
490,216,235592,6,0,P|512:166|511:118,1,93.75,2|0,1:2|0:0,0:0:0:0:
81,57,235769,1,2,0:0:0:0:
99,139,235857,1,2,0:0:0:0:
118,220,235945,6,0,L|144:327,1,93.75,10|0,1:2|0:0,0:0:0:0:
480,62,236122,5,2,0:0:0:0:
400,12,236210,5,2,0:0:0:0:
307,25,236298,6,0,P|272:74|267:134,1,93.75,2|0,1:2|0:0,0:0:0:0:
268,249,236475,1,0,0:0:0:0:
268,249,236563,2,0,P|229:192|175:172,1,93.75,2|8,0:0|1:2,0:0:0:0:
108,323,236739,1,0,0:0:0:0:
108,323,236828,2,0,L|187:252,1,93.75,2|0,0:0|0:0,0:0:0:0:
413,153,237004,6,0,P|362:167|312:147,1,93.75,2|0,1:2|0:0,0:0:0:0:
81,57,237181,2,0,L|105:218,1,112.500004291535,10|0,0:0|0:0,0:0:0:0:
197,4,237357,2,0,L|173:165,1,112.500004291535,10|0,1:2|0:0,0:0:0:0:
167,347,237533,2,0,P|159:299|191:247,1,93.75,2|0,0:0|0:0,0:0:0:0:
445,304,237710,6,0,B|387:345|387:345|254:315,1,187.5,2|0,1:2|0:0,0:0:0:0:
413,153,237975,2,0,P|381:201|376:254,1,93.75,2|8,0:0|1:2,0:0:0:0:
287,126,238151,1,0,0:0:0:0:
287,126,238239,2,0,P|278:76|244:37,1,93.75,2|0,0:0|0:0,0:0:0:0:
81,57,238416,6,0,P|59:100|71:175,1,93.75,2|0,1:2|0:0,0:0:0:0:
247,207,238592,1,0,0:0:0:0:
247,207,238681,2,0,L|149:187,1,93.75,2|8,0:0|1:2,0:0:0:0:
56,325,238857,1,0,0:0:0:0:
56,325,238945,2,0,L|154:305,1,93.75,2|0,0:0|0:0,0:0:0:0:
461,268,239122,6,0,P|374:272|339:384,1,187.5,2|0,1:2|0:0,0:0:0:0:
235,296,239386,1,2,0:0:0:0:
235,296,239475,2,0,P|252:247|239:189,1,93.75,8|0,1:2|0:0,0:0:0:0:
81,57,239651,5,2,0:0:0:0:
162,10,239739,5,2,0:0:0:0:
248,48,239828,6,0,P|295:86|306:134,1,93.75,2|0,1:2|0:0,0:0:0:0:
139,333,240004,2,0,L|176:191,1,112.500004291535,10|0,0:0|0:0,0:0:0:0:
308,358,240181,2,0,L|271:216,1,112.500004291535,10|0,1:2|0:0,0:0:0:0:
139,142,240357,2,0,P|187:120|243:131,1,93.75,2|0,0:0|0:0,0:0:0:0:
428,139,240533,6,0,P|400:186|343:215,1,93.75,2|0,1:2|0:0,0:0:0:0:
27,314,240710,1,2,0:0:0:0:
44,231,240798,1,2,0:0:0:0:
61,148,240886,6,0,L|82:48,1,93.75,10|0,1:2|0:0,0:0:0:0:
414,271,241063,1,2,0:0:0:0:
353,329,241151,1,2,0:0:0:0:
270,343,241239,6,0,P|210:347|167:325,1,93.75,2|0,1:2|0:0,0:0:0:0:
177,0,241416,1,2,0:0:0:0:
194,83,241504,1,2,0:0:0:0:
211,166,241592,6,0,L|232:266,1,93.75,10|0,1:2|0:0,0:0:0:0:
496,68,241769,5,2,0:0:0:0:
405,19,241857,5,2,0:0:0:0:
303,32,241945,5,2,1:2:0:0:
420,308,242210,2,0,L|354:290,1,56.2500021457673,2|8,0:0|0:0,0:0:0:0:
230,257,242475,1,2,0:0:0:0:
400,215,242651,5,2,0:0:0:0:
128,80,242828,2,0,P|180:57|240:66,1,112.500004291535,10|0,0:0|0:0,0:0:0:0:
331,84,243004,2,0,P|239:101|195:-31,1,225.000008583069,8|2,0:0|0:0,0:0:0:0:
400,215,243357,6,0,L|363:354,1,142.49999619484,6|0,1:2|0:0,0:0:0:0:
209,174,243622,2,0,P|191:242|242:323,1,142.49999619484,2|0,1:2|0:0,0:0:0:0:
419,146,243886,2,0,L|398:220,1,71.2499980974198,2|0,0:0|0:0,0:0:0:0:
177,19,244063,6,0,L|210:180,1,157.499995193482,6|0,1:2|0:0,0:0:0:0:
323,210,244328,2,0,P|283:154|317:74,1,157.499995193482,2|0,1:2|0:0,0:0:0:0:
498,144,244592,2,0,P|481:196|439:217,1,78.7499975967408,2|0,0:0|0:0,0:0:0:0:
164,246,244769,6,0,P|255:201|335:215,1,172.500003290176,6|0,1:2|0:0,0:0:0:0:
388,278,245033,2,0,P|422:221|336:132,1,172.500003290176,2|0,1:2|0:0,0:0:0:0:
150,77,245298,5,2,0:0:0:0:
93,130,245386,5,2,0:0:0:0:
87,208,245475,5,2,0:0:0:0:
294,213,245651,2,0,L|277:139,2,62.5,2|0|0,1:2|1:2|1:2,1:2:0:0:
269,314,245828,5,10,1:2:0:0:
395,20,246181,6,0,P|420:59|409:146,1,93.75,6|0,1:2|0:0,0:0:0:0:
361,333,246357,1,2,0:0:0:0:
269,314,246445,1,2,0:0:0:0:
177,293,246533,6,0,L|68:270,1,93.75,10|0,1:2|0:0,0:0:0:0:
334,80,246710,1,2,0:0:0:0:
424,105,246798,1,2,0:0:0:0:
468,187,246886,6,0,P|493:242|488:300,1,93.75,2|0,1:2|0:0,0:0:0:0:
73,3,247063,1,2,0:0:0:0:
54,94,247151,1,2,0:0:0:0:
36,185,247239,6,0,L|15:276,1,93.75,10|0,1:2|3:0,3:0:0:0:
454,36,247416,5,2,0:0:0:0:
355,5,247504,5,2,0:0:0:0:
257,36,247592,6,0,P|221:86|224:157,1,93.75,2|0,1:2|0:0,0:0:0:0:
404,235,247769,1,0,0:0:0:0:
404,235,247857,2,0,P|359:173|363:131,1,93.75,2|8,0:0|1:2,0:0:0:0:
249,214,248033,1,0,0:0:0:0:
249,214,248122,2,0,P|237:279|209:313,1,93.75,2|0,0:0|0:0,0:0:0:0:
87,270,248298,6,0,P|99:205|127:171,1,93.75,2|0,1:2|0:0,0:0:0:0:
213,27,248475,2,0,L|190:169,1,112.500004291535,10|0,0:0|0:0,0:0:0:0:
73,3,248651,2,0,L|96:145,1,112.500004291535,10|0,1:2|0:0,0:0:0:0:
152,328,248828,2,0,P|105:304|85:246,1,93.75,2|0,0:0|0:0,0:0:0:0:
213,27,249004,6,0,P|193:111|270:169,1,187.5,2|0,1:2|0:0,0:0:0:0:
360,274,249269,2,0,P|306:277|247:253,1,93.75,2|8,0:0|1:2,0:0:0:0:
284,86,249445,1,0,0:0:0:0:
284,86,249533,2,0,P|338:83|397:107,1,93.75,2|0,0:0|0:0,0:0:0:0:
443,303,249710,6,0,B|414:276|414:276|337:273,1,93.75,2|0,1:2|0:0,0:0:0:0:
148,341,249886,1,0,0:0:0:0:
148,341,249975,2,0,P|194:292|202:241,1,93.75,2|8,0:0|1:2,0:0:0:0:
93,160,250151,1,0,0:0:0:0:
93,160,250239,2,0,P|47:209|39:260,1,93.75,2|0,0:0|0:0,0:0:0:0:
303,351,250416,6,0,L|262:161,1,187.5,2|0,1:2|0:0,0:0:0:0:
174,39,250681,1,2,0:0:0:0:
174,39,250769,2,0,P|242:45|291:90,1,93.75,8|0,1:2|0:0,0:0:0:0:
377,294,250945,5,2,0:0:0:0:
303,351,251033,5,2,0:0:0:0:
211,328,251122,6,0,P|168:291|152:230,1,93.75,2|0,1:2|0:0,0:0:0:0:
280,128,251298,2,0,L|246:292,1,112.500004291535,10|0,0:0|0:0,0:0:0:0:
174,39,251475,2,0,L|208:203,1,112.500004291535,10|0,1:2|0:0,0:0:0:0:
428,193,251651,2,0,P|367:179|342:135,1,93.75,2|0,0:0|0:0,0:0:0:0:
90,3,251828,6,0,P|156:22|191:69,1,93.75,2|0,1:2|0:0,0:0:0:0:
397,296,252004,1,2,0:0:0:0:
305,313,252092,1,2,0:0:0:0:
211,328,252181,6,0,L|110:345,1,93.75,10|0,1:2|0:0,0:0:0:0:
371,22,252357,1,2,0:0:0:0:
453,65,252445,1,2,0:0:0:0:
496,147,252533,6,0,P|510:187|481:254,1,93.75,2|0,1:2|0:0,0:0:0:0:
12,354,252710,1,2,0:0:0:0:
34,263,252798,1,2,0:0:0:0:
57,172,252886,6,0,L|82:59,1,93.75,10|0,1:2|0:0,0:0:0:0:
501,301,253063,5,2,0:0:0:0:
426,384,253151,5,2,0:0:0:0:
313,384,253239,5,2,1:2:0:0:
337,114,253504,2,0,L|386:161,1,56.2500021457673,2|8,0:0|0:0,0:0:0:0:
217,230,253769,1,2,0:0:0:0:
396,255,253945,5,2,0:0:0:0:
76,55,254122,2,0,P|105:123|78:176,1,112.500004291535,8|2,0:0|0:0,0:0:0:0:
53,234,254298,2,0,B|54:163|54:163|179:38,1,225.000008583069,8|2,0:0|0:0,0:0:0:0:
150,284,254651,5,6,0:0:0:0:
345,120,255004,1,8,0:0:0:0:
361,210,255181,2,0,P|369:255|388:283,1,67.4999979400635,2|0,0:0|0:0,0:0:0:0:
282,289,255357,6,0,P|274:334|255:362,3,67.4999979400635,2|0|0|0,0:0|0:0|0:0|0:0,0:0:0:0:
265,198,255710,2,0,P|241:151|211:128,1,67.4999979400635,8|0,0:0|0:0,0:0:0:0:
176,74,255886,2,0,P|154:99|141:130,1,67.4999979400635,2|0,0:0|0:0,0:0:0:0:
199,264,256063,6,0,P|177:238|164:207,2,67.4999979400635,2|0|0,0:0|0:0|0:0,0:0:0:0:
282,289,256328,2,0,L|362:300,2,67.4999979400635,2|8|0,0:0|0:0|0:0,0:0:0:0:
265,198,256592,2,0,P|277:166|299:141,1,67.4999979400635,2|0,0:0|0:0,0:0:0:0:
350,64,256769,6,0,L|370:-5,3,67.4999979400635,2|0|0|0,0:0|0:0|0:0|0:0,0:0:0:0:
232,64,257122,2,0,L|212:-5,3,67.4999979400635,10|0|0|0,0:0|0:0|0:0|0:0,0:0:0:0:
152,152,257475,5,2,0:0:0:0:
347,142,257828,6,0,B|354:215|418:273|418:273|318:294|267:381|267:381|269:305|251:241,1,450.000017166138,4|0,1:2|0:0,0:0:0:0:
347,142,258533,6,0,B|354:215|418:273|418:273|316:290|267:381|267:381,1,337.500012874604,4|0,1:2|0:0,0:0:0:0:
161,325,258886,5,2,0:0:0:0:
264,238,259063,1,2,0:0:0:0:
87,253,259239,1,10,0:0:0:0:
220,126,259416,1,2,0:0:0:0:
220,126,259504,2,0,P|203:172|176:196,1,75,2|0,0:0|0:0,0:0:0:0:
59,139,259681,1,2,0:0:0:0:
59,139,259769,2,0,P|117:123|161:127,1,75,2|2,0:0|0:0,0:0:0:0:
347,142,259945,2,0,P|305:110|290:60,1,75,10|0,0:0|0:0,0:0:0:0:
366,23,260122,2,0,P|408:55|423:105,1,75,2|0,0:0|0:0,0:0:0:0:
279,378,260298,6,0,P|313:342|331:303,1,75,2|0,0:0|0:0,0:0:0:0:
271,232,260475,2,0,P|243:257|223:289,1,75,2|0,0:0|0:0,0:0:0:0:
85,320,260651,6,0,L|103:211,1,75,10|0,0:0|0:0,0:0:0:0:
96,103,260828,1,2,0:0:0:0:
132,77,260916,2,0,L|240:90,1,75,2|0,0:0|0:0,0:0:0:0:
369,127,261092,5,2,0:0:0:0:
396,163,261181,2,2,L|388:239,2,50,2|2|2,1:2|1:2|1:2,1:2:0:0:
225,168,261357,5,10,1:2:0:0:
270,348,261710,6,8,P|174:347|125:280,1,150,6|0,1:2|0:0,0:0:0:0:
133,217,261975,2,0,P|125:180|104:149,1,75,2|8,0:0|1:2,0:0:0:0:
15,183,262151,1,0,0:0:0:0:
15,183,262239,2,0,P|22:219|43:250,1,75,2|0,0:0|0:0,0:0:0:0:
225,168,262416,6,0,P|215:135|174:94,1,75,2|0,1:2|0:0,0:0:0:0:
148,22,262592,1,0,0:0:0:0:
148,22,262681,2,0,P|205:21|248:6,1,75,2|8,0:0|1:2,0:0:0:0:
358,70,262857,1,0,0:0:0:0:
358,70,262945,2,0,P|301:71|258:86,1,75,2|0,0:0|0:0,0:0:0:0:
307,286,263122,6,0,B|288:224|288:224|335:117,1,150,2|0,1:2|0:0,0:0:0:0:
463,276,263386,2,0,P|412:275|379:255,1,75,2|8,0:0|1:2,0:0:0:0:
409,152,263563,1,0,0:0:0:0:
409,152,263651,2,0,P|446:149|480:163,1,75,2|0,0:0|0:0,0:0:0:0:
307,286,263828,6,0,B|261:289|219:338,1,75,2|0,1:2|0:0,0:0:0:0:
123,281,264004,2,0,L|146:163,1,93.75,10|0,0:0|0:0,0:0:0:0:
240,316,264181,2,0,L|217:198,1,93.75,10|0,1:2|0:0,0:0:0:0:
131,88,264357,2,0,P|81:102|48:147,1,75,2|0,0:0|0:0,0:0:0:0:
55,330,264533,6,0,P|29:283|79:186,1,150,2|0,1:2|0:0,0:0:0:0:
222,223,264798,2,0,P|170:227|128:195,1,75,2|8,0:0|1:2,0:0:0:0:
210,104,264975,1,0,0:0:0:0:
210,104,265063,2,0,P|246:97|281:109,1,75,2|0,0:0|0:0,0:0:0:0:
348,276,265239,6,0,P|315:237|306:196,1,75,2|0,1:2|0:0,0:0:0:0:
388,9,265416,1,2,0:0:0:0:
437,65,265504,1,2,0:0:0:0:
429,139,265592,2,0,P|408:190|372:212,1,75,10|0,1:2|0:0,0:0:0:0:
307,214,265769,2,0,P|289:179|232:145,1,75,2|0,0:0|0:0,0:0:0:0:
110,309,265945,6,0,P|109:257|182:167,1,150,2|0,1:2|0:0,0:0:0:0:
217,335,266210,1,2,0:0:0:0:
217,335,266298,2,0,L|219:241,1,75,8|0,1:2|0:0,0:0:0:0:
343,365,266475,2,0,L|307:285,1,75,2|0,0:0|0:0,0:0:0:0:
355,162,266651,6,0,P|325:206|282:214,1,75,2|0,1:2|0:0,0:0:0:0:
164,96,266828,2,0,L|184:224,1,93.75,10|0,0:0|0:0,0:0:0:0:
266,57,267004,2,0,L|246:185,1,93.75,10|0,1:2|0:0,0:0:0:0:
81,100,267181,2,0,P|97:46|141:18,1,75,2|0,0:0|0:0,0:0:0:0:
363,69,267357,6,0,P|304:81|249:182,1,150,2|0,1:2|0:0,0:0:0:0:
388,227,267622,2,0,P|370:179|326:142,1,75,2|8,0:0|1:2,0:0:0:0:
177,152,267798,1,0,0:0:0:0:
177,152,267886,2,0,P|228:154|282:136,1,75,2|0,0:0|0:0,0:0:0:0:
460,186,268063,6,0,P|472:237|446:287,1,75,2|0,1:2|0:0,0:0:0:0:
314,243,268239,1,0,0:0:0:0:
314,243,268328,2,0,L|406:222,1,75,2|8,0:0|1:2,0:0:0:0:
419,340,268504,1,0,0:0:0:0:
419,340,268592,2,0,L|345:356,1,75,2|0,0:0|0:0,0:0:0:0:
184,342,268769,6,0,P|209:283|184:197,1,150,2|0,1:2|0:0,0:0:0:0:
51,275,269033,1,2,0:0:0:0:
51,275,269122,2,0,B|47:271|104:274|139:252,1,75,8|0,1:2|0:0,0:0:0:0:
119,138,269298,2,0,P|82:131|47:142,1,75,2|0,0:0|0:0,0:0:0:0:
123,271,269475,6,0,P|137:227|170:205,1,75,2|0,1:2|0:0,0:0:0:0:
356,240,269651,2,0,P|296:251|242:216,1,93.75,10|0,0:0|0:0,0:0:0:0:
316,166,269828,2,0,P|276:119|279:55,1,93.75,10|0,1:2|0:0,0:0:0:0:
402,35,270004,2,0,P|386:76|341:104,1,75,2|0,0:0|0:0,0:0:0:0:
131,54,270181,6,0,B|177:47|177:47|273:89,1,150,2|0,1:2|0:0,0:0:0:0:
168,216,270445,1,2,0:0:0:0:
168,216,270533,2,0,P|168:164|183:124,1,75,8|0,1:2|0:0,0:0:0:0:
316,166,270710,2,0,P|284:191|232:197,1,75,2|0,0:0|0:0,0:0:0:0:
141,321,270886,6,0,P|173:296|225:290,1,75,2|0,1:2|0:0,0:0:0:0:
429,305,271063,5,2,0:0:0:0:
388,367,271151,5,2,0:0:0:0:
314,378,271239,6,0,P|260:370|229:340,1,75,10|0,1:2|0:0,0:0:0:0:
280,266,271416,2,0,P|334:274|365:304,1,75,2|0,0:0|0:0,0:0:0:0:
493,244,271592,6,0,P|441:209|415:108,1,150,2|0,1:2|0:0,0:0:0:0:
421,31,271857,2,0,P|362:38|320:64,1,75,2|8,0:0|1:2,0:0:0:0:
264,15,272033,1,0,0:0:0:0:
264,15,272122,2,0,P|227:61|215:109,1,75,2|0,0:0|0:0,0:0:0:0:
168,216,272298,6,0,P|163:172|134:139,1,75,2|0,1:2|0:0,0:0:0:0:
13,256,272475,2,0,P|65:236|98:190,1,93.75,10|0,0:0|0:0,0:0:0:0:
16,161,272651,2,0,P|38:110|29:54,1,93.75,10|0,1:2|0:0,0:0:0:0:
158,6,272828,2,0,P|124:53|128:103,1,75,2|0,0:0|0:0,0:0:0:0:
251,324,273004,6,0,B|289:273|289:273|302:153,1,150,6|0,1:2|0:0,0:0:0:0:
396,59,273269,2,0,P|360:90|349:148,1,75,2|8,0:0|1:2,0:0:0:0:
431,183,273445,1,0,0:0:0:0:
431,183,273533,2,0,P|460:160|477:127,1,75,2|0,0:0|0:0,0:0:0:0:
292,64,273710,6,0,P|250:22|212:15,1,75,2|0,1:2|0:0,0:0:0:0:
123,148,273886,1,0,0:0:0:0:
123,148,273975,2,0,P|149:104|192:74,1,75,2|8,0:0|1:2,0:0:0:0:
253,224,274151,1,0,0:0:0:0:
253,224,274239,2,0,P|227:180|184:150,1,75,2|0,0:0|0:0,0:0:0:0:
45,265,274416,6,0,P|113:226|180:253,1,150,2|0,1:2|0:0,0:0:0:0:
242,372,274681,1,2,0:0:0:0:
242,372,274769,2,0,P|237:323|265:280,1,75,8|0,1:2|0:0,0:0:0:0:
343,261,274945,2,0,P|348:310|320:353,1,75,2|0,0:0|0:0,0:0:0:0:
87,350,275122,6,0,P|140:331|171:305,1,75,2|0,1:2|0:0,0:0:0:0:
181,145,275298,2,0,B|168:198|168:198|181:263,1,93.75,10|0,0:0|0:0,0:0:0:0:
253,101,275475,2,0,B|266:154|266:154|253:219,1,93.75,10|0,1:2|0:0,0:0:0:0:
103,115,275651,2,0,P|130:80|169:62,1,75,2|0,0:0|0:0,0:0:0:0:
389,96,275828,6,0,P|352:85|287:-8,1,150,2|0,1:2|0:0,0:0:0:0:
458,60,276092,1,2,0:0:0:0:
458,60,276181,2,0,P|473:119|463:160,1,75,8|0,1:2|0:0,0:0:0:0:
413,250,276357,2,0,P|398:191|408:150,1,75,2|0,0:0|0:0,0:0:0:0:
258,192,276533,6,0,P|245:230|213:263,1,75,2|0,1:2|0:0,0:0:0:0:
33,121,276710,1,2,0:0:0:0:
82,64,276798,1,2,0:0:0:0:
156,65,276886,2,0,P|205:78|234:115,1,75,10|0,1:2|0:0,0:0:0:0:
139,215,277063,2,0,P|117:168|132:123,1,75,2|0,0:0|0:0,0:0:0:0:
360,97,277239,6,0,P|299:121|257:225,1,150,2|0,1:2|0:0,0:0:0:0:
341,310,277504,2,0,P|339:261|321:215,1,75,2|8,0:0|1:2,0:0:0:0:
442,217,277681,1,0,0:0:0:0:
442,217,277769,2,0,P|405:183|360:163,1,75,2|0,0:0|0:0,0:0:0:0:
246,117,277945,6,0,L|260:208,1,75,2|0,1:2|0:0,0:0:0:0:
171,304,278122,2,0,B|162:249|162:249|175:182,1,93.75,10|0,0:0|0:0,0:0:0:0:
248,354,278298,2,0,B|257:299|257:299|244:232,1,93.75,10|0,1:2|0:0,0:0:0:0:
142,139,278475,2,0,P|102:174|94:218,1,75,2|0,0:0|0:0,0:0:0:0:
406,212,278651,5,6,1:2:0:0:
390,254,278739,1,0,3:0:0:0:
373,296,278828,1,0,3:0:0:0:
349,257,278916,5,2,0:0:0:0:
325,219,279004,1,8,1:2:0:0:
301,180,279092,1,0,3:0:0:0:
257,191,279181,5,2,0:0:0:0:
213,202,279269,1,0,3:0:0:0:
169,213,279357,6,0,L|152:136,2,75,2|0|0,1:2|3:0|3:0,0:0:0:0:
235,117,279622,2,0,L|277:50,2,75,2|8|0,0:0|1:2|3:0,0:0:0:0:
336,110,279886,2,0,L|412:93,1,75,2|0,2:0|3:0,2:0:0:0:
238,329,280063,5,6,1:2:0:0:
270,288,280151,1,0,3:0:0:0:
284,237,280239,1,0,3:0:0:0:
333,219,280328,5,2,0:0:0:0:
384,226,280416,1,8,1:2:0:0:
419,264,280504,1,0,3:0:0:0:
428,212,280592,5,2,0:0:0:0:
450,163,280681,1,0,3:0:0:0:
485,124,280769,6,0,P|471:88|445:57,1,75,2|0,1:2|3:0,0:0:0:0:
255,56,280945,2,0,L|267:155,1,93.75,10|0,0:0|3:0,0:0:0:0:
352,22,281122,2,0,L|340:121,1,93.75,10|0,1:2|3:0,0:0:0:0:
256,233,281298,2,0,P|222:223|190:183,1,75,2|0,0:0|3:0,0:0:0:0:
424,22,281475,5,6,1:2:0:0:
455,73,281563,1,0,3:0:0:0:
484,124,281651,1,0,3:0:0:0:
466,180,281739,5,2,0:0:0:0:
447,237,281828,1,8,1:2:0:0:
428,293,281916,1,0,3:0:0:0:
369,301,282004,6,0,L|293:312,1,75,2|0,0:0|3:0,0:0:0:0:
31,202,282181,5,6,1:2:0:0:
28,134,282269,1,0,3:0:0:0:
67,70,282357,5,2,0:0:0:0:
138,47,282445,1,2,0:0:0:0:
210,32,282533,6,0,P|239:60|240:106,1,56.2500021457673,10|0,1:2|3:0,0:0:0:0:
293,45,282622,6,0,P|294:86|261:119,1,56.2500021457673,0|0,3:0|3:0,0:0:0:0:
340,115,282710,6,0,P|311:144|265:145,1,56.2500021457673,2|0,0:0|3:0,0:0:0:0:
324,200,282798,6,0,P|283:201|250:169,1,56.2500021457673,0|0,3:0|3:0,0:0:0:0:
196,144,282886,5,4,1:2:0:0:
462,15,283239,5,0,0:0:0:0:
485,34,283328,1,0,0:0:0:0:
498,61,283416,1,0,0:0:0:0:
503,90,283504,1,0,0:0:0:0:
500,119,283592,6,0,P|489:169|455:205,1,75
385,176,283769,2,0,L|317:174,2,50,0|0|0,1:0|1:0|1:0,1:0:0:0:
420,265,283945,5,8,1:2:0:0:
150,51,284298,6,0,P|156:122|202:178,1,134.999995880127,6|0,1:2|0:0,0:0:0:0:
316,108,284563,1,2,0:0:0:0:
316,108,284651,2,0,P|265:95|226:100,1,67.4999979400635,8|0,1:2|0:0,0:0:0:0:
183,262,284828,2,0,P|242:238|289:182,1,134.999995880127,2|0,0:0|1:2,0:0:0:0:
251,96,285092,1,2,0:0:0:0:
251,96,285181,2,0,P|264:53|293:28,1,67.4999979400635
410,11,285357,2,0,L|368:169,1,134.999995880127,10|2,1:2|0:0,0:0:0:0:
261,317,285710,6,0,L|291:167,1,134.999995880127,2|0,1:2|0:0,0:0:0:0:
165,181,285975,1,2,0:0:0:0:
165,181,286063,2,0,L|221:126,1,67.4999979400635,8|0,1:2|0:0,0:0:0:0:
94,86,286239,2,0,L|238:36,1,134.999995880127,2|0,0:0|1:2,0:0:0:0:
340,40,286504,1,2,0:0:0:0:
340,40,286592,2,0,L|328:149,1,86.2500016450882,8|0,0:0|0:0,0:0:0:0:
438,47,286769,2,0,L|390:237,1,172.500003290176,10|2,1:2|0:0,0:0:0:0:
301,344,287122,6,0,P|275:290|211:257,1,120,2|0,1:2|0:0,0:0:0:0:
160,206,287386,1,2,0:0:0:0:
160,206,287475,2,0,P|168:196|232:163,1,60,8|0,1:2|0:0,0:0:0:0:
303,167,287651,2,0,P|277:113|213:80,1,120,2|0,0:0|1:2,0:0:0:0:
215,1,287916,1,2,0:0:0:0:
215,1,288004,2,0,P|171:16|149:46,1,60
66,54,288181,2,0,B|57:117|57:117|91:183,1,120,10|2,1:2|0:0,0:0:0:0:
420,144,288533,6,0,L|281:171,1,120,2|0,1:2|0:0,0:0:0:0:
300,258,288798,1,2,0:0:0:0:
300,258,288886,2,0,L|220:237,1,60,8|0,1:2|0:0,0:0:0:0:
263,349,289063,2,0,L|141:276,1,120,2|0,0:0|1:2,0:0:0:0:
91,149,289328,1,2,0:0:0:0:
91,149,289416,2,0,L|101:252,1,78.7499975967408,8|0,0:0|0:0,0:0:0:0:
197,134,289592,2,0,L|154:310,1,157.499995193482,10|2,1:2|0:0,0:0:0:0:
263,349,289945,6,0,P|270:298|318:247,1,104.999996795654,2|0,1:2|0:0,0:0:0:0:
403,329,290210,1,2,0:0:0:0:
403,329,290298,2,0,P|383:333|336:316,1,52.4999983978272,8|0,1:2|0:0,0:0:0:0:
336,169,290475,2,0,P|376:200|396:267,1,104.999996795654,2|0,2:0|1:2,2:0:0:0:
468,203,290739,1,2,0:0:0:0:
468,203,290828,2,0,P|467:153|458:133,1,52.4999983978272
403,91,291004,2,0,B|349:70|349:70|293:78,1,104.999996795654,10|2,1:2|0:0,0:0:0:0:
260,249,291357,6,0,P|267:205|243:140,1,104.999996795654,2|0,1:2|0:0,0:0:0:0:
176,186,291622,1,2,0:0:0:0:
176,186,291710,2,0,P|163:166|123:141,1,52.4999983978272,8|0,1:2|0:0,0:0:0:0:
102,224,291886,2,0,P|58:217|-7:241,1,104.999996795654,2|0,0:0|1:2,0:0:0:0:
34,74,292151,1,2,0:0:0:0:
34,74,292239,2,0,P|23:129|34:162,1,71.2499980974198,8|0,0:0|0:0,0:0:0:0:
113,58,292416,2,0,P|176:72|249:40,1,142.49999619484,10|2,1:2|0:0,0:0:0:0:
472,83,292769,6,0,P|414:116|397:148,1,89.9999972534181,2|0,1:2|0:0,0:0:0:0:
323,116,293033,1,2,0:0:0:0:
323,116,293122,2,0,P|321:151|332:177,1,44.999998626709,8|0,1:2|0:0,0:0:0:0:
243,171,293298,2,0,P|276:229|308:246,1,89.9999972534181,2|0,0:0|1:2,0:0:0:0:
323,317,293563,1,2,0:0:0:0:
323,317,293651,2,0,P|353:308|378:289,1,44.999998626709
472,233,293828,2,0,L|366:220,1,89.9999972534181,10|2,1:2|0:0,0:0:0:0:
220,329,294181,6,0,L|241:220,1,89.9999972534181,2|0,1:2|0:0,0:0:0:0:
225,155,294445,1,2,0:0:0:0:
225,155,294533,2,0,P|203:167|164:168,1,44.999998626709,8|0,1:2|0:0,0:0:0:0:
138,92,294710,2,0,P|175:70|232:70,1,89.9999972534181,2|0,0:0|1:2,0:0:0:0:
311,94,294975,1,2,0:0:0:0:
311,94,295063,2,0,L|328:165,1,63.7500012159348,8|0,0:0|0:0,0:0:0:0:
418,117,295239,2,0,L|390:267,1,127.50000243187,10|2,1:2|0:0,0:0:0:0:
121,331,295592,6,0,L|244:303,4,112.5,6|0|0|0|8,1:2|0:0|0:0|0:0|0:0,0:0:0:0:
117,197,296828,1,0,0:0:0:0:
117,197,297004,6,0,L|240:225,3,112.5
293,162,297886,1,8,0:0:0:0:
293,162,298063,1,8,0:0:0:0:
200,94,298239,1,0,0:0:0:0:
324,69,298416,6,0,P|361:87|390:129,4,90,0|0|0|0|8,0:0|0:0|0:0|0:0|0:0,0:0:0:0:
464,81,299651,1,0,0:0:0:0:
464,81,299828,6,0,P|477:119|468:170,3,90
398,230,300710,1,8,0:0:0:0:
398,230,300886,1,8,0:0:0:0:
354,335,301063,1,0,0:0:0:0:
267,163,301239,6,0,L|258:215,5,37.5,4|0|0|0|0|0,3:2|3:2|3:2|3:2|3:2|3:2,3:2:0:0:
160,129,301769,2,0,L|169:181,5,37.5,0|0|0|0|0|0,3:2|3:2|3:2|3:2|3:2|3:2,3:2:0:0:
241,64,302298,2,0,L|248:28,3,37.5,0|0|0|0,3:2|3:2|3:2|3:2,3:2:0:0:
360,90,302651,6,0,L|407:80,5,44.999998626709,4|0|0|0|0|0,3:2|3:2|3:2|3:2|3:2|3:2,3:2:0:0:
357,175,303181,2,0,L|401:184,5,44.999998626709,0|0|0|0|0|0,3:2|3:2|3:2|3:2|3:2|3:2,3:2:0:0:
312,256,303710,2,0,L|342:288,3,44.999998626709,0|0|0|0,3:2|3:2|3:2|3:2,3:2:0:0:
200,199,304063,6,0,L|141:208,2,52.4999983978272,4|0|0,3:2|3:2|3:2,3:2:0:0:
216,115,304328,2,0,L|157:124,2,52.4999983978272,0|0|0,3:2|3:2|3:2,3:2:0:0:
237,31,304592,2,0,L|178:40,1,52.4999983978272,0|0,3:2|3:2,3:2:0:0:
344,84,304769,5,4,3:2:0:0:
348,107,304857,1,0,3:2:0:0:
352,130,304945,1,0,3:2:0:0:
356,153,305033,1,0,3:2:0:0:
359,176,305122,6,0,L|373:236,7,37.5,0|0|0|0|0|0|0|0,3:2|3:2|3:2|3:2|3:2|3:2|3:2|3:2,3:2:0:0:
274,208,305475,5,4,1:2:0:0:
155,384,306357,5,8,0:0:0:0:
291,9,306533,1,8,0:0:0:0:
