osu file format v14

[General]
AudioFilename: audio.mp3
AudioLeadIn: 0
PreviewTime: 68254
Countdown: 0
SampleSet: Soft
StackLeniency: 0.3
Mode: 0
LetterboxInBreaks: 0
WidescreenStoryboard: 0

[Editor]
DistanceSpacing: 0.9
BeatDivisor: 8
GridSize: 32
TimelineZoom: 5.399997

[Metadata]
Title:Hitoribocchi no Monologue (nenpulse bootleg remix)
TitleUnicode:ひとりぼっちのモノローグ (nenpulse bootleg remix)
Artist:Morishita Chisaki, Tanaka Minami, Kito Akari, Kurose Yuuko
ArtistUnicode:森下千咲、田中美海、鬼頭明里、黒瀬ゆうこ
Creator:Ducky-
Version:Friends!
Source:ひとりぼっちの○○生活
Tags:Anime Japanese Opening OP Marumaru Seikatsu Hitori Bocchi's ○○ Lifestyle 一里ぼっち Bocchi 砂尾なこ Sunao Nako 本庄アル Honshou Aru ソトカ・ラキター Sotoka Rakita kitou drum bass d'n'b dnb electronic -Eresh Vgogetto
BeatmapID:3032964
BeatmapSetID:1478368

[Difficulty]
HPDrainRate:4
CircleSize:4.2
OverallDifficulty:8.5
ApproachRate:9.3
SliderMultiplier:2.5
SliderTickRate:1

[Events]
//Background and Video events
0,0,"background.jpg",0,0
//Break Periods
//Storyboard Layer 0 (Background)
//Storyboard Layer 1 (Fail)
//Storyboard Layer 2 (Pass)
//Storyboard Layer 3 (Foreground)
//Storyboard Layer 4 (Overlay)
//Storyboard Sound Samples

[TimingPoints]
534,352.941176470588,4,2,1,60,1,0
11828,-90.9090909090909,4,2,1,70,0,0
22769,-66.6666666666667,4,2,1,75,0,0
23122,-83.3333333333333,4,2,1,80,0,1
45710,-83.3333333333333,4,2,1,60,0,0
48534,-90.9090909090909,4,2,1,70,0,0
53475,-83.3333333333333,4,2,1,65,0,0
54181,-90.9090909090909,4,2,1,70,0,0
57004,-90.9090909090909,4,2,1,60,0,0
57710,-111.111111111111,4,2,1,60,0,0
62298,-90.9090909090908,4,2,1,60,0,0
62651,-90.9090909090908,4,2,1,65,0,0
65475,-90.9090909090908,4,2,1,70,0,0
68298,-76.9230769230769,4,2,1,75,0,0
69710,-71.4285714285714,4,2,1,80,0,1
71828,-58.8235294117647,4,2,1,80,0,1
71960,-58.8235294117647,4,2,1,5,0,1
72004,-58.8235294117647,4,2,1,80,0,1
72136,-58.8235294117647,4,2,1,5,0,1
72181,-58.8235294117647,4,2,1,80,0,1
72313,-58.8235294117647,4,2,1,5,0,1
72357,-58.8235294117647,4,2,1,80,0,1
72534,-66.6666666666667,4,2,1,80,0,1
74651,-58.8235294117647,4,2,1,80,0,1
74783,-58.8235294117647,4,2,1,5,0,1
74828,-58.8235294117647,4,2,1,80,0,1
74960,-58.8235294117647,4,2,1,5,0,1
75004,-58.8235294117647,4,2,1,80,0,1
75136,-58.8235294117647,4,2,1,5,0,1
75181,-58.8235294117647,4,2,1,80,0,1
75357,-71.4285714285714,4,2,1,80,0,1
77475,-58.8235294117647,4,2,1,80,0,1
77607,-58.8235294117647,4,2,1,5,0,1
77651,-58.8235294117647,4,2,1,80,0,1
77783,-58.8235294117647,4,2,1,5,0,1
77828,-58.8235294117647,4,2,1,80,0,1
77960,-58.8235294117647,4,2,1,5,0,1
78004,-58.8235294117647,4,2,1,80,0,1
78181,-66.6666666666667,4,2,1,80,0,1
79857,-76.9230769230769,4,2,1,80,0,1
80122,-100,4,2,1,80,0,1
80475,-76.9230769230769,4,2,1,80,0,1
81004,-200,4,2,1,70,0,0
84181,-66.6666666666667,4,2,1,75,0,0
85239,-76.9230769230769,4,2,1,75,0,0
86651,-55.5555555555556,4,2,1,70,0,0
89475,-100,4,2,1,65,0,0
94416,-55.5555555555556,4,2,1,65,0,0
94548,-55.5555555555556,4,2,1,5,0,0
94592,-55.5555555555556,4,2,1,65,0,0
94724,-55.5555555555556,4,2,1,5,0,0
94769,-55.5555555555556,4,2,1,65,0,0
95122,-100,4,2,1,65,0,0
97592,-66.6666666666667,4,2,1,65,0,0
97945,-55.5555555555556,4,2,1,70,0,0
98077,-55.5555555555556,4,2,1,5,0,0
98122,-55.5555555555556,4,2,1,70,0,0
98254,-55.5555555555556,4,2,1,5,0,0
98298,-55.5555555555556,4,2,1,70,0,0
99136,-55.5555555555556,4,2,1,5,0,0
99181,-66.6666666666667,4,2,1,70,0,0
99313,-66.6666666666667,4,2,1,5,0,0
99357,-83.3333333333333,4,2,1,70,0,0
99489,-83.3333333333333,4,2,1,5,0,0
99534,-111.111111111111,4,2,1,70,0,0
99666,-111.111111111111,4,2,1,5,0,0
99710,-55.5555555555556,4,2,1,70,0,0
100769,-76.9230769230769,4,2,1,65,0,0
101122,-62.5,4,2,1,65,0,0
101475,-76.9230769230769,4,2,1,65,0,0
101828,-62.5,4,2,1,65,0,0
102181,-76.9230769230769,4,2,1,65,0,0
102534,-62.5,4,2,1,65,0,0
102886,-76.9230769230769,4,2,1,65,0,0
103239,-62.5,4,2,1,65,0,0
103592,-83.3333333333333,4,2,1,65,0,0
105710,-62.5,4,2,1,65,0,0
105842,-62.5,4,2,1,5,0,0
105886,-62.5,4,2,1,65,0,0
106018,-62.5,4,2,1,5,0,0
106063,-62.5,4,2,1,65,0,0
106416,-83.3333333333333,4,2,1,65,0,0
108886,-58.8235294117647,4,2,1,65,0,0
112063,-133.333333333333,4,2,1,55,0,0
112769,-176.991150442478,4,2,1,55,0,0
113828,-133.333333333333,4,2,1,55,0,0
126181,-133.333333333333,4,2,1,60,0,0
131475,-90.9090909090909,4,2,1,60,0,0
131828,-90.9090909090909,4,2,1,65,0,0
133945,-83.3333333333333,4,2,1,65,0,0
134651,-90.9090909090909,4,2,1,70,0,0
137475,-90.9090909090909,4,2,1,65,0,0
139592,-83.3333333333333,4,2,1,65,0,0
140298,-90.9090909090909,4,2,1,70,0,0
143122,-90.9090909090909,4,2,1,65,0,0
143828,-111.111111111111,4,2,1,65,0,0
153004,-83.3333333333333,4,2,1,70,0,0
153710,-111.111111111111,4,2,1,70,0,0
154416,-111.111111111111,4,2,1,75,0,0
155122,-76.9230769230769,4,2,1,75,0,0
155828,-71.4285714285714,4,2,1,80,0,1
157945,-58.8235294117647,4,2,1,80,0,1
158077,-58.8235294117647,4,2,1,5,0,1
158122,-58.8235294117647,4,2,1,80,0,1
158254,-58.8235294117647,4,2,1,5,0,1
158298,-58.8235294117647,4,2,1,80,0,1
158430,-58.8235294117647,4,2,1,5,0,1
158475,-58.8235294117647,4,2,1,80,0,1
158651,-66.6666666666667,4,2,1,80,0,1
160769,-58.8235294117647,4,2,1,80,0,1
160901,-58.8235294117647,4,2,1,5,0,1
160945,-58.8235294117647,4,2,1,80,0,1
161077,-58.8235294117647,4,2,1,5,0,1
161122,-58.8235294117647,4,2,1,80,0,1
161254,-58.8235294117647,4,2,1,5,0,1
161298,-58.8235294117647,4,2,1,80,0,1
161475,-71.4285714285714,4,2,1,80,0,1
163592,-58.8235294117647,4,2,1,80,0,1
163724,-58.8235294117647,4,2,1,5,0,1
163769,-58.8235294117647,4,2,1,80,0,1
163901,-58.8235294117647,4,2,1,5,0,1
163945,-58.8235294117647,4,2,1,80,0,1
164077,-58.8235294117647,4,2,1,5,0,1
164122,-58.8235294117647,4,2,1,80,0,1
164298,-66.6666666666667,4,2,1,80,0,1
165975,-76.9230769230769,4,2,1,80,0,1
166239,-100,4,2,1,80,0,1
166592,-76.9230769230769,4,2,1,80,0,1
167122,-200,4,2,1,70,0,0
170298,-66.6666666666667,4,2,1,75,0,0
171357,-76.9230769230769,4,2,1,75,0,0
172769,-76.9230769230769,4,2,1,60,0,0
173210,-90.9090909090909,4,2,1,60,0,0
177886,-71.4285714285714,4,2,1,60,0,0
178857,-90.9090909090909,4,2,1,60,0,0
183534,-71.4285714285714,4,2,1,60,0,0
184504,-90.9090909090909,4,2,1,60,0,0
186181,-71.4285714285714,4,2,1,60,0,0
186534,-90.9090909090909,4,2,1,60,0,0
189181,-71.4285714285714,4,2,1,60,0,0
189710,-90.9090909090909,4,2,1,65,0,0
195357,-333.333333333333,4,2,1,50,0,0
196768,-333.333333333333,4,2,1,5,0,0
196945,-333.333333333333,4,2,1,50,0,0
198356,-333.333333333333,4,2,1,5,0,0
198534,-333.333333333333,4,2,1,50,0,0
199769,-333.333333333333,4,2,1,5,0,0
199945,-333.333333333333,4,2,1,50,0,0
201004,-333.333333333333,4,2,1,5,0,0
201181,-333.333333333333,4,2,1,50,0,0
202592,-333.333333333333,4,2,1,5,0,0
202769,-333.333333333333,4,2,1,50,0,0
204004,-333.333333333333,4,2,1,5,0,0
204181,-333.333333333333,4,2,1,50,0,0
205416,-333.333333333333,4,2,1,5,0,0
205592,-333.333333333333,4,2,1,50,0,0
206474,-333.333333333333,4,2,1,5,0,0
206651,-333.333333333333,4,2,1,55,0,0
208063,-200,4,2,1,55,0,0
216534,-133.333333333333,4,2,1,55,0,0
217592,-100,4,2,1,55,0,0
217945,-100,4,2,1,60,0,0
218651,-90.9090909090909,4,2,1,60,0,0
223416,-90.9090909090909,4,2,1,65,0,0
226416,-83.3333333333333,4,2,1,70,0,0
227828,-83.3333333333333,4,2,1,75,0,0
229239,-83.3333333333333,4,2,1,60,0,0
231710,-66.6666666666667,4,2,1,70,0,0
232063,-100,4,2,1,80,0,0
234886,-66.6666666666667,4,2,1,90,0,1
237004,-58.8235294117647,4,2,1,90,0,1
237136,-58.8235294117647,4,2,1,5,0,1
237181,-58.8235294117647,4,2,1,90,0,1
237313,-58.8235294117647,4,2,1,5,0,1
237357,-58.8235294117647,4,2,1,90,0,1
237489,-58.8235294117647,4,2,1,5,0,1
237534,-58.8235294117647,4,2,1,90,0,1
237710,-71.4285714285714,4,2,1,90,0,1
239828,-58.8235294117647,4,2,1,90,0,1
239960,-58.8235294117647,4,2,1,5,0,1
240004,-58.8235294117647,4,2,1,90,0,1
240136,-58.8235294117647,4,2,1,5,0,1
240181,-58.8235294117647,4,2,1,90,0,1
240313,-58.8235294117647,4,2,1,5,0,1
240357,-58.8235294117647,4,2,1,90,0,1
240534,-66.6666666666667,4,2,1,90,0,1
242210,-76.9230769230769,4,2,1,90,0,1
242475,-100,4,2,1,90,0,1
242828,-76.9230769230769,4,2,1,90,0,1
243357,-76.9230769230769,4,2,1,85,0,0
245475,-66.6666666666667,4,2,1,85,0,0
246181,-66.6666666666667,4,2,1,90,0,1
248298,-58.8235294117647,4,2,1,90,0,1
248430,-58.8235294117647,4,2,1,5,0,1
248475,-58.8235294117647,4,2,1,90,0,1
248607,-58.8235294117647,4,2,1,5,0,1
248651,-58.8235294117647,4,2,1,90,0,1
248783,-58.8235294117647,4,2,1,5,0,1
248828,-58.8235294117647,4,2,1,90,0,1
249004,-71.4285714285714,4,2,1,90,0,1
251122,-58.8235294117647,4,2,1,90,0,1
251254,-58.8235294117647,4,2,1,5,0,1
251298,-58.8235294117647,4,2,1,90,0,1
251430,-58.8235294117647,4,2,1,5,0,1
251475,-58.8235294117647,4,2,1,90,0,1
251607,-58.8235294117647,4,2,1,5,0,1
251651,-58.8235294117647,4,2,1,90,0,1
251828,-66.6666666666667,4,2,1,90,0,1
253504,-76.9230769230769,4,2,1,90,0,1
253769,-100,4,2,1,90,0,1
254122,-76.9230769230769,4,2,1,90,0,1
254651,-200,4,2,1,75,0,0
257828,-66.6666666666667,4,2,1,80,0,0
258886,-76.9230769230769,4,2,1,75,0,0
261710,-83.3333333333333,4,2,1,80,0,1
284298,-100,4,2,1,70,0,0
289945,-100,4,2,1,65,0,0
295592,-142.857142857143,4,2,1,60,0,0
305475,-142.857142857143,4,2,1,50,0,0

[Colours]
Combo1 : 0,97,215
Combo2 : 255,255,128

[HitObjects]
115,341,534,6,0,P|100:310|102:275,1,62.5,4|0,1:2|2:0,2:0:0:0:
239,246,710,1,2,2:0:0:0:
240,253,798,1,2,2:0:0:0:
241,262,886,2,0,P|218:283|179:288,1,62.5,8|0,2:0|2:0,2:0:0:0:
37,229,1063,2,0,P|60:208|99:203,1,62.5,2|0,2:0|2:0,2:0:0:0:
238,142,1239,6,0,P|253:118|247:65,1,62.5,0|2,1:0|2:0,2:0:0:0:
90,67,1416,1,0,2:0:0:0:
83,69,1504,1,2,2:0:0:0:
76,74,1592,2,0,P|62:98|80:142,1,62.5,8|0,2:0|2:0,2:0:0:0:
169,209,1769,2,0,P|166:175|139:136,1,62.5,2|0,2:0|2:0,2:0:0:0:
50,8,1945,6,0,P|62:81|74:155,1,125,0|2,1:0|2:1,2:0:0:0:
134,9,2298,2,0,P|146:82|158:156,1,125,8|2,2:0|2:1,2:0:0:0:
218,10,2651,2,0,P|230:83|242:157,1,125,0|2,1:0|2:1,2:0:0:0:
302,11,3004,2,0,P|314:84|326:158,1,125,8|2,2:0|2:1,2:0:0:0:
490,132,3357,6,0,P|478:205|466:279,1,125,0|2,1:0|2:1,2:0:0:0:
406,133,3710,2,0,P|394:206|382:280,1,125,8|2,2:0|2:1,2:0:0:0:
322,134,4063,2,0,P|310:207|298:281,1,125,0|2,1:0|2:1,2:0:0:0:
238,135,4416,2,0,P|226:208|214:282,1,125,8|2,2:0|2:1,2:0:0:0:
49,256,4769,6,0,P|61:329|73:403,1,125,0|2,1:0|2:1,2:0:0:0:
133,257,5122,2,0,P|145:330|157:404,1,125,8|2,2:0|2:1,2:0:0:0:
217,258,5475,2,0,P|229:331|241:405,1,125,0|2,1:0|2:1,2:0:0:0:
301,259,5828,2,0,P|313:332|325:406,1,125,8|2,2:0|2:1,2:0:0:0:
512,102,6181,6,0,P|476:94|441:74,1,62.5,0|0,1:0|2:0,2:0:0:0:
308,25,6357,1,2,2:0:0:0:
300,30,6445,1,2,2:0:0:0:
296,37,6534,2,0,P|305:68|318:107,1,62.5,8|0,2:0|2:0,2:0:0:0:
408,194,6710,2,0,P|399:163|386:124,1,62.5,2|0,2:0|2:0,2:0:0:0:
285,196,6886,6,0,P|256:208|233:246,1,62.5,0|0,1:0|2:0,2:0:0:0:
358,314,7063,1,2,2:0:0:0:
363,308,7151,1,2,2:0:0:0:
368,302,7239,2,0,P|347:278|317:267,1,62.5,8|0,2:0|2:0,2:0:0:0:
164,203,7416,2,0,P|154:236|182:273,1,62.5,2|0,2:0|2:0,2:0:0:0:
274,383,7592,6,0,P|257:315|245:255,1,125,0|2,1:0|2:1,2:0:0:0:
165,261,7945,2,0,P|177:322|192:382,1,125,8|2,2:0|2:1,2:0:0:0:
110,381,8298,2,0,P|94:320|82:259,1,125,0|2,1:0|2:1,2:0:0:0:
1,259,8651,2,0,P|13:320|28:380,1,125,8|2,2:0|2:1,2:0:0:0:
239,254,9004,6,0,P|256:186|268:126,1,125,0|2,1:0|2:1,2:0:0:0:
348,132,9357,2,0,P|335:193|320:253,1,125,8|2,2:0|2:1,2:0:0:0:
403,252,9710,2,0,P|418:191|430:130,1,125,0|2,1:0|2:1,2:0:0:0:
512,130,10063,2,0,P|499:191|484:251,1,125,8|2,2:0|2:1,2:0:0:0:
411,334,10416,1,4,1:2:0:0:
183,222,10592,5,0,2:0:0:0:
266,113,10945,5,0,2:0:0:0:
318,240,11298,5,8,2:0:0:0:
172,123,11475,6,0,P|125:110|85:107,1,62.5,8|0,2:0|2:0,2:0:0:0:
328,249,11651,2,0,P|358:243|388:234,1,62.5,2|2,2:0|2:0,2:0:0:0:
161,204,11828,6,0,P|161:238|177:269,1,68.75,4|0,1:2|2:0,2:0:0:0:
313,162,12004,1,2,2:0:0:0:
307,146,12092,1,2,2:0:0:0:
292,140,12181,2,0,P|259:166|243:211,1,68.75,8|0,2:0|2:0,2:0:0:0:
405,305,12357,2,0,P|440:297|459:258,1,68.75,2|0,2:0|2:0,2:0:0:0:
296,323,12534,6,0,P|291:286|311:243,1,68.75,0|0,1:0|2:0,2:0:0:0:
468,102,12710,1,2,2:0:0:0:
493,112,12798,1,2,2:0:0:0:
501,143,12886,2,0,P|485:151|417:164,1,68.75,8|0,2:0|2:0,2:0:0:0:
208,136,13063,2,0,P|249:142|293:167,1,68.75,2|0,2:0|2:0,2:0:0:0:
404,236,13239,5,0,1:0:0:0:
388,233,13328,2,0,P|370:214|359:163,1,68.75,2|0,2:0|2:0,2:0:0:0:
236,43,13504,1,2,2:0:0:0:
256,38,13592,2,0,P|293:60|307:89,1,68.75,8|0,2:0|2:0,2:0:0:0:
395,14,13769,2,0,P|405:55|395:86,1,68.75,0|0,2:0|2:0,2:0:0:0:
285,216,13945,5,0,1:0:0:0:
276,224,14034,1,2,2:0:0:0:
265,232,14122,2,0,P|231:230|160:214,1,68.75,0|0,2:0|2:0,2:0:0:0:
314,343,14298,2,0,P|346:333|391:327,1,68.75,8|0,2:0|2:0,2:0:0:0:
239,384,14475,5,2,2:0:0:0:
229,380,14563,1,2,2:0:0:0:
222,373,14651,2,0,P|222:333|229:299,1,68.75,0|0,1:0|2:0,2:0:0:0:
118,194,14828,2,0,P|118:234|111:268,1,68.75,0|0,2:0|2:0,2:0:0:0:
63,337,15004,6,0,P|97:339|168:355,1,68.75,8|0,2:0|2:0,2:0:0:0:
265,232,15181,2,0,P|231:230|160:214,1,68.75,0|0,2:0|2:0,2:0:0:0:
84,126,15357,5,0,1:0:0:0:
84,117,15445,1,2,2:0:0:0:
89,105,15534,2,0,P|112:100|159:122,1,68.75,0|0,2:0|2:0,2:0:0:0:
256,19,15710,2,0,P|253:49|228:91,1,68.75,8|0,2:0|2:0,2:0:0:0:
302,154,15886,5,2,2:0:0:0:
285,161,15975,1,2,2:0:0:0:
274,182,16063,2,0,P|283:214|300:260,1,68.75,0|0,1:0|2:0,2:0:0:0:
362,322,16239,2,0,P|373:289|382:256,1,68.75,0|0,2:0|2:0,2:0:0:0:
438,178,16416,6,0,P|467:198|465:243,1,68.75,8|0,2:0|2:0,2:0:0:0:
381,256,16592,1,2,2:0:0:0:
372,266,16681,1,2,2:0:0:0:
359,271,16769,2,0,P|311:254|280:239,1,68.75,0|0,1:0|2:0,2:0:0:0:
291,372,16945,2,0,P|328:359|376:353,1,68.75,0|0,2:0|2:0,2:0:0:0:
190,384,17122,6,0,P|210:323|212:242,1,137.5,8|0,2:0|2:0,2:0:0:0:
73,165,17386,1,2,2:0:0:0:
57,155,17475,6,0,P|50:112|43:76,3,68.75,4|0|0|0,1:2|2:0|2:0|2:0,2:0:0:0:
240,0,17828,1,8,2:0:0:0:
248,9,17916,1,2,2:0:0:0:
254,19,18004,2,0,P|247:52|242:86,1,68.75,2|0,2:0|2:0,2:0:0:0:
168,225,18181,6,0,P|161:182|154:146,3,68.75,0|0|0|0,1:0|2:0|2:0|2:0,2:0:0:0:
351,70,18534,1,8,2:0:0:0:
359,79,18622,1,2,2:0:0:0:
365,89,18710,2,0,P|358:122|353:156,1,68.75,2|0,1:0|2:0,2:0:0:0:
273,290,18886,5,4,1:2:0:0:
284,322,18975,1,0,2:0:0:0:
305,349,19063,1,0,2:0:0:0:
334,367,19151,1,0,2:0:0:0:
371,375,19239,1,8,2:0:0:0:
401,372,19328,1,0,2:0:0:0:
432,359,19416,1,0,1:0:0:0:
458,335,19504,1,2,2:0:0:0:
474,305,19592,5,0,1:0:0:0:
484,257,19681,1,0,2:0:0:0:
460,215,19769,1,0,2:0:0:0:
423,183,19857,1,0,2:0:0:0:
397,142,19945,1,8,2:0:0:0:
393,94,20034,1,0,2:0:0:0:
398,45,20122,1,0,1:0:0:0:
434,14,20210,1,0,1:0:0:0:
489,7,20298,5,4,1:2:0:0:
470,80,20386,1,0,1:0:0:0:
410,127,20475,1,0,1:0:0:0:
341,157,20563,1,0,1:0:0:0:
266,146,20651,1,8,2:0:0:0:
197,114,20739,1,0,1:0:0:0:
120,114,20828,1,0,1:0:0:0:
48,139,20916,1,0,1:0:0:0:
9,203,21004,5,2,2:0:0:0:
84,209,21092,1,2,2:0:0:0:
127,146,21181,1,2,2:0:0:0:
150,74,21269,1,2,2:0:0:0:
115,7,21357,2,0,L|70:18,8,34.375,0|0|0|0|0|0|0|0|0,1:2|2:0|2:0|2:0|2:0|2:0|2:0|2:0|2:0,2:0:0:0:
436,59,21886,5,2,2:1:0:0:
458,74,21975,5,2,2:1:0:0:
470,109,22063,5,2,2:1:0:0:
464,140,22151,5,2,2:1:0:0:
447,174,22239,5,2,2:1:0:0:
410,192,22328,5,2,2:1:0:0:
367,191,22416,5,2,2:1:0:0:
325,168,22504,5,2,2:1:0:0:
280,110,22592,6,0,L|293:43,2,45.8333333333333,0|0|0,1:0|1:0|1:0,2:0:0:0:
240,247,22769,6,0,B|255:254|262:290|262:290|289:228|237:169|218:208|184:152|199:81,1,281.25,8|0,2:0|2:0,2:0:0:0:
101,11,23122,6,0,B|23:0|23:0|-6:78,1,150,4|0,1:2|2:0,2:0:0:0:
131,262,23386,1,2,2:0:0:0:
136,267,23475,2,0,P|148:230|127:178,1,75,8|0,2:0|2:0,2:0:0:0:
72,81,23651,2,0,P|89:113|128:119,1,75,2|0,2:0|2:0,2:0:0:0:
299,53,23828,6,0,P|312:27|361:47,1,75,0|0,1:0|2:0,2:0:0:0:
286,174,24004,1,2,2:0:0:0:
282,183,24092,2,0,P|237:159|190:158,1,75,0|8,2:0|2:0,2:0:0:0:
446,315,24269,1,2,2:0:0:0:
456,321,24357,2,0,P|466:285|468:231,1,75,2|0,2:0|2:0,2:0:0:0:
353,108,24534,6,0,P|371:190|394:264,1,150,0|0,1:0|2:0,2:0:0:0:
257,373,24798,1,2,2:0:0:0:
266,384,24886,2,0,P|288:331|291:295,1,75,8|0,2:0|2:0,2:0:0:0:
124,119,25063,2,0,P|131:155|148:189,1,75,2|0,2:0|2:0,2:0:0:0:
390,253,25239,6,0,L|479:236,1,75,0|0,1:0|2:0,2:0:0:0:
211,249,25416,1,2,2:1:0:0:
196,254,25504,1,2,2:1:0:0:
181,258,25592,2,0,L|107:272,1,75,8|0,2:0|2:0,2:0:0:0:
399,242,25769,2,0,L|488:225,1,75,2|0,2:1|2:0,2:0:0:0:
324,55,25945,6,0,P|305:90|325:197,1,150,0|0,1:0|2:0,2:0:0:0:
313,362,26210,1,2,2:0:0:0:
325,354,26298,2,0,P|339:315|312:268,1,75,8|0,2:0|2:0,2:0:0:0:
181,258,26475,2,0,P|199:281|253:280,1,75,2|0,2:0|2:0,2:0:0:0:
479,114,26651,6,0,P|491:75|507:41,1,75,0|0,1:0|2:0,2:0:0:0:
363,0,26828,1,2,2:1:0:0:
343,10,26916,1,2,2:1:0:0:
337,26,27004,2,0,P|348:67|369:105,1,75,8|0,2:0|2:0,2:0:0:0:
472,227,27181,2,0,P|456:192|415:180,1,75,2|0,2:1|2:0,2:0:0:0:
103,182,27357,6,0,P|206:155|312:132,1,150,0|0,1:0|2:0,2:0:0:0:
309,261,27622,1,2,2:0:0:0:
320,252,27710,2,0,P|336:221|337:175,1,75,8|0,2:0|2:0,2:0:0:0:
175,14,27886,2,0,P|155:38|157:92,1,75,2|0,2:0|2:0,2:0:0:0:
255,354,28063,5,0,1:0:0:0:
143,252,28239,6,0,P|96:261|37:274,1,75,8|0,2:0|2:0,2:0:0:0:
268,364,28416,2,0,P|304:356|341:349,1,75,8|0,2:0|2:0,2:0:0:0:
504,177,28592,5,2,2:1:0:0:
511,158,28681,1,2,2:1:0:0:
506,141,28769,2,0,P|471:134|435:243,1,150,0|0,1:0|2:0,2:0:0:0:
504,364,29034,1,2,2:0:0:0:
512,349,29122,2,0,P|503:304|491:268,1,75,8|0,2:0|2:0,2:0:0:0:
305,161,29298,2,0,P|314:206|326:242,1,75,2|0,2:0|2:0,2:0:0:0:
392,365,29475,6,0,P|405:290|420:204,1,150,0|0,1:0|2:0,2:0:0:0:
295,75,29739,1,2,2:0:0:0:
288,64,29828,2,0,P|246:65|248:103,1,75,8|0,2:0|2:0,2:0:0:0:
123,233,30004,2,0,P|87:216|84:183,1,75,2|0,2:0|2:0,2:0:0:0:
305,161,30181,6,0,P|204:179|157:146,1,150,0|0,1:0|2:0,2:0:0:0:
9,11,30445,1,2,2:0:0:0:
18,0,30534,2,0,P|43:28|55:78,1,75,8|0,2:0|2:0,2:0:0:0:
83,184,30710,2,0,P|92:144|116:105,1,75,2|0,2:0|2:0,2:0:0:0:
303,40,30886,5,0,1:0:0:0:
329,46,30975,1,2,2:1:0:0:
347,63,31063,2,0,P|356:79|353:143,1,75,2|0,2:1|2:0,2:0:0:0:
186,335,31239,2,0,P|181:298|195:263,1,75,8|0,2:0|2:0,2:0:0:0:
474,159,31416,2,0,P|431:194|395:194,1,75,2|0,2:1|2:0,2:0:0:0:
222,97,31592,6,0,B|259:111|259:111|297:240,1,150,0|0,1:0|2:0,2:0:0:0:
442,383,31857,1,2,2:0:0:0:
453,379,31945,2,0,P|462:338|477:305,1,75,8|0,2:0|2:0,2:0:0:0:
385,173,32122,1,2,2:0:0:0:
404,179,32210,1,2,2:0:0:0:
413,196,32298,2,0,P|404:237|389:270,1,75,0|0,1:0|2:0,2:0:0:0:
164,288,32475,1,2,2:1:0:0:
150,266,32563,1,2,2:1:0:0:
150,244,32651,2,0,P|178:215|218:226,1,75,8|0,2:0|2:0,2:0:0:0:
328,374,32828,2,0,P|297:339|297:295,1,75,2|0,2:1|2:0,2:0:0:0:
467,113,33004,6,0,B|386:86|447:41|324:15,1,150,0|0,1:0|2:0,2:0:0:0:
135,121,33269,1,2,2:0:0:0:
144,138,33357,2,0,P|178:137|214:117,1,75,8|0,2:0|2:0,2:0:0:0:
266,1,33534,2,0,P|263:31|287:76,1,75,2|0,2:0|2:0,2:0:0:0:
391,266,33710,1,0,1:0:0:0:
481,181,33886,6,0,P|489:134|498:106,1,75,8|0,2:0|2:0,2:0:0:0:
381,271,34063,2,0,P|370:306|364:343,1,75,8|0,2:0|2:0,2:0:0:0:
145,384,34239,5,2,2:1:0:0:
115,382,34328,1,2,2:1:0:0:
100,360,34416,2,0,P|94:332|183:274,1,150,4|0,1:2|2:0,2:0:0:0:
335,171,34681,1,2,2:0:0:0:
328,183,34769,2,0,P|299:197|238:200,1,75,8|0,2:0|2:0,2:0:0:0:
62,72,34945,2,0,P|96:77|138:100,1,75,2|0,2:0|2:0,2:0:0:0:
283,350,35122,6,0,P|260:316|255:274,1,75,0|0,1:0|2:0,2:0:0:0:
222,57,35298,1,2,2:0:0:0:
232,64,35386,2,0,P|227:109|190:143,1,75,0|8,2:0|2:0,2:0:0:0:
70,230,35563,1,2,2:0:0:0:
70,217,35651,2,0,P|116:202|163:197,1,75,2|0,2:0|2:0,2:0:0:0:
361,277,35828,6,0,P|451:292|528:314,1,150,0|0,1:0|2:0,2:0:0:0:
414,154,36092,1,2,2:0:0:0:
405,147,36181,2,0,P|367:156|329:173,1,75,8|0,2:0|2:0,2:0:0:0:
215,344,36357,2,0,P|243:313|256:270,1,75,2|0,2:0|2:0,2:0:0:0:
220,168,36534,6,0,L|131:151,1,75,0|0,1:0|2:0,2:0:0:0:
254,282,36710,1,2,2:1:0:0:
269,285,36798,1,2,2:1:0:0:
285,286,36886,2,0,L|359:300,1,75,8|0,2:0|2:0,2:0:0:0:
211,157,37063,2,0,L|122:140,1,75,2|0,2:1|2:0,2:0:0:0:
43,274,37239,6,0,P|86:254|98:223,1,75,0|0,1:0|2:0,2:0:0:0:
98,63,37416,1,2,2:0:0:0:
85,60,37504,2,0,P|62:85|61:151,1,75,0|8,2:0|2:0,2:0:0:0:
255,292,37681,1,2,2:0:0:0:
254,282,37769,2,0,P|216:263|153:257,1,75,0|0,2:0|2:0,2:0:0:0:
93,371,37945,6,0,P|134:350|181:346,1,75,0|0,1:0|2:0,2:0:0:0:
375,233,38122,1,2,2:1:0:0:
393,228,38210,1,2,2:1:0:0:
412,235,38298,2,0,P|430:262|417:307,1,75,8|0,2:0|2:0,2:0:0:0:
295,382,38475,2,0,P|286:351|282:307,1,75,2|0,2:1|2:0,2:0:0:0:
337,148,38651,6,0,P|348:51|358:-14,1,150,0|0,1:0|2:0,2:0:0:0:
474,9,38916,1,2,2:0:0:0:
484,18,39004,2,0,P|472:49|432:32,1,75,8|0,2:0|2:0,2:0:0:0:
209,47,39181,2,0,P|230:32|245:76,1,75,2|0,2:0|2:0,2:0:0:0:
250,203,39357,1,0,1:0:0:0:
123,81,39534,6,0,P|114:27|108:-10,1,75,8|0,2:0|2:0,2:0:0:0:
261,211,39710,2,0,P|270:265|276:302,1,75,8|0,2:0|2:0,2:0:0:0:
73,384,39886,5,0,1:0:0:0:
61,379,39975,1,0,2:0:0:0:
38,349,40063,5,4,1:2:0:0:
34,309,40151,1,2,2:0:0:0:
60,267,40239,1,2,2:0:0:0:
110,255,40328,1,2,2:0:0:0:
141,234,40416,2,0,P|156:207|148:156,1,75,8|0,2:0|2:0,2:0:0:0:
8,70,40592,1,2,2:0:0:0:
0,99,40681,1,2,2:0:0:0:
8,127,40769,2,0,P|46:148|88:144,1,75,0|0,1:0|2:0,2:0:0:0:
284,65,40945,5,2,2:0:0:0:
269,49,41034,1,2,2:0:0:0:
246,47,41122,2,0,P|217:67|218:115,1,75,8|0,2:0|2:0,2:0:0:0:
443,222,41298,2,0,P|416:194|382:192,1,75,2|0,2:0|2:0,2:0:0:0:
179,288,41475,5,4,1:2:0:0:
208,304,41563,1,2,2:0:0:0:
243,297,41651,1,2,2:0:0:0:
268,274,41739,1,2,2:0:0:0:
289,242,41828,2,0,P|286:204|279:164,1,75,8|0,2:0|2:0,2:0:0:0:
395,27,42004,1,2,2:0:0:0:
440,14,42092,1,2,2:0:0:0:
479,35,42181,2,0,P|479:72|466:117,1,75,0|0,1:0|2:0,2:0:0:0:
195,176,42357,2,0,P|198:138|219:94,1,75,2|0,2:0|2:0,2:0:0:0:
338,104,42534,5,8,2:0:0:0:
333,95,42622,1,2,2:0:0:0:
340,87,42710,1,2,2:0:0:0:
353,91,42798,1,2,2:0:0:0:
373,106,42886,5,4,1:2:0:0:
395,157,42975,1,2,2:0:0:0:
393,209,43063,1,2,2:0:0:0:
358,260,43151,1,2,2:0:0:0:
365,313,43239,2,0,P|397:325|451:343,1,75,8|0,2:0|2:0,2:0:0:0:
263,193,43416,1,2,2:0:0:0:
230,174,43504,1,2,2:0:0:0:
195,176,43592,2,0,P|159:184|115:198,1,75,4|0,1:2|2:0,2:0:0:0:
221,364,43769,5,2,2:0:0:0:
245,364,43857,1,2,2:0:0:0:
259,361,43945,6,0,P|272:335|278:313,4,37.5,8|0|0|0|0,2:0|2:0|2:0|2:0|2:0,2:0:0:0:
188,258,44210,1,0,2:0:0:0:
196,284,44298,1,4,1:2:0:0:
409,233,44475,5,2,2:0:0:0:
421,199,44563,2,0,P|414:155|398:108,1,75,0|0,2:0|2:0,2:0:0:0:
246,29,44739,1,2,2:0:0:0:
263,65,44828,2,0,P|301:83|349:86,1,75,0|0,2:0|2:0,2:0:0:0:
486,21,45004,2,0,P|435:34|418:67,1,75,2|0,2:1|2:0,2:0:0:0:
323,333,45181,6,0,L|335:391,3,37.5,0|0|0|0,1:0|1:0|1:0|1:0,2:0:0:0:
326,301,45357,5,8,2:0:0:0:
346,255,45445,5,2,2:1:0:0:
342,213,45534,5,2,2:1:0:0:
319,171,45622,5,2,2:1:0:0:
286,141,45710,5,4,1:2:0:0:
201,384,46592,5,4,1:2:0:0:
269,0,46945,5,0,1:0:0:0:
319,171,47122,1,4,1:2:0:0:
319,171,47828,6,0,L|429:152,1,75,2|0,2:1|2:0,2:0:0:0:
226,244,48004,6,0,L|175:228,3,37.5,0|0|0|0,1:0|1:0|1:0|1:0,2:0:0:0:
148,237,48181,6,0,B|119:145|202:84|202:84|207:113|244:125,1,225,8|0,2:0|2:0,2:0:0:0:
329,16,48534,6,0,P|283:33|277:69,1,68.75,4|0,1:2|2:0,2:0:0:0:
413,230,48710,1,2,2:0:0:0:
433,225,48798,1,2,2:0:0:0:
453,215,48886,2,0,P|468:179|462:135,1,68.75,8|0,2:0|2:0,2:0:0:0:
199,69,49063,2,0,P|199:89|243:121,1,68.75,2|0,2:0|2:0,2:0:0:0:
496,64,49239,6,0,P|441:72|402:83,1,68.75,0|0,1:0|2:0,2:0:0:0:
227,215,49416,1,2,2:0:0:0:
237,222,49504,2,0,P|289:210|325:204,1,68.75,0|8,2:0|2:0,2:0:0:0:
512,312,49681,1,2,2:0:0:0:
502,305,49769,2,0,P|450:317|414:323,1,68.75,2|0,2:0|2:0,2:0:0:0:
225,384,49945,6,0,P|216:353|203:300,1,68.75,0|0,1:0|2:0,2:0:0:0:
36,162,50122,2,0,P|44:195|53:228,1,68.75,2|0,2:1|2:0,2:0:0:0:
218,382,50298,6,0,P|209:351|196:298,1,68.75,8|0,2:0|2:0,2:0:0:0:
29,160,50475,2,0,P|37:193|46:226,1,68.75,2|0,2:1|2:0,2:0:0:0:
101,314,50651,5,0,1:0:0:0:
323,291,50828,6,0,P|341:289|347:242,1,68.75,8|0,2:0|2:0,2:0:0:0:
147,106,51004,6,0,P|142:142|182:165,1,68.75,8|0,2:0|2:0,2:0:0:0:
342,132,51181,6,0,P|290:135|276:174,1,68.75,0|0,1:0|2:0,2:0:0:0:
228,244,51357,5,4,1:2:0:0:
0,115,52239,5,4,1:2:0:0:
512,240,52592,5,0,1:2:0:0:
362,174,52769,1,4,1:2:0:0:
362,174,53475,6,0,P|352:133|345:83,1,75,2|0,2:0|2:0,2:0:0:0:
298,252,53651,6,0,L|291:295,3,37.5,0|0|0|0,1:0|1:0|1:0|1:0,2:0:0:0:
270,326,53828,6,0,B|205:316|128:269|128:269|162:301|156:360,1,225,8|0,2:0|2:0,2:0:0:0:
42,357,54181,6,0,P|40:340|81:333,1,68.75,4|0,1:2|2:0,2:0:0:0:
206,184,54357,1,2,2:0:0:0:
218,169,54445,1,2,2:0:0:0:
218,147,54534,2,0,P|200:120|159:144,1,68.75,8|0,2:0|2:0,2:0:0:0:
0,232,54710,2,0,P|39:215|95:206,1,68.75,2|0,2:0|2:0,2:0:0:0:
301,159,54886,6,0,P|223:136|136:122,1,137.5,4|0,1:2|2:0,2:0:0:0:
70,55,55151,1,2,2:0:0:0:
69,65,55239,2,0,P|100:51|157:45,1,68.75,8|0,2:0|2:0,2:0:0:0:
217,0,55416,2,0,P|248:12|293:48,1,68.75,2|0,2:0|2:0,2:0:0:0:
491,75,55592,6,0,L|473:155,1,68.75,4|0,1:2|2:0,2:0:0:0:
316,226,55769,2,0,L|300:158,1,68.75,2|0,2:1|2:0,2:0:0:0:
486,81,55945,6,0,L|468:161,1,68.75,8|0,2:0|2:0,2:0:0:0:
311,232,56122,2,0,L|295:164,1,68.75,2|0,2:1|2:0,2:0:0:0:
378,98,56298,5,0,1:0:0:0:
266,301,56475,6,0,P|230:288|234:249,1,68.75,8|0,2:0|2:0,2:0:0:0:
454,370,56651,6,0,P|490:357|486:318,1,68.75,8|0,2:0|2:0,2:0:0:0:
139,268,56828,6,0,P|132:230|168:214,1,68.75,0|0,1:0|2:0,2:0:0:0:
392,300,57004,5,4,1:2:0:0:
0,364,57534,5,0,1:0:0:0:
7,384,57710,2,0,P|36:301|73:146,1,225,8|0,2:0|2:0,2:0:0:0:
225,43,58416,6,0,B|179:34|152:0|152:0|152:41|116:87,2,168.75,0|0|0,1:0|1:0|1:0,2:0:0:0:
396,206,59122,2,0,P|333:156|181:124,1,225,8|0,2:0|2:0,2:0:0:0:
292,359,59828,6,0,B|464:378|464:378|520:308,1,225,0|0,1:0|2:0,2:0:0:0:
399,282,60357,1,0,1:0:0:0:
388,275,60534,2,0,B|374:161|471:104|518:197|443:192,1,225,8|0,2:0|2:0,2:0:0:0:
146,195,61239,6,0,B|33:223|108:262|7:291,1,168.75,0|0,1:0|2:0,2:0:0:0:
14,288,61592,5,2,2:1:0:0:
4,269,61681,1,2,2:1:0:0:
11,243,61769,1,0,1:0:0:0:
46,227,61857,1,2,2:1:0:0:
102,236,61945,5,2,2:1:0:0:
139,276,62034,5,2,2:1:0:0:
189,312,62122,5,0,1:0:0:0:
254,307,62210,5,2,2:1:0:0:
305,254,62298,6,0,P|308:216|313:184,1,68.7500000000001,8|0,2:0|2:0,2:0:0:0:
256,17,62475,5,0,1:0:0:0:
240,53,62563,1,0,1:0:0:0:
269,91,62651,6,0,P|354:71|425:62,1,137.5,4|0,1:2|2:0,2:0:0:0:
501,50,62916,1,2,2:0:0:0:
501,39,63004,2,0,P|437:63|442:141,1,137.5,8|2,2:0|2:1,2:0:0:0:
364,214,63269,1,0,2:0:0:0:
348,228,63357,2,0,P|305:238|256:250,1,68.7500000000001,0|0,2:0|2:0,2:0:0:0:
452,275,63534,5,2,2:0:0:0:
466,290,63622,1,2,2:0:0:0:
489,291,63710,2,0,P|506:273|513:231,1,68.7500000000001,8|0,2:0|2:0,2:0:0:0:
269,91,63886,2,0,P|271:124|292:151,1,68.7500000000001,2|0,2:1|2:0,2:0:0:0:
355,336,64063,6,0,P|376:214|403:117,1,206.25,4|2,1:2|2:0,2:0:0:0:
384,43,64416,2,0,P|360:37|354:83,1,68.7500000000001,8|0,2:0|2:0,2:0:0:0:
264,225,64592,2,0,P|239:226|219:176,1,68.7500000000001,2|0,2:1|2:0,2:0:0:0:
134,117,64769,6,0,P|242:94|302:88,1,137.5,0|2,1:0|2:1,2:0:0:0:
134,311,65122,2,0,P|66:321|0:337,1,137.5,8|2,2:0|2:1,2:0:0:0:
336,384,65475,5,4,1:2:0:0:
467,227,65651,1,2,2:1:0:0:
265,265,65828,2,0,P|333:274|399:292,1,137.5,8|0,2:0|2:1,2:0:0:0:
512,87,66181,6,0,P|425:149|319:129,2,206.25,4|2|2,1:2|2:1|2:1,2:0:0:0:
227,0,66886,5,4,1:2:0:0:
273,86,67063,5,2,2:1:0:0:
280,66,67151,1,2,2:1:0:0:
287,43,67239,1,2,2:1:0:0:
211,150,67416,5,2,2:0:0:0:
204,129,67504,1,2,2:0:0:0:
197,107,67592,1,2,2:0:0:0:
298,283,67769,6,0,L|320:199,1,68.7500000000001,2|0,2:0|2:0,2:0:0:0:
156,348,67945,6,0,L|134:264,1,68.7500000000001,2|0,2:1|2:0,2:0:0:0:
437,370,68122,6,0,L|459:286,1,68.7500000000001,2|0,2:1|2:0,2:0:0:0:
462,118,68298,6,0,B|472:91|500:79|500:79|433:58|354:152|413:219,1,243.749988842011,2|0,2:0|2:0,2:0:0:0:
455,304,68651,5,2,2:0:0:0:
475,293,68739,1,2,2:0:0:0:
499,269,68828,1,2,2:0:0:0:
511,216,68916,1,2,2:0:0:0:
477,176,69004,2,0,L|384:199,1,81.25,2|0,2:1|2:0,2:0:0:0:
198,304,69181,6,0,L|138:317,3,40.625,0|0|0|0,1:0|1:0|1:0|1:0,2:0:0:0:
265,349,69357,6,0,L|347:331,1,81.25,8|0,2:0|2:0,2:0:0:0:
89,269,69534,2,0,L|9:286,1,81.25,0|0,1:0|2:0,2:0:0:0:
319,93,69710,6,0,B|287:63|284:13|284:13|260:56|205:71,1,175,4|0,1:2|2:0,2:0:0:0:
197,213,69975,1,2,2:0:0:0:
212,209,70063,2,0,P|248:175|255:125,1,87.5,8|0,2:0|2:0,2:0:0:0:
70,39,70239,2,0,P|92:65|161:61,1,87.5,2|0,2:0|2:0,2:0:0:0:
390,33,70416,6,0,P|440:20|503:16,1,87.5,0|0,1:0|2:0,2:0:0:0:
270,284,70592,1,2,2:0:0:0:
263,294,70681,2,0,P|219:299|177:310,1,87.5,0|8,2:0|2:0,2:0:0:0:
343,155,70857,1,2,2:0:0:0:
350,146,70945,2,0,P|394:141|436:130,1,87.5,2|0,2:0|2:0,2:0:0:0:
448,342,71122,6,0,B|348:302|422:277|312:224,1,175,0|0,1:0|2:0,2:0:0:0:
166,136,71386,1,2,2:0:0:0:
180,125,71475,2,0,P|213:117|224:160,1,87.5,8|0,2:0|2:0,2:0:0:0:
21,226,71651,1,2,2:0:0:0:
0,256,71739,1,2,2:0:0:0:
3,298,71828,6,0,B|50:366|50:366|121:332,1,159.375,0|0,1:0|2:0,2:0:0:0:
187,354,72004,2,0,B|222:279|222:279|157:234,1,159.375,2|0,2:1|2:0,2:0:0:0:
142,159,72181,2,0,B|59:165|59:165|53:244,1,159.375,8|0,2:0|2:0,2:0:0:0:
54,241,72357,6,0,P|110:234|163:236,1,106.25,2|0,2:1|2:0,2:0:0:0:
397,181,72534,6,0,P|428:57|445:-7,1,187.5,0|0,1:0|2:0,2:0:0:0:
298,31,72798,1,2,2:0:0:0:
288,34,72886,2,0,P|296:68|319:142,1,93.7499999999999,8|0,2:0|2:0,2:0:0:0:
404,318,73063,5,2,2:0:0:0:
446,305,73151,1,2,2:0:0:0:
456,258,73239,2,0,P|426:225|354:242,1,93.7499999999999,0|0,1:0|2:0,2:0:0:0:
89,331,73416,5,2,2:0:0:0:
83,365,73504,1,2,2:0:0:0:
104,384,73592,2,0,P|154:371|198:361,1,93.7499999999999,8|0,2:0|2:0,2:0:0:0:
280,216,73769,5,2,2:0:0:0:
308,146,73857,1,2,2:0:0:0:
264,82,73945,6,0,P|218:68|58:36,1,187.5,0|0,1:0|2:0,2:0:0:0:
4,201,74210,6,0,P|51:181|202:159,1,187.5,2|0,2:1|2:0,2:0:0:0:
238,295,74475,6,0,P|198:267|119:253,1,93.7499999999999,0|0,1:0|2:0,2:0:0:0:
277,384,74651,6,0,P|388:358|470:356,1,159.375,0|0,1:0|2:0,2:0:0:0:
491,316,74828,2,0,P|444:251|388:195,1,159.375,2|0,2:1|2:0,2:0:0:0:
349,133,75004,2,0,P|460:107|542:105,1,159.375,8|0,2:0|2:0,2:0:0:0:
505,35,75181,2,0,P|453:24|460:79,1,106.25,2|0,2:1|2:0,2:0:0:0:
238,295,75357,6,0,P|257:214|261:86,1,175,4|0,1:2|2:0,2:0:0:0:
245,40,75622,1,2,2:0:0:0:
238,30,75710,2,0,P|196:47|201:92,1,87.5,8|0,2:0|2:0,2:0:0:0:
277,384,75886,2,0,P|319:367|314:322,1,87.5,2|0,2:0|2:0,2:0:0:0:
27,241,76063,6,0,P|61:233|127:217,1,87.5,0|0,1:0|2:0,2:0:0:0:
415,211,76239,1,2,2:0:0:0:
410,228,76328,2,0,P|367:238|324:248,1,87.5,0|8,2:0|2:0,2:0:0:0:
104,128,76504,1,2,2:0:0:0:
109,112,76592,2,0,P|151:101|194:91,1,87.5,2|0,2:0|2:0,2:0:0:0:
365,30,76769,6,0,P|326:-14|282:71,1,175,0|0,1:0|2:0,2:0:0:0:
213,306,77034,1,2,2:0:0:0:
206,292,77122,2,0,P|216:248|233:198,1,87.5,8|0,2:0|2:0,2:0:0:0:
47,19,77298,1,2,2:0:0:0:
29,28,77386,1,2,2:0:0:0:
19,42,77475,6,0,B|6:83|6:83|66:212,1,159.375,0|0,1:0|2:0,2:0:0:0:
47,270,77651,2,0,B|89:260|89:260|170:144,1,159.375,2|0,2:1|2:0,2:0:0:0:
231,129,77828,2,0,B|201:97|201:97|60:84,1,159.375,8|0,2:0|2:0,2:0:0:0:
86,87,78004,6,0,P|136:150|170:173,1,106.25,2|0,2:1|2:0,2:0:0:0:
399,360,78181,6,0,P|363:260|353:154,1,187.5,0|0,1:0|2:0,2:0:0:0:
472,71,78445,1,2,2:0:0:0:
478,80,78534,2,0,P|462:115|408:110,1,93.7499999999999,8|0,2:0|2:0,2:0:0:0:
223,62,78710,1,2,2:0:0:0:
239,36,78798,1,2,2:0:0:0:
272,31,78886,2,0,P|318:50|309:104,1,93.7499999999999,0|0,1:0|2:0,2:0:0:0:
188,293,79063,5,2,2:0:0:0:
173,323,79151,1,2,2:0:0:0:
141,343,79239,2,0,P|84:327|28:316,1,93.7499999999999,8|0,2:0|2:0,2:0:0:0:
23,129,79416,5,2,2:0:0:0:
45,108,79504,1,2,2:0:0:0:
91,107,79592,2,0,P|181:142|279:197,1,187.5,0|0,1:0|2:0,2:0:0:0:
294,96,79857,2,0,P|342:156|388:233,1,162.5,2|0,2:1|2:0,2:0:0:0:
476,188,80122,2,0,P|483:236|484:293,1,62.5,0|0,1:0|2:0,2:0:0:0:
434,317,80298,1,0,1:0:0:0:
268,282,80475,6,0,P|220:288|159:297,1,81.25,8|0,2:0|2:0,2:0:0:0:
343,320,80651,2,0,P|372:358|410:406,1,81.25,8|0,2:0|2:0,2:0:0:0:
339,237,80828,2,0,P|357:192|380:135,1,81.25,0|0,1:0|2:0,2:0:0:0:
418,23,81004,6,0,B|353:-15|274:34|296:67|328:72|314:138|230:199|162:149|179:94|133:83|133:83|34:69|98:-4|98:-4|48:59|145:125|126:184|91:156|58:233|152:255|152:255|154:249|154:249|221:242|281:293|296:337|278:368,1,1000,4|0,1:2|2:0,2:0:0:0:
282,355,84181,6,0,B|278:322|278:322|315:314|315:314|294:342,1,93.7499999999999,4|0,1:2|2:0,2:0:0:0:
384,287,84886,2,0,B|388:254|388:254|351:246|351:246|372:274,1,93.7499999999999,4|0,1:2|2:0,2:0:0:0:
177,322,85239,6,0,P|184:295|196:220,1,81.25,2|0,2:0|2:0,2:0:0:0:
281,202,85416,2,0,P|274:175|262:100,1,81.25,2|0,2:0|2:0,2:0:0:0:
287,21,85592,5,2,2:1:0:0:
306,6,85681,1,2,2:1:0:0:
332,24,85769,1,2,2:1:0:0:
329,60,85857,1,2,2:1:0:0:
288,88,85945,1,2,2:0:0:0:
219,104,86034,1,2,2:0:0:0:
152,109,86122,2,0,L|96:96,3,40.625,0|0|0|0,1:0|1:0|1:0|1:0,2:0:0:0:
41,135,86298,1,8,2:0:0:0:
493,14,86651,6,0,P|448:176|425:361,1,337.5,2|0,1:0|2:0,2:0:0:0:
0,384,87004,2,0,P|45:222|68:37,1,337.5,2|0,2:1|2:0,2:0:0:0:
480,24,87357,2,0,P|435:186|412:371,1,337.5,2|0,2:1|2:0,2:0:0:0:
90,262,87710,6,0,P|79:178|56:97,1,112.5,2|0,2:1|2:0,2:0:0:0:
380,74,87886,2,0,P|390:157|413:238,1,112.5,2|0,2:1|2:0,2:0:0:0:
338,338,88063,6,0,P|282:344|227:355,1,112.5,2|0,2:1|2:0,2:0:0:0:
151,47,88239,2,0,P|206:40|262:30,1,112.5,2|0,2:1|2:0,2:0:0:0:
282,258,88416,6,0,P|255:125|171:231,1,337.5,2|0,2:1|2:0,2:0:0:0:
203,207,88769,6,0,P|253:160|264:227,1,168.75,2|0,2:1|2:0,2:0:0:0:
212,299,88945,6,0,L|193:364,3,56.25,2|0|0|0,1:0|1:0|1:0|1:0,2:0:0:0:
243,384,89122,6,0,P|213:163|197:30,1,337.5,8|0,2:0|2:0,2:0:0:0:
373,0,89475,6,0,P|385:4|396:62,1,62.5,4|0,1:2|2:0,2:0:0:0:
350,149,89651,1,2,2:0:0:0:
341,134,89739,1,2,2:0:0:0:
348,116,89828,1,8,2:0:0:0:
372,122,89916,1,2,2:0:0:0:
385,150,90004,1,2,2:0:0:0:
386,190,90092,1,2,2:0:0:0:
360,223,90181,2,0,P|324:232|284:242,3,62.5,0|0|0|0,1:0|2:0|2:0|2:0,2:0:0:0:
137,117,90534,2,0,P|173:126|213:136,3,62.5,8|0|0|0,2:0|2:0|2:0|2:0,2:0:0:0:
29,357,90886,6,0,P|16:325|17:282,1,62.5,0|0,1:0|2:0,2:0:0:0:
117,214,91063,2,0,P|104:246|105:289,1,62.5,2|0,2:1|2:0,2:0:0:0:
196,356,91239,2,0,P|183:324|184:281,1,62.5,8|0,2:0|2:0,2:0:0:0:
299,238,91416,5,2,2:1:0:0:
286,266,91504,1,2,2:1:0:0:
284,297,91592,1,0,1:0:0:0:
395,367,91769,5,2,2:1:0:0:
382,339,91857,1,2,2:1:0:0:
380,308,91945,1,8,2:0:0:0:
469,253,92122,5,2,2:1:0:0:
342,125,92298,6,0,P|268:90|266:34,1,125,0|0,1:0|2:0,2:0:0:0:
419,88,92563,1,2,2:0:0:0:
419,88,92651,2,0,P|425:169|378:199,1,125,8|0,2:0|2:0,2:0:0:0:
349,40,92916,1,2,2:0:0:0:
349,40,93004,2,0,P|416:-6|465:19,1,125,0|0,1:0|2:0,2:0:0:0:
191,128,93269,5,2,2:0:0:0:
191,128,93357,2,0,P|126:118|44:107,1,125,8|0,2:0|2:0,2:0:0:0:
174,384,93622,5,2,2:0:0:0:
174,384,93710,2,0,P|201:314|207:252,1,125,0|0,1:0|2:0,2:0:0:0:
136,244,93975,1,2,2:1:0:0:
136,244,94063,2,0,P|109:314|103:376,1,125,8|0,2:0|2:0,2:0:0:0:
503,375,94416,6,0,P|482:228|478:191,1,168.75,0|0,1:0|2:0,2:0:0:0:
411,176,94592,2,0,P|400:259|387:343,1,168.75,2|0,2:1|2:0,2:0:0:0:
321,384,94769,2,0,P|280:101|272:30,1,337.5,8|0,2:0|2:0,2:0:0:0:
93,0,95122,6,0,P|77:104|71:131,1,125,0|0,1:0|2:0,2:0:0:0:
6,232,95386,1,2,2:0:0:0:
6,232,95475,2,0,P|104:193|130:185,1,125,8|0,2:0|2:0,2:0:0:0:
250,191,95739,1,2,2:0:0:0:
250,191,95828,2,0,P|167:125|147:106,1,125,0|0,1:0|2:0,2:0:0:0:
347,186,96092,5,2,2:0:0:0:
347,186,96181,2,0,P|339:229|316:264,3,62.5,8|0|0|0,2:0|2:0|2:0|2:0,2:0:0:0:
256,0,96534,5,4,1:2:0:0:
224,324,97416,6,0,L|236:360,3,31.25,0|0|0|0,1:0|1:0|1:0|1:0,2:0:0:0:
192,372,97592,6,0,P|226:282|210:80,1,281.25,8|0,2:0|2:0,2:0:0:0:
100,72,97945,6,0,P|118:116|214:82,1,168.75,4|0,1:2|2:0,2:0:0:0:
286,64,98122,6,0,P|304:-11|365:23,1,168.75,2|0,2:1|2:0,2:0:0:0:
405,87,98298,6,0,P|318:153|396:352,1,337.5,8|0,2:0|2:0,2:0:0:0:
467,241,98651,6,0,P|307:248|189:377,1,337.5,2|0,1:0|2:0,2:0:0:0:
0,316,99004,6,0,P|26:385|66:322,1,168.75,8|0,2:0|2:0,2:0:0:0:
135,296,99181,6,0,P|186:307|187:232,1,140.625,2|0,2:1|2:0,2:0:0:0:
226,168,99357,6,0,P|256:123|208:108,1,112.5,0|0,1:0|2:0,2:0:0:0:
180,41,99534,6,0,P|156:0|119:22,1,84.3750000000001,2|0,2:1|2:0,2:0:0:0:
76,60,99710,6,0,P|243:85|416:15,1,337.5,8|0,2:0|2:0,2:0:0:0:
475,23,100063,6,0,P|496:79|440:101,1,112.5,0|0,1:0|2:0,2:0:0:0:
405,182,100239,6,0,P|392:154|398:109,3,56.25,0|0|0|0,1:0|1:0|1:0|1:0,2:0:0:0:
475,197,100416,6,0,P|469:266|239:258,1,337.5,8|0,2:0|2:0,2:0:0:0:
254,67,100769,6,0,P|283:92|282:132,1,81.25,4|0,1:2|2:0,2:0:0:0:
101,384,100945,2,0,P|76:351|80:286,1,81.25,2|0,2:1|2:0,2:0:0:0:
208,132,101122,2,0,P|192:220|142:340,1,200,8|0,2:0|2:0,2:0:0:0:
2,161,101475,6,0,P|55:141|99:139,1,81.25,0|0,1:0|2:0,2:0:0:0:
339,323,101651,2,0,P|290:359|235:369,1,81.25,2|0,2:1|2:0,2:0:0:0:
73,220,101828,2,0,P|186:244|274:303,1,200,8|0,2:0|2:0,2:0:0:0:
506,352,102181,6,0,P|517:310|496:245,1,81.25,0|0,1:0|2:0,2:0:0:0:
338,38,102357,2,0,P|321:74|323:115,1,81.25,2|0,2:1|2:0,2:0:0:0:
440,298,102534,2,0,P|405:172|398:102,1,200,8|0,2:0|2:0,2:0:0:0:
181,17,102886,6,0,P|137:18|86:44,1,81.25,0|0,1:0|2:0,2:0:0:0:
47,346,103063,2,0,P|96:341|134:302,1,81.25,2|0,2:1|2:0,2:0:0:0:
146,90,103239,2,0,P|89:196|62:293,1,200,8|0,2:0|2:0,2:0:0:0:
512,370,103592,6,0,P|509:336|414:298,1,150,4|0,1:2|2:0,2:0:0:0:
420,221,103857,1,2,2:0:0:0:
432,218,103945,2,0,P|412:190|311:204,1,150,8|0,2:0|2:0,2:0:0:0:
264,139,104210,1,2,2:0:0:0:
264,125,104298,2,0,P|233:110|152:173,1,150,0|0,1:0|2:0,2:0:0:0:
74,141,104563,1,2,2:0:0:0:
71,128,104651,2,0,P|43:147|57:248,1,150,8|0,2:0|2:0,2:0:0:0:
175,361,104916,5,2,2:0:0:0:
185,379,105004,2,0,P|197:316|230:227,1,150,4|0,1:2|2:0,2:0:0:0:
378,157,105269,1,2,2:1:0:0:
368,175,105357,2,0,P|356:112|323:23,1,150,8|0,2:0|2:0,2:0:0:0:
65,15,105622,1,2,2:1:0:0:
53,30,105710,6,0,P|78:74|191:85,1,150,0|0,1:0|2:0,2:0:0:0:
225,49,105886,6,0,P|300:58|272:128,1,150,2|0,2:1|2:0,2:0:0:0:
244,172,106063,6,0,P|252:257|427:246,1,300,8|0,2:0|2:0,2:0:0:0:
512,36,106416,6,0,P|472:38|453:76,1,75,4|0,1:2|2:0,2:0:0:0:
425,249,106592,1,2,2:0:0:0:
444,238,106681,1,2,2:0:0:0:
452,222,106769,2,0,P|442:173|425:154,1,75,8|0,2:0|2:0,2:0:0:0:
317,14,106945,1,2,2:0:0:0:
305,30,107034,1,2,2:0:0:0:
307,49,107122,2,0,P|335:76|385:84,1,75,4|0,1:2|2:0,2:0:0:0:
244,172,107298,5,2,2:0:0:0:
235,152,107386,1,2,2:0:0:0:
209,137,107475,2,0,P|167:148|51:199,1,150,8|0,2:0|2:0,2:0:0:0:
32,262,107739,1,2,2:0:0:0:
40,274,107828,1,4,1:2:0:0:
427,347,108710,6,0,L|415:397,3,37.5,0|0|0|0,1:0|1:0|1:0|1:0,2:0:0:0:
471,349,108886,6,0,B|394:180|417:47|417:47|366:99|315:120,1,425,8|4,2:0|1:2,2:0:0:0:
256,192,109328,12,0,111886,2:0:0:0:
194,221,112063,6,0,P|258:189|258:125,1,140.625,2|0,2:1|2:0,2:0:0:0:
258,126,112416,6,0,P|253:197|309:229,1,140.625,8|0,2:0|2:0,2:0:0:0:
307,229,112769,6,0,P|247:189|192:223,1,141.25,2|8,2:1|2:0,2:0:0:0:
193,220,113475,5,2,2:1:0:0:
90,307,113651,1,2,2:1:0:0:
82,281,113739,1,2,2:1:0:0:
76,246,113828,6,0,P|65:180|41:74,1,140.625,8|0,2:0|2:0,2:0:0:0:
171,4,114181,2,0,P|156:72|144:142,1,140.625,2|0,2:1|2:0,2:0:0:0:
193,220,114534,1,8,2:0:0:0:
348,143,114710,2,0,P|372:130|400:129,2,46.8750000000001,2|2|2,2:1|2:1|2:0,2:0:0:0:
256,192,115063,12,0,117622,2:0:0:0:
458,330,117710,6,0,P|426:286|344:323,1,140.625,2|0,2:1|2:0,2:0:0:0:
352,307,118063,6,0,P|291:316|282:232,1,140.625,8|0,2:0|2:0,2:0:0:0:
267,251,118416,6,0,P|303:194|257:118,1,140.625,2|0,2:1|2:0,2:0:0:0:
277,130,118769,2,0,P|241:187|287:263,1,140.625,8|0,2:0|2:0,2:0:0:0:
266,250,119122,2,0,P|350:231|364:153,1,140.625,2|0,2:1|2:0,2:0:0:0:
357,105,119475,5,8,2:0:0:0:
73,78,120181,6,0,P|75:43|82:76,1,93.7500000000002,8|0,2:0|2:0,2:0:0:0:
112,142,120445,1,0,2:0:0:0:
112,142,120534,1,4,1:2:0:0:
256,192,120710,12,0,124681,2:0:0:0:
363,267,124769,5,2,2:1:0:0:
314,200,124945,1,2,2:1:0:0:
237,282,125122,1,2,2:0:0:0:
209,109,125298,1,2,2:1:0:0:
89,295,125475,1,2,2:1:0:0:
89,295,126181,6,0,L|76:237,3,46.8750000000001,4|0|0|0,1:2|2:0|2:0|2:0,2:0:0:0:
180,185,126534,2,0,L|169:230,3,46.8750000000001,8|0|0|0,2:0|2:0|2:0|2:0,2:0:0:0:
284,342,126886,2,0,L|271:284,3,46.8750000000001,0|0|0|0,1:0|2:0|2:0|2:0,2:0:0:0:
407,161,127239,2,0,L|396:206,3,46.8750000000001,8|0|0|0,2:0|2:0|2:0|2:0,2:0:0:0:
506,369,127592,5,4,1:2:0:0:
511,350,127681,1,0,2:0:0:0:
509,327,127769,1,0,2:0:0:0:
502,304,127857,1,0,2:0:0:0:
483,289,127945,1,8,2:0:0:0:
470,269,128034,1,0,2:0:0:0:
464,246,128122,1,0,2:0:0:0:
465,222,128210,1,0,2:0:0:0:
476,201,128298,1,0,1:0:0:0:
491,183,128386,1,0,2:0:0:0:
500,161,128475,1,0,2:0:0:0:
501,137,128563,1,0,2:0:0:0:
484,120,128651,6,0,L|422:106,1,46.8750000000001,8|0,2:0|2:0,2:0:0:0:
273,28,128828,2,0,L|202:14,1,46.8750000000001,0|0,1:0|2:0,2:0:0:0:
378,3,129004,5,4,1:2:0:0:
388,33,129092,1,0,2:0:0:0:
380,65,129181,1,0,2:0:0:0:
360,87,129269,1,0,2:0:0:0:
331,102,129357,1,8,2:0:0:0:
310,127,129445,1,0,2:0:0:0:
298,157,129534,1,0,2:0:0:0:
296,190,129622,1,0,2:0:0:0:
305,221,129710,5,4,1:2:0:0:
332,269,129798,1,0,1:0:0:0:
341,324,129886,1,0,1:0:0:0:
302,365,129975,1,0,1:0:0:0:
248,382,130063,2,0,L|209:376,6,23.4375000000001,8|0|0|0|0|0|0,2:0|2:0|1:0|1:0|1:0|1:0|1:0,2:0:0:0:
171,318,130416,5,4,1:2:0:0:
190,0,130769,5,2,2:1:0:0:
174,0,130857,1,2,2:1:0:0:
154,8,130945,1,2,2:1:0:0:
125,39,131034,1,2,2:1:0:0:
110,94,131122,1,2,2:1:0:0:
128,162,131210,1,2,2:1:0:0:
184,214,131298,6,0,L|213:207,3,23.4375008940697,0|0|0|0,1:0|2:0|2:0|2:0,2:0:0:0:
249,139,131475,6,0,P|326:148|472:178,1,206.25,8|0,2:0|2:0,2:0:0:0:
511,234,131828,5,4,1:2:0:0:
201,384,132710,5,4,1:2:0:0:
233,0,133063,5,0,1:0:0:0:
304,139,133239,1,4,1:2:0:0:
304,139,133945,6,0,P|265:131|215:127,1,75,2|0,2:1|2:0,2:0:0:0:
32,312,134122,6,0,L|68:304,3,37.5,0|0|0|0,1:0|1:0|1:0|1:0,2:0:0:0:
97,278,134298,6,0,B|178:249|241:307|241:307|246:358|305:368,1,225,8|0,2:0|2:0,2:0:0:0:
379,268,134651,6,0,P|341:271|314:302,1,68.75,4|0,1:2|2:0,2:0:0:0:
466,384,134828,1,2,2:0:0:0:
495,377,134916,1,2,2:0:0:0:
511,345,135004,2,0,P|502:311|491:266,1,68.75,8|0,2:0|2:0,2:0:0:0:
394,143,135181,2,0,P|403:175|448:185,1,68.75,2|0,2:0|2:0,2:0:0:0:
457,76,135357,6,0,B|425:56|421:22|421:22|401:57|336:58,1,137.5,0|2,1:0|2:0,2:0:0:0:
177,132,135622,1,0,2:0:0:0:
155,125,135710,2,0,P|141:106|145:61,1,68.75,8|2,2:0|2:0,2:0:0:0:
247,0,135886,2,0,P|262:36|254:75,1,68.75,2|0,2:0|2:0,2:0:0:0:
79,248,136063,5,0,1:0:0:0:
74,237,136416,6,0,P|23:224|-5:220,1,68.75,8|0,2:0|2:0,2:0:0:0:
85,338,136592,2,0,P|136:351|164:355,1,68.75,2|0,2:1|2:0,2:0:0:0:
311,282,136769,5,0,1:0:0:0:
280,176,136945,6,0,P|257:183|252:234,1,68.75,8|0,2:0|2:0,2:0:0:0:
419,311,137122,2,0,P|424:287|382:257,1,68.75,8|0,2:0|2:0,2:0:0:0:
232,363,137298,2,0,P|249:379|296:358,1,68.75,0|0,1:0|2:0,2:0:0:0:
385,88,137475,5,4,1:2:0:0:
512,243,138357,5,4,1:2:0:0:
1,212,138710,5,0,1:2:0:0:
141,124,138886,1,4,1:2:0:0:
141,124,139239,5,0,2:0:0:0:
144,159,139328,1,0,2:0:0:0:
184,185,139416,1,0,2:0:0:0:
228,192,139504,1,0,2:0:0:0:
263,168,139592,6,0,P|268:126|277:82,1,75,2|0,2:0|2:0,2:0:0:0:
426,34,139769,6,0,L|462:26,3,37.5,0|0|0|0,1:0|1:0|1:0|1:0,2:0:0:0:
400,60,139945,6,0,B|309:66|367:-8|151:14,1,225,8|0,2:0|2:0,2:0:0:0:
48,105,140298,6,0,P|49:77|83:59,1,68.75,4|0,1:2|2:0,2:0:0:0:
206,215,140475,1,2,2:0:0:0:
204,240,140563,1,2,2:0:0:0:
184,263,140651,2,0,P|151:271|99:295,1,68.75,8|0,2:0|2:0,2:0:0:0:
9,215,140828,2,0,P|36:202|81:192,1,68.75,2|0,2:0|2:0,2:0:0:0:
382,121,141004,6,0,P|401:94|390:43,1,68.75,4|0,1:2|2:0,2:0:0:0:
211,0,141181,1,0,2:0:0:0:
186,11,141269,2,0,P|188:47|228:74,1,68.75,2|8,2:0|2:0,2:0:0:0:
301,209,141445,1,0,2:0:0:0:
285,195,141534,2,0,P|283:160|293:121,1,68.75,2|0,2:0|2:0,2:0:0:0:
449,274,141710,5,4,1:2:0:0:
449,274,141886,1,0,1:0:0:0:
387,384,142063,5,2,2:1:0:0:
387,384,142239,1,2,2:1:0:0:
282,322,142416,1,2,2:1:0:0:
156,232,142592,6,0,L|99:217,3,34.375,0|0|0|0,1:0|1:0|1:0|1:0,2:0:0:0:
165,254,142769,6,0,P|204:240|245:233,1,68.75,8|0,2:0|2:0,2:0:0:0:
94,334,142945,2,0,P|55:320|14:313,1,68.75,0|0,1:0|2:0,2:0:0:0:
217,384,143122,5,4,1:2:0:0:
362,301,143298,6,0,P|390:291|389:246,1,68.75,2|0,2:1|2:0,2:0:0:0:
316,109,143475,2,0,P|314:222|373:267,1,137.5,8|0,2:0|2:0,2:0:0:0:
512,34,143828,6,0,P|423:13|383:-40,1,112.5,0|0,1:0|2:0,2:0:0:0:
294,44,144092,1,2,2:0:0:0:
289,62,144181,2,0,P|300:95|322:111,1,56.2500000000001,8|0,2:0|2:0,2:0:0:0:
463,186,144357,2,0,P|483:153|474:117,1,56.2500000000001,2|0,2:0|2:0,2:0:0:0:
422,33,144534,5,0,1:0:0:0:
245,201,144710,1,2,2:0:0:0:
205,188,144798,1,2,2:0:0:0:
188,164,144886,2,0,P|182:133|183:97,1,56.2500000000001,8|0,2:0|2:0,2:0:0:0:
416,45,145063,2,0,P|415:82|402:114,1,56.2500000000001,2|0,2:0|2:0,2:0:0:0:
341,346,145239,5,0,1:0:0:0:
328,237,145416,1,2,2:1:0:0:
198,288,145592,1,8,2:0:0:0:
100,140,145769,1,2,2:1:0:0:
100,140,146122,5,2,2:0:0:0:
75,163,146210,1,2,2:0:0:0:
67,196,146298,2,0,P|81:225|91:270,1,56.2500000000001,8|0,2:0|2:0,2:0:0:0:
211,379,146475,2,0,P|217:351|231:317,1,56.2500000000001,2|0,2:0|2:0,2:0:0:0:
328,237,146651,5,0,1:0:0:0:
242,162,146828,1,2,2:0:0:0:
209,165,146916,1,2,2:0:0:0:
185,151,147004,2,0,P|175:120|184:87,1,56.2500000000001,8|0,2:0|2:0,2:0:0:0:
367,1,147181,1,2,2:0:0:0:
400,16,147269,1,2,2:0:0:0:
409,63,147357,5,0,1:0:0:0:
374,98,147445,1,2,2:0:0:0:
319,93,147534,1,2,2:0:0:0:
297,47,147622,1,2,2:0:0:0:
253,9,147710,2,0,P|217:16|173:22,1,56.2500000000001,8|0,2:0|2:0,2:0:0:0:
16,125,147886,2,0,P|54:118|106:114,1,56.2500000000001,2|0,2:0|2:0,2:0:0:0:
449,230,148063,5,0,1:0:0:0:
232,309,148239,1,2,2:1:0:0:
153,92,148416,1,8,2:0:0:0:
237,298,148592,1,2,2:1:0:0:
315,195,148769,6,0,P|322:222|344:261,1,56.2500000000001,4|0,1:2|2:0,2:0:0:0:
164,106,148945,2,0,P|157:133|135:172,1,56.2500000000001,2|0,2:0|2:0,2:0:0:0:
176,365,149122,6,0,P|224:262|226:180,1,168.75,8|0,2:0|2:0,2:0:0:0:
379,0,149475,6,0,P|429:0|419:55,1,112.5,0|0,1:0|2:0,2:0:0:0:
330,78,149739,1,2,2:0:0:0:
317,83,149828,2,0,P|274:72|225:62,1,56.2500000000001,8|0,2:0|2:0,2:0:0:0:
397,158,150004,2,0,P|428:148|458:143,1,56.2500000000001,2|0,2:0|2:0,2:0:0:0:
309,224,150181,5,4,1:2:0:0:
379,342,150357,1,2,2:0:0:0:
390,338,150445,2,0,P|401:307|405:265,1,56.2500000000001,0|8,2:0|2:0,2:0:0:0:
284,160,150622,2,0,P|288:187|298:213,1,56.2500000000001,0|0,2:0|2:0,2:0:0:0:
223,325,150798,1,2,2:0:0:0:
213,335,150886,5,0,1:0:0:0:
117,283,151063,1,2,2:1:0:0:
221,205,151239,1,8,2:0:0:0:
59,97,151416,1,2,2:1:0:0:
59,97,151769,5,2,2:0:0:0:
84,102,151857,1,2,2:0:0:0:
112,83,151945,2,0,P|111:49|94:14,1,56.2500000000001,8|0,2:0|2:0,2:0:0:0:
0,174,152122,2,0,P|10:199|49:210,1,56.2500000000001,2|0,2:0|2:0,2:0:0:0:
223,169,152298,6,0,P|167:161|112:187,1,112.5,4|0,1:2|2:0,2:0:0:0:
63,363,152563,2,0,P|101:301|96:254,1,112.5,2|0,2:1|2:0,2:0:0:0:
35,211,152828,1,2,2:1:0:0:
238,275,153004,6,0,P|340:252|450:236,1,150,4|0,1:2|2:0,2:0:0:0:
478,168,153269,1,2,2:0:0:0:
467,173,153357,2,0,P|429:160|365:153,1,75,2|0,2:1|2:0,2:0:0:0:
384,61,153534,2,0,P|342:73|298:100,1,75,0|0,2:1|2:0,2:0:0:0:
254,11,153710,6,0,P|222:73|222:140,1,112.5,2|2,2:0|2:1,2:0:0:0:
349,348,154063,2,0,P|381:286|381:219,1,112.5,2|2,2:0|2:1,2:0:0:0:
156,312,154416,5,2,2:1:0:0:
159,320,154504,1,2,2:1:0:0:
174,327,154592,1,2,2:1:0:0:
194,320,154681,1,2,2:1:0:0:
209,299,154769,5,2,2:0:0:0:
222,237,154857,1,2,2:0:0:0:
191,179,154945,1,2,2:0:0:0:
171,124,155034,1,2,2:0:0:0:
191,68,155122,6,0,L|314:53,1,81.25,2|0,2:1|2:0,2:0:0:0:
419,178,155298,2,0,L|480:173,3,40.625,0|0|0|0,1:0|1:0|1:0|1:0,2:0:0:0:
512,117,155475,6,0,P|502:59|500:11,1,81.25,8|0,2:0|2:0,2:0:0:0:
361,233,155651,2,0,P|364:273|372:313,1,81.25,0|0,1:0|2:0,2:0:0:0:
28,161,155828,6,0,B|88:96|88:96|176:125,1,175,4|0,1:2|2:0,2:0:0:0:
294,24,156092,1,2,2:0:0:0:
284,6,156181,2,0,P|234:21|236:65,1,87.5,8|0,2:0|2:0,2:0:0:0:
99,269,156357,2,0,P|119:215|106:167,1,87.5,2|0,2:0|2:0,2:0:0:0:
34,30,156534,6,0,P|58:59|131:68,1,87.5,0|0,1:0|2:0,2:0:0:0:
279,215,156710,1,2,2:0:0:0:
266,215,156798,2,0,P|247:154|243:113,1,87.5,0|8,2:0|2:0,2:0:0:0:
384,20,156975,1,2,2:0:0:0:
371,20,157063,2,0,P|352:81|348:122,1,87.5,2|0,2:0|2:0,2:0:0:0:
401,384,157239,6,0,B|423:280|466:341|485:203,1,175,0|0,1:0|2:0,2:0:0:0:
427,132,157504,1,2,2:0:0:0:
439,139,157592,2,0,P|426:178|385:179,1,87.5,8|0,2:0|2:0,2:0:0:0:
165,26,157769,1,2,2:0:0:0:
131,20,157857,1,2,2:0:0:0:
84,35,157945,6,0,P|47:172|48:217,1,159.375,0|0,1:0|2:0,2:0:0:0:
16,265,158122,2,0,P|153:228|191:205,1,159.375,2|0,2:1|2:0,2:0:0:0:
250,209,158298,2,0,P|149:108|110:86,1,159.375,8|0,2:0|2:0,2:0:0:0:
84,35,158475,6,0,P|38:86|60:119,1,106.25,2|0,2:1|2:0,2:0:0:0:
331,18,158651,6,0,P|325:149|343:211,1,187.5,0|0,1:0|2:0,2:0:0:0:
449,357,158916,1,2,2:0:0:0:
454,335,159004,2,0,P|416:304|357:313,1,93.75,8|0,2:0|2:0,2:0:0:0:
116,271,159181,1,2,2:0:0:0:
150,307,159269,1,2,2:0:0:0:
200,302,159357,2,0,P|236:287|307:271,1,93.75,0|0,1:0|2:0,2:0:0:0:
499,80,159534,5,2,2:0:0:0:
461,36,159622,1,2,2:0:0:0:
404,35,159710,2,0,P|385:72|384:126,1,93.75,8|0,2:0|2:0,2:0:0:0:
271,363,159886,5,2,2:0:0:0:
230,356,159975,1,2,2:0:0:0:
193,321,160063,6,0,P|206:224|219:95,1,187.5,0|0,1:0|2:0,2:0:0:0:
96,8,160328,6,0,P|116:138|123:229,1,187.5,2|0,2:1|2:0,2:0:0:0:
3,246,160592,6,0,P|17:201|26:155,1,93.75,0|0,1:0|2:0,2:0:0:0:
350,0,160769,6,0,P|415:21|510:92,1,159.375,0|0,1:0|2:0,2:0:0:0:
483,145,160945,2,0,P|404:159|333:193,1,159.375,2|0,2:1|2:0,2:0:0:0:
288,250,161122,2,0,P|339:310|373:382,1,159.375,8|0,2:0|2:0,2:0:0:0:
443,356,161298,2,0,P|440:315|375:322,1,106.25,2|0,2:1|2:0,2:0:0:0:
134,384,161475,6,0,B|39:347|115:305|-34:272,1,175,4|0,1:2|2:0,2:0:0:0:
98,190,161739,1,2,2:0:0:0:
118,207,161828,2,0,P|142:271|146:305,1,87.5,8|0,2:0|2:0,2:0:0:0:
280,384,162004,2,0,P|288:328|301:284,1,87.5,2|0,2:0|2:0,2:0:0:0:
253,97,162181,6,0,P|247:146|229:190,1,87.5,0|0,1:0|2:0,2:0:0:0:
19,198,162357,1,2,2:0:0:0:
6,171,162445,1,2,2:0:0:0:
12,151,162534,2,0,P|35:125|106:120,1,87.5,8|0,2:0|2:0,2:0:0:0:
338,61,162710,2,0,P|319:27|257:22,1,87.5,2|0,2:0|2:0,2:0:0:0:
157,23,162886,6,0,P|184:123|241:202,1,175,0|0,1:0|2:0,2:0:0:0:
356,252,163151,1,2,2:0:0:0:
343,254,163239,2,0,P|322:220|312:173,1,87.5,8|0,2:0|2:0,2:0:0:0:
470,11,163416,1,2,2:0:0:0:
502,30,163504,1,2,2:0:0:0:
512,61,163592,6,0,B|486:64|486:64|359:146,1,159.375,0|0,1:0|2:0,2:0:0:0:
313,174,163769,2,0,B|328:195|328:195|463:264,1,159.375,2|0,2:1|2:0,2:0:0:0:
509,296,163945,2,0,B|519:271|519:271|511:120,1,159.375,8|0,2:0|2:0,2:0:0:0:
512,61,164122,6,0,P|464:75|416:52,1,106.25,2|0,2:1|2:0,2:0:0:0:
154,11,164298,6,0,P|251:12|240:116,1,187.5,0|0,1:0|2:0,2:0:0:0:
47,163,164563,1,2,2:0:0:0:
31,152,164651,2,0,P|32:118|61:60,1,93.75,8|0,2:0|2:0,2:0:0:0:
142,179,164828,1,2,2:0:0:0:
166,176,164916,1,2,2:0:0:0:
184,191,165004,2,0,P|204:237|204:302,1,93.75,0|0,1:0|2:0,2:0:0:0:
32,377,165181,5,2,2:0:0:0:
6,353,165269,1,2,2:0:0:0:
7,309,165357,2,0,P|73:284|119:275,1,93.75,8|0,2:0|2:0,2:0:0:0:
286,351,165534,2,0,P|240:363|197:381,1,93.75,2|2,2:0|2:0,2:0:0:0:
292,236,165710,6,0,P|379:264|481:319,1,187.5,0|0,1:0|2:0,2:0:0:0:
332,126,165975,2,0,P|255:153|184:191,1,162.5,2|0,2:1|2:0,2:0:0:0:
75,235,166239,2,0,P|87:196|104:159,1,62.5,0|0,1:0|2:0,2:0:0:0:
70,105,166416,1,0,1:0:0:0:
237,80,166592,6,0,L|223:-13,1,81.25,8|0,2:0|2:0,2:0:0:0:
332,126,166769,2,0,L|419:160,1,81.25,8|0,2:0|2:0,2:0:0:0:
244,185,166945,2,0,L|170:243,1,81.25,0|0,1:0|2:0,2:0:0:0:
89,350,167122,6,0,B|-9:413|-95:348|-29:138|148:138|303:146|341:210|372:297|366:343|307:389|206:402|126:359|133:312|145:245|235:218|307:81|215:27|102:-22|32:112|105:159|172:134,1,1000,4|0,1:2|2:0,2:0:0:0:
151,139,170298,6,0,B|176:116|176:116|198:122|198:122|214:175,1,93.75,4|0,1:2|2:0,2:0:0:0:
346,79,171004,2,0,B|314:58|314:58|293:65|293:65|286:101,1,93.75,4|0,1:2|2:0,2:0:0:0:
360,231,171357,6,0,P|332:178|336:140,1,81.25,2|0,2:0|2:0,2:0:0:0:
425,56,171534,2,0,P|433:96|397:147,1,81.25,2|0,2:0|2:0,2:0:0:0:
248,234,171710,5,2,2:1:0:0:
218,236,171798,1,2,2:1:0:0:
187,218,171886,1,2,2:1:0:0:
145,234,171975,1,2,2:1:0:0:
123,280,172063,1,2,2:0:0:0:
130,341,172151,1,2,2:0:0:0:
177,370,172239,2,0,L|220:362,3,40.625,0|0|0|0,1:0|1:0|1:0|1:0,2:0:0:0:
283,384,172416,1,8,2:0:0:0:
283,384,172769,5,4,1:2:0:0:
357,281,172945,1,2,2:1:0:0:
467,353,173122,1,8,2:0:0:0:
479,346,173210,2,0,P|493:286|511:187,1,137.5,2|0,2:1|2:0,2:0:0:0:
481,146,173475,1,0,1:0:0:0:
364,180,173739,5,2,2:1:0:0:
348,187,173828,2,0,P|297:174|245:155,1,68.75,8|0,2:0|2:0,2:0:0:0:
132,40,174004,2,0,P|165:47|198:57,1,68.75,2|0,2:1|2:0,2:0:0:0:
287,21,174181,5,0,1:2:0:0:
193,153,174357,1,2,2:1:0:0:
377,75,174534,1,8,2:0:0:0:
391,77,174622,2,0,P|396:146|347:187,1,137.5,2|0,2:1|2:0,2:0:0:0:
314,249,174886,1,0,1:0:0:0:
123,219,175063,6,0,P|89:225|56:232,1,68.75,2|0,2:1|2:1,2:0:0:0:
207,304,175239,2,0,P|240:309|274:316,1,68.75,8|0,2:0|2:0,2:0:0:0:
230,182,175416,1,2,2:1:0:0:
113,325,175592,5,0,1:2:0:0:
216,200,175769,1,2,2:1:0:0:
176,79,175945,1,8,2:0:0:0:
170,86,176034,2,0,P|111:99|14:122,1,137.5,2|0,2:1|2:0,2:0:0:0:
0,178,176298,1,0,1:0:0:0:
86,384,176475,6,0,P|94:348|103:308,1,68.75,2|0,2:1|2:0,2:0:0:0:
230,184,176651,2,0,P|221:218|214:252,1,68.75,8|0,2:0|2:0,2:0:0:0:
120,235,176828,1,2,2:1:0:0:
270,329,177004,5,0,1:2:0:0:
127,222,177181,1,2,2:1:0:0:
320,173,177357,1,8,2:0:0:0:
338,165,177445,2,0,P|332:97|253:88,1,137.5,2|0,2:1|2:0,2:0:0:0:
217,32,177710,1,0,1:0:0:0:
403,5,177886,6,0,B|441:18|441:18|425:73,1,87.5,2|0,2:1|2:1,2:0:0:0:
281,223,178063,2,0,B|273:183|273:183|328:169,1,87.5,8|0,2:0|2:0,2:0:0:0:
475,216,178239,1,2,2:1:0:0:
346,78,178416,5,0,1:2:0:0:
465,201,178592,1,2,2:1:0:0:
389,299,178769,1,8,2:0:0:0:
380,309,178857,2,0,P|280:328|238:341,1,137.5,2|0,2:1|2:0,2:0:0:0:
189,384,179122,1,0,1:0:0:0:
81,305,179298,5,0,2:0:0:0:
94,297,179386,2,0,P|106:262|114:205,1,68.75,2|8,2:1|2:0,2:0:0:0:
199,97,179563,2,0,P|205:130|217:163,1,68.75,2|0,2:1|2:1,2:0:0:0:
300,297,179828,5,0,1:2:0:0:
236,185,180004,1,2,2:1:0:0:
112,230,180181,1,8,2:0:0:0:
97,215,180269,2,0,P|78:140|80:68,1,137.5,2|0,2:1|2:0,2:0:0:0:
127,18,180534,1,0,1:0:0:0:
376,97,180710,6,0,P|426:73|454:63,1,68.75,2|0,2:1|2:1,2:0:0:0:
285,171,180886,2,0,P|253:157|209:150,1,68.75,8|0,2:0|2:0,2:0:0:0:
294,55,181063,1,2,2:1:0:0:
373,195,181239,5,0,1:2:0:0:
292,69,181416,1,2,2:1:0:0:
155,110,181592,1,8,2:0:0:0:
139,126,181681,2,0,P|146:192|181:264,1,137.5,2|0,2:1|2:0,2:0:0:0:
245,285,181945,1,0,1:0:0:0:
386,370,182122,6,0,P|433:358|475:353,1,68.75,2|0,2:1|2:0,2:0:0:0:
325,282,182298,2,0,P|291:287|258:297,1,68.75,8|0,2:0|2:0,2:0:0:0:
196,349,182475,1,2,2:1:0:0:
78,274,182651,5,0,1:2:0:0:
176,350,182828,1,2,2:1:0:0:
251,214,183004,1,8,2:0:0:0:
263,208,183092,2,0,P|286:135|308:48,1,137.5,2|0,2:1|2:0,2:0:0:0:
352,21,183357,1,0,1:0:0:0:
490,204,183534,6,0,B|447:220|447:220|424:178,1,87.5,2|0,2:1|2:1,2:0:0:0:
301,76,183710,2,0,B|336:105|336:105|311:146,1,87.5,8|0,2:0|2:0,2:0:0:0:
440,81,183886,1,2,2:1:0:0:
348,216,184063,5,4,1:2:0:0:
207,147,184239,1,2,2:1:0:0:
104,262,184416,1,8,2:0:0:0:
89,254,184504,2,0,P|56:189|58:84,1,137.5,2|0,2:1|2:0,2:0:0:0:
95,62,184769,1,0,1:0:0:0:
364,190,184945,6,0,P|418:179|448:177,1,68.75,2|0,2:1|2:1,2:0:0:0:
261,85,185122,2,0,P|229:71|185:64,1,68.75,8|0,2:0|2:0,2:0:0:0:
241,204,185298,1,2,2:1:0:0:
377,60,185475,5,0,2:0:0:0:
246,216,185651,1,2,2:1:0:0:
497,282,185828,6,0,P|468:208|411:288,1,206.25,8|0,2:0|2:0,2:0:0:0:
260,339,186181,6,0,P|285:311|347:311,1,87.5,0|0,1:0|2:0,2:0:0:0:
440,339,186357,6,0,P|428:372|399:341,1,87.5,2|0,2:1|2:0,2:0:0:0:
242,131,186534,6,0,P|347:168|310:231,1,206.25,8|0,2:0|2:0,2:0:0:0:
154,384,186886,5,0,1:2:0:0:
233,224,187063,1,2,2:1:0:0:
123,265,187239,1,8,2:0:0:0:
110,277,187328,2,0,P|15:237|14:152,1,137.5,2|0,2:1|2:0,2:0:0:0:
27,141,187592,1,0,1:0:0:0:
242,131,187769,6,0,P|281:114|336:109,1,68.75,2|0,2:1|2:0,2:0:0:0:
483,218,187945,2,0,P|436:200|386:172,1,68.75,8|0,2:0|2:0,2:0:0:0:
413,88,188122,1,2,2:1:0:0:
321,214,188298,5,0,1:0:0:0:
406,105,188475,1,2,2:1:0:0:
311,20,188651,1,8,2:0:0:0:
295,12,188739,2,0,P|260:21|211:33,1,68.75,2|0,2:1|2:0,2:0:0:0:
148,47,188916,1,2,2:1:0:0:
141,73,189004,1,0,1:0:0:0:
212,146,189181,6,0,P|247:155|310:170,1,87.5,8|0,2:0|2:0,2:0:0:0:
151,239,189357,2,0,P|108:228|66:217,1,87.5,8|0,2:0|2:0,2:0:0:0:
170,355,189534,1,0,1:0:0:0:
289,285,189710,6,0,P|325:273|359:271,3,68.75,4|0|0|0,1:2|2:0|2:0|2:0,2:0:0:0:
160,222,190063,2,0,P|124:210|90:208,3,68.75,8|0|0|0,2:0|2:0|2:0|2:0,2:0:0:0:
173,362,190416,6,0,P|196:340|209:291,1,68.75,0|0,1:0|2:0,2:0:0:0:
286,178,190592,1,2,2:0:0:0:
272,172,190681,2,0,P|253:128|261:90,1,68.75,2|8,2:0|2:0,2:0:0:0:
434,244,190857,1,2,2:0:0:0:
438,258,190945,2,0,P|433:295|413:324,1,68.75,2|0,2:0|2:0,2:0:0:0:
302,373,191122,5,0,1:0:0:0:
291,363,191210,1,2,2:0:0:0:
288,349,191298,1,2,2:0:0:0:
285,335,191386,1,2,2:0:0:0:
293,308,191475,1,8,2:0:0:0:
317,283,191563,1,2,2:0:0:0:
341,259,191651,1,2,2:0:0:0:
356,220,191739,1,2,2:0:0:0:
366,172,191828,1,0,1:0:0:0:
364,124,191916,1,2,2:0:0:0:
342,81,192004,1,2,2:0:0:0:
302,53,192092,1,2,2:0:0:0:
253,46,192181,1,8,2:0:0:0:
205,55,192269,1,2,2:1:0:0:
176,93,192357,1,2,2:1:0:0:
167,140,192445,1,2,2:1:0:0:
193,180,192534,5,4,1:2:0:0:
223,250,192622,1,2,2:0:0:0:
205,323,192710,1,2,2:0:0:0:
146,370,192798,1,2,2:0:0:0:
70,373,192886,1,8,2:0:0:0:
21,314,192975,1,2,2:0:0:0:
16,238,193063,1,2,2:0:0:0:
53,172,193151,1,2,2:0:0:0:
123,142,193239,5,0,1:0:0:0:
193,180,193328,1,2,2:1:0:0:
273,191,193416,1,2,2:1:0:0:
347,177,193504,1,2,2:1:0:0:
418,142,193592,2,0,L|408:103,7,34.375,8|0|0|0|0|0|0|0,2:0|2:0|1:0|1:0|1:0|1:0|1:0|1:0,2:0:0:0:
465,15,193945,5,4,1:2:0:0:
416,91,194122,1,2,2:1:0:0:
333,36,194298,1,2,2:0:0:0:
318,159,194475,1,2,2:1:0:0:
213,0,194651,5,2,1:2:0:0:
116,270,194828,1,2,2:1:0:0:
107,260,194916,1,2,2:1:0:0:
106,244,195004,6,0,P|124:226|183:218,1,68.75,2|0,2:0|2:0,2:0:0:0:
310,237,195181,2,0,P|334:244|371:291,1,68.75,2|0,2:0|2:0,2:0:0:0:
1,356,195357,6,0,P|117:314|296:310,1,300,4|0,2:0|2:0,2:0:0:0:
479,384,196945,6,0,B|457:316|424:287|424:287|461:269|511:271|511:271|481:229|475:181,1,300,2|0,2:1|2:0,2:0:0:0:
80,88,198534,6,0,B|68:50|96:17|96:17|164:26|224:76|204:152,1,262.5,2|0,2:1|2:0,2:0:0:0:
416,291,199945,6,0,B|375:301|354:333|354:333|315:329|284:263|301:207,1,224.999993133545,2|0,2:1|2:0,2:0:0:0:
419,0,201181,6,0,B|438:25|485:33|485:33|351:57|272:113,1,299.999990844727,2|0,2:1|2:0,2:0:0:0:
68,286,202769,6,0,P|44:243|160:257,1,262.5,2|0,2:1|2:0,2:0:0:0:
294,369,204181,6,0,P|270:265|273:101,1,262.5,2|0,2:1|2:0,2:0:0:0:
328,40,205592,6,0,B|383:43|421:22|421:22|425:71|466:101,1,187.5,2|0,2:1|2:0,2:0:0:0:
495,278,206651,5,2,2:1:0:0:
495,278,206828,1,0,2:0:0:0:
495,278,207004,1,0,2:1:0:0:
427,329,207181,1,0,2:1:0:0:
347,312,207357,1,2,2:1:0:0:
347,312,207710,1,0,2:0:0:0:
285,254,207886,1,0,2:0:0:0:
285,254,208063,6,0,P|290:205|297:148,2,93.75,2|0|0,2:1|2:1|2:1,2:0:0:0:
189,31,208769,2,0,P|201:114|203:134,1,93.75,2|0,2:1|2:0,2:0:0:0:
176,152,209122,2,0,P|158:151|135:159,4,31.25,0|0|0|0|2,2:0|2:0|2:0|2:0|2:1,2:0:0:0:
14,206,209828,5,0,2:0:0:0:
42,275,210004,1,0,2:0:0:0:
113,299,210181,1,2,2:1:0:0:
113,299,210534,1,0,2:0:0:0:
189,272,210710,1,0,2:0:0:0:
246,214,210886,6,0,P|300:200|365:197,2,93.75,2|0|0,2:1|2:0|2:0,2:0:0:0:
212,143,211592,2,0,P|144:131|101:121,1,93.75,2|0,2:1|2:0,2:0:0:0:
97,97,211945,2,0,P|87:77|90:56,4,31.25,0|0|0|0|2,2:0|2:0|2:0|2:0|2:1,2:0:0:0:
282,10,212651,5,0,2:0:0:0:
336,60,212828,1,0,2:0:0:0:
415,68,213004,1,2,2:1:0:0:
415,68,213357,1,0,2:0:0:0:
479,111,213534,1,0,2:0:0:0:
509,181,213710,6,0,P|506:228|496:298,2,93.75,2|0|0,2:1|2:0|2:0,2:0:0:0:
400,212,214416,2,0,P|409:273|417:323,1,93.75,2|0,2:1|2:0,2:0:0:0:
385,337,214769,2,0,P|367:343|344:345,4,31.25,0|0|0|0|2,2:0|2:0|2:0|2:0|2:1,2:0:0:0:
243,267,215475,5,0,2:0:0:0:
165,277,215651,1,0,2:0:0:0:
109,334,215828,1,2,2:1:0:0:
109,334,216181,5,0,2:0:0:0:
33,309,216357,1,0,2:0:0:0:
33,309,216534,2,0,L|23:242,1,46.8750000000001,2|0,2:1|2:0,2:0:0:0:
119,113,216710,2,0,L|120:91,5,15.625,0|0|0|0|0|0,3:0|3:0|3:0|3:0|3:0|3:0,2:0:0:0:
139,148,216886,6,0,P|174:159|199:168,1,46.8750000000001,2|0,3:0|2:0,2:0:0:0:
63,185,217063,2,0,P|28:174|3:165,1,46.8750000000001,2|0,3:0|2:0,2:0:0:0:
237,253,217239,1,2,2:1:0:0:
250,247,217328,1,2,2:0:0:0:
264,240,217416,1,2,2:0:0:0:
277,234,217504,1,2,2:0:0:0:
296,212,217592,6,0,B|289:187|304:189|315:147|263:125|240:169|269:198|280:186|294:218,1,125,8|0,1:2|2:0,2:0:0:0:
420,301,217945,5,4,1:2:0:0:
512,0,218475,5,0,1:0:0:0:
459,68,218651,2,0,L|465:101,4,34.375,10|0|0|0|0,3:2|3:2|3:2|3:2|3:2,2:0:0:0:
494,183,219004,5,0,1:0:0:0:
418,245,219181,1,2,2:0:0:0:
418,245,219269,2,0,B|381:255|381:255|409:240,1,68.75,2|0,2:0|2:0,2:0:0:0:
272,126,219534,5,2,1:0:0:0:
309,202,219710,1,2,1:0:0:0:
247,381,219886,5,0,1:0:0:0:
233,297,220063,2,0,L|249:246,4,34.375,10|0|0|0|0,3:2|3:2|3:2|3:2|3:2,2:0:0:0:
309,202,220416,5,0,1:0:0:0:
156,206,220592,1,2,2:0:0:0:
137,211,220681,1,2,2:0:0:0:
118,216,220769,1,0,1:0:0:0:
16,133,220945,5,2,1:0:0:0:
58,45,221122,1,2,1:0:0:0:
226,152,221298,5,0,1:0:0:0:
144,71,221475,2,0,L|153:113,4,34.375,10|0|0|0|0,3:2|3:2|3:2|3:2|3:2,2:0:0:0:
263,0,221828,5,0,1:0:0:0:
226,152,222004,1,2,2:0:0:0:
226,152,222092,2,0,B|236:189|236:189|221:161,1,68.75,2|0,2:0|2:0,2:0:0:0:
502,31,222357,5,2,1:0:0:0:
439,101,222534,1,2,1:0:0:0:
512,265,222710,5,0,1:0:0:0:
413,207,222886,2,0,L|459:194,4,34.375,10|0|0|0|0,3:2|3:0|3:0|3:0|3:0,2:0:0:0:
213,243,223239,1,0,1:0:0:0:
321,358,223416,5,2,2:0:0:0:
335,344,223504,1,2,2:0:0:0:
340,323,223592,1,2,2:1:0:0:
293,253,223769,5,2,2:0:0:0:
298,233,223857,1,2,2:0:0:0:
291,213,223945,1,2,2:0:0:0:
411,108,224122,5,2,2:0:0:0:
397,94,224210,1,2,2:0:0:0:
376,89,224298,1,2,2:0:0:0:
306,136,224475,5,2,2:0:0:0:
286,131,224563,1,2,2:0:0:0:
266,138,224651,1,2,2:1:0:0:
148,264,224828,5,2,2:0:0:0:
135,85,225004,1,2,2:1:0:0:
82,201,225181,5,2,2:1:0:0:
93,184,225269,1,2,2:1:0:0:
121,173,225357,1,2,2:0:0:0:
197,344,225534,1,2,2:1:0:0:
232,214,225710,5,2,2:0:0:0:
89,335,225886,1,2,2:0:0:0:
66,314,225975,1,2,2:0:0:0:
61,283,226063,1,2,2:1:0:0:
292,293,226239,5,2,2:1:0:0:
480,224,226416,6,0,L|494:133,1,75,2|0,2:0|2:0,2:0:0:0:
471,214,226592,2,0,L|485:123,1,75,2|0,2:1|2:0,2:0:0:0:
360,129,226769,6,0,L|346:38,1,75,2|0,2:0|2:0,2:0:0:0:
369,119,226945,2,0,L|355:28,1,75,2|0,2:1|2:0,2:0:0:0:
232,214,227122,6,0,L|246:123,1,75,2|0,2:0|2:0,2:0:0:0:
223,204,227298,2,0,L|237:113,1,75,2|0,2:1|2:0,2:0:0:0:
112,119,227475,6,0,L|98:28,1,75,2|0,2:0|2:0,2:0:0:0:
121,109,227651,2,0,L|107:18,1,75,2|0,2:1|2:0,2:0:0:0:
22,172,227828,5,2,2:0:0:0:
5,221,227916,1,2,2:0:0:0:
17,271,228004,1,2,2:0:0:0:
42,316,228092,1,2,2:0:0:0:
86,344,228181,1,2,2:0:0:0:
135,361,228269,1,2,2:0:0:0:
187,358,228357,1,2,2:0:0:0:
230,329,228445,1,2,2:0:0:0:
254,282,228534,1,2,2:1:0:0:
250,229,228622,1,2,2:1:0:0:
269,180,228710,1,2,2:1:0:0:
318,163,228798,1,2,2:1:0:0:
363,188,228886,6,0,L|372:245,7,37.5,2|0|0|0|0|0|0|0,2:0|2:0|2:0|2:0|2:0|2:0|2:0|2:0,2:0:0:0:
381,313,229239,1,4,1:2:0:0:
372,327,229769,5,0,1:0:0:0:
445,4,229945,1,2,2:0:0:0:
459,192,230298,5,0,1:0:0:0:
158,26,230651,5,0,1:0:0:0:
237,44,230739,1,2,2:0:0:0:
316,62,230828,1,2,2:0:0:0:
0,160,231181,5,2,2:0:0:0:
268,220,231357,1,2,2:0:0:0:
130,284,231534,6,0,L|122:320,3,37.5,0|0|0|0,1:0|1:0|1:0|1:0,2:0:0:0:
133,352,231710,6,0,B|290:400|238:264|406:305,1,281.25,8|0,2:0|2:0,2:0:0:0:
436,238,232063,6,0,P|458:252|467:298,2,62.5,4|0|0,1:2|2:0|2:0,2:0:0:0:
426,155,232328,2,0,P|451:149|490:175,2,62.5,2|0|0,2:1|2:0|2:0,2:0:0:0:
360,103,232592,2,0,P|373:81|419:72,1,62.5,2|0,2:1|2:0,2:0:0:0:
237,75,232769,6,0,P|223:47|207:-7,2,62.5,2|0|0,2:1|2:0|2:0,2:0:0:0:
140,108,233034,2,0,P|110:98|60:71,2,62.5,2|0|0,2:1|2:0|2:0,2:0:0:0:
94,199,233298,2,0,P|66:213|12:229,1,62.5,2|0,2:1|2:0,2:0:0:0:
100,371,233475,6,0,P|121:346|133:283,2,62.5,2|0|0,2:1|2:0|2:0,2:0:0:0:
229,308,233739,2,0,P|217:277|169:235,2,62.5,2|0|0,2:1|2:0|2:0,2:0:0:0:
313,233,234004,5,2,2:1:0:0:
340,166,234092,1,2,2:1:0:0:
302,100,234181,2,0,P|274:84|210:87,1,62.5,2|0,2:1|2:0,2:0:0:0:
130,100,234357,5,0,1:0:0:0:
103,167,234445,1,0,1:0:0:0:
141,233,234534,2,0,P|169:249|233:246,1,62.5,8|0,2:0|2:0,2:0:0:0:
484,135,234710,2,0,P|435:148|408:167,1,62.5,0|0,1:0|2:0,2:0:0:0:
356,352,234886,6,0,P|351:225|331:133,1,187.5,4|0,1:2|2:0,2:0:0:0:
187,32,235151,1,2,2:0:0:0:
174,45,235239,2,0,P|186:72|253:72,1,93.75,8|0,2:0|2:0,2:0:0:0:
455,22,235416,1,2,2:0:0:0:
418,8,235504,1,2,2:0:0:0:
382,19,235592,2,0,P|339:49|338:107,1,93.75,0|0,1:0|2:0,2:0:0:0:
275,379,235769,5,2,2:0:0:0:
233,378,235857,1,2,2:0:0:0:
211,345,235945,2,0,P|200:313|201:239,1,93.75,8|0,2:0|2:0,2:0:0:0:
66,17,236122,5,2,2:0:0:0:
14,66,236210,1,2,2:0:0:0:
47,137,236298,6,0,P|189:108|250:108,1,187.5,0|0,1:0|2:0,2:0:0:0:
336,232,236563,6,0,P|245:208|151:202,1,187.5,2|0,2:1|2:0,2:0:0:0:
337,317,236828,6,0,P|382:305|429:302,1,93.75,0|0,1:0|2:0,2:0:0:0:
507,202,237004,6,0,P|474:103|472:36,1,159.375,0|0,1:0|2:0,2:0:0:0:
411,1,237181,2,0,P|341:79|284:114,1,159.375,2|0,2:1|2:0,2:0:0:0:
267,176,237357,2,0,P|205:125|159:61,1,159.375,8|0,2:0|2:0,2:0:0:0:
100,21,237534,6,0,P|51:23|48:71,1,106.25,2|0,2:1|2:0,2:0:0:0:
106,370,237710,6,0,P|127:264|153:198,1,175,4|0,1:2|2:0,2:0:0:0:
255,53,237975,1,2,2:0:0:0:
268,44,238063,2,0,P|305:76|282:118,1,87.5,8|0,2:0|2:0,2:0:0:0:
85,279,238239,2,0,P|14:299|-25:310,1,87.5,2|0,2:0|2:0,2:0:0:0:
151,201,238416,6,0,P|157:151|166:112,1,87.5,0|0,1:0|2:0,2:0:0:0:
66,0,238592,1,2,2:0:0:0:
20,7,238681,1,2,2:0:0:0:
2,47,238769,2,0,P|19:92|28:140,1,87.5,8|0,2:0|2:0,2:0:0:0:
208,277,238945,1,2,2:0:0:0:
252,270,239034,1,2,2:0:0:0:
291,242,239122,6,0,P|304:191|328:51,1,175,0|0,1:0|2:0,2:0:0:0:
168,0,239386,1,2,2:0:0:0:
178,29,239475,2,0,P|220:53|258:37,1,87.5,8|0,2:0|2:0,2:0:0:0:
444,5,239651,1,2,2:0:0:0:
487,24,239739,1,2,2:0:0:0:
507,63,239828,6,0,B|487:135|487:135|478:139|478:139|452:227,1,159.375,0|0,1:0|2:0,2:0:0:0:
429,287,240004,2,0,B|376:233|376:233|377:223|377:223|314:157,1,159.375,2|0,2:1|2:0,2:0:0:0:
274,107,240181,2,0,B|346:88|346:88|354:94|354:94|443:72,1,159.375,8|0,2:0|2:0,2:0:0:0:
507,63,240357,6,0,B|523:111|523:111|475:156,1,106.25,2|0,2:1|2:0,2:0:0:0:
210,361,240534,2,0,P|196:306|290:241,1,187.5,0|0,1:0|2:0,2:0:0:0:
429,287,240798,1,2,2:0:0:0:
415,312,240886,2,0,P|369:324|327:344,1,93.75,8|0,2:0|2:0,2:0:0:0:
86,384,241063,1,2,2:0:0:0:
68,356,241151,1,2,2:0:0:0:
61,318,241239,2,0,P|78:255|106:193,1,93.75,0|0,1:0|2:0,2:0:0:0:
339,70,241416,5,2,2:0:0:0:
320,39,241504,1,2,2:0:0:0:
281,20,241592,2,0,P|225:42|167:57,1,93.75,8|0,2:0|2:0,2:0:0:0:
0,0,241769,5,2,2:0:0:0:
36,6,241857,1,2,2:0:0:0:
62,31,241945,2,0,P|128:99|169:217,1,187.5,0|0,1:0|2:0,2:0:0:0:
258,124,242210,2,0,P|256:218|202:331,1,162.5,2|0,2:1|2:0,2:0:0:0:
310,344,242475,2,0,P|276:377|217:397,1,62.5,0|0,1:0|2:0,2:0:0:0:
173,342,242651,1,0,1:0:0:0:
428,320,242828,6,0,L|516:340,1,81.25,8|0,2:0|2:0,2:0:0:0:
367,223,243004,2,0,L|287:204,1,81.25,8|0,2:0|2:0,2:0:0:0:
431,132,243181,2,0,L|519:152,1,81.25,0|0,1:0|2:0,2:0:0:0:
350,49,243357,5,4,1:2:0:0:
428,320,243534,5,2,2:1:0:0:
463,238,243622,1,0,1:0:0:0:
263,384,243798,5,2,2:1:0:0:
228,302,243886,1,0,2:0:0:0:
66,365,244063,5,4,1:2:0:0:
258,124,244239,5,2,2:1:0:0:
160,161,244328,1,0,1:0:0:0:
376,55,244504,5,2,2:1:0:0:
274,17,244592,1,0,2:0:0:0:
466,1,244769,5,4,1:2:0:0:
324,308,244945,5,2,2:1:0:0:
289,212,245034,1,0,1:0:0:0:
366,138,245298,5,2,2:1:0:0:
359,135,245386,1,2,2:1:0:0:
352,133,245475,2,0,P|309:119|250:99,1,93.75,2|0,2:1|2:0,2:0:0:0:
80,149,245651,2,0,L|128:138,3,46.875,0|0|0|0,1:0|1:0|1:0|1:0,2:0:0:0:
156,145,245828,6,0,P|183:192|163:244,1,93.75,8|0,2:0|2:0,2:0:0:0:
48,373,246004,2,0,P|21:326|41:274,1,93.75,0|0,1:0|2:0,2:0:0:0:
277,258,246181,6,0,P|215:308|94:305,1,187.5,4|0,1:2|2:0,2:0:0:0:
11,186,246445,1,2,2:0:0:0:
1,157,246534,2,0,P|10:114|34:50,1,93.75,8|0,2:0|2:0,2:0:0:0:
292,0,246710,1,2,2:0:0:0:
314,21,246798,1,2,2:0:0:0:
310,56,246886,2,0,P|275:68|224:96,1,93.75,0|0,1:0|2:0,2:0:0:0:
110,311,247063,5,2,2:0:0:0:
133,287,247151,1,2,2:0:0:0:
149,264,247239,2,0,P|166:177|168:139,1,93.75,8|0,2:0|2:0,2:0:0:0:
125,2,247416,1,2,2:0:0:0:
69,13,247504,1,2,2:0:0:0:
52,49,247592,6,0,P|163:101|247:86,1,187.5,0|0,1:0|2:0,2:0:0:0:
363,155,247857,6,0,P|252:207|168:192,1,187.5,2|0,2:1|2:0,2:0:0:0:
93,269,248122,6,0,P|148:295|190:287,1,93.75,0|0,1:0|2:0,2:0:0:0:
345,377,248298,6,0,P|315:281|344:200,1,159.375,0|0,1:0|2:0,2:0:0:0:
363,155,248475,2,0,P|264:132|209:67,1,159.375,2|0,2:1|2:0,2:0:0:0:
179,28,248651,2,0,P|110:101|26:117,1,159.375,8|0,2:0|2:0,2:0:0:0:
0,169,248828,2,0,P|-2:207|76:222,1,106.25,2|0,2:1|2:0,2:0:0:0:
179,291,249004,6,0,P|284:261|375:253,1,175,4|0,1:2|2:0,2:0:0:0:
512,120,249269,1,2,2:0:0:0:
505,107,249357,2,0,P|464:89|421:83,1,87.5,8|0,2:0|2:0,2:0:0:0:
278,175,249534,2,0,P|315:166|380:150,1,87.5,2|0,2:0|2:0,2:0:0:0:
225,92,249710,6,0,P|180:106|189:144,1,87.5,0|0,1:0|2:0,2:0:0:0:
358,339,249886,1,2,2:0:0:0:
383,340,249975,1,2,2:0:0:0:
404,333,250063,2,0,P|432:290|430:245,1,87.5,8|2,2:0|2:0,2:0:0:0:
332,6,250239,2,0,P|307:48|305:110,1,87.5,2|0,2:0|2:0,2:0:0:0:
473,180,250416,6,0,P|353:214|366:278,1,175,0|0,1:0|2:0,2:0:0:0:
172,368,250681,1,2,2:0:0:0:
204,349,250769,2,0,P|218:295|237:241,1,87.5,8|0,2:0|2:0,2:0:0:0:
44,71,250945,1,2,2:0:0:0:
31,116,251034,1,2,2:0:0:0:
51,159,251122,6,0,P|60:189|188:191,1,159.375,0|0,1:0|2:0,2:0:0:0:
228,265,251298,2,0,P|249:241|187:130,1,159.375,2|0,2:1|2:0,2:0:0:0:
231,61,251475,2,0,P|200:54|134:163,1,159.375,8|0,2:0|2:0,2:0:0:0:
171,211,251651,6,0,P|203:200|210:134,1,106.25,2|0,2:1|2:0,2:0:0:0:
60,0,251828,6,0,P|141:51|249:59,1,187.5,0|0,1:0|2:0,2:0:0:0:
430,17,252092,1,2,2:0:0:0:
423,1,252181,2,0,P|385:7|367:55,1,93.75,8|0,2:0|2:0,2:0:0:0:
477,279,252357,1,2,2:0:0:0:
501,256,252445,1,2,2:0:0:0:
510,231,252534,2,0,P|512:194|492:138,1,93.75,0|0,1:0|2:0,2:0:0:0:
210,135,252710,5,2,2:0:0:0:
232,156,252798,1,2,2:0:0:0:
263,163,252886,2,0,P|309:147|383:137,1,93.75,8|0,2:0|2:0,2:0:0:0:
311,287,253063,1,2,2:0:0:0:
290,304,253151,1,2,2:0:0:0:
272,318,253239,6,0,P|168:336|81:369,1,187.5,0|0,1:0|2:0,2:0:0:0:
5,211,253504,2,0,P|89:224|170:253,1,162.5,2|0,2:1|2:0,2:0:0:0:
210,135,253769,2,0,P|158:144|114:160,1,62.5,0|0,1:0|2:0,2:0:0:0:
91,79,253945,1,0,1:0:0:0:
416,45,254122,6,0,L|493:-7,1,81.25,8|0,2:0|2:0,2:0:0:0:
367,115,254298,2,0,L|283:75,1,81.25,8|0,2:0|2:0,2:0:0:0:
454,121,254475,2,0,L|459:213,1,81.25,0|0,1:0|2:0,2:0:0:0:
300,290,254651,6,0,B|273:345|231:387|231:387|246:233|197:122|197:122|182:198|111:232|111:232|143:148|120:56|120:56|55:82|23:153|23:153|-33:81|14:20,1,1000,4|0,1:2|2:0,2:0:0:0:
14,21,257828,6,0,B|121:6,1,93.7500035762788,4|0,1:2|2:0,2:0:0:0:
196,126,258534,2,0,B|87:104,1,93.7500035762788,4|0,1:2|2:0,2:0:0:0:
49,368,258886,6,0,P|23:344|28:297,1,81.25,2|0,2:1|2:0,2:0:0:0:
240,193,259063,2,0,P|266:217|261:264,1,81.25,0|0,2:1|2:0,2:0:0:0:
147,279,259239,5,0,2:1:0:0:
317,352,259416,1,2,2:0:0:0:
325,360,259504,2,0,P|366:346|412:338,1,81.25,2|0,2:0|2:0,2:0:0:0:
511,284,259681,5,2,2:0:0:0:
483,301,259769,1,2,2:0:0:0:
483,273,259857,1,2,2:0:0:0:
512,313,259945,1,2,2:0:0:0:
358,224,260122,5,2,2:1:0:0:
448,124,260298,6,0,P|459:83|477:24,1,81.25,0|0,2:1|2:0,2:0:0:0:
344,78,260475,2,0,P|333:36|319:-23,1,81.25,0|0,2:1|2:0,2:0:0:0:
230,90,260651,2,0,P|199:59|157:14,1,81.25,2|0,2:1|2:0,2:0:0:0:
65,17,260828,5,2,2:0:0:0:
50,29,260916,1,2,2:0:0:0:
31,69,261004,1,2,2:0:0:0:
44,113,261092,1,2,2:0:0:0:
78,147,261181,2,0,L|126:157,3,40.625,0|0|0|0,1:0|1:0|1:0|1:0,2:0:0:0:
172,208,261357,1,8,2:0:0:0:
351,381,261710,6,0,P|361:302|379:206,1,150,4|0,1:2|2:0,2:0:0:0:
358,87,261975,1,2,2:0:0:0:
344,78,262063,2,0,P|318:111|332:151,1,75,8|0,2:0|2:0,2:0:0:0:
468,234,262239,2,0,P|466:196|432:178,1,75,2|0,2:0|2:0,2:0:0:0:
220,370,262416,6,0,P|249:355|269:310,1,75,0|0,1:0|2:0,2:0:0:0:
240,163,262592,1,2,2:0:0:0:
231,152,262681,2,0,P|209:193|222:240,1,75,2|8,2:0|2:0,2:0:0:0:
437,327,262857,1,2,2:0:0:0:
432,316,262945,2,0,P|405:302|346:298,1,75,2|0,2:0|2:0,2:0:0:0:
110,384,263122,6,0,P|34:346|49:269,1,150,0|0,1:0|2:0,2:0:0:0:
126,217,263386,1,2,2:0:0:0:
131,231,263475,2,0,P|119:270|106:317,1,75,8|0,2:0|2:0,2:0:0:0:
48,173,263651,2,0,P|56:141|85:78,1,75,2|0,2:0|2:0,2:0:0:0:
321,172,263828,6,0,L|395:160,1,75,0|0,1:0|2:0,2:0:0:0:
251,61,264004,1,2,2:1:0:0:
240,61,264092,1,2,2:1:0:0:
227,64,264181,2,0,L|152:75,1,75,8|0,2:0|2:0,2:0:0:0:
328,181,264357,2,0,L|402:169,1,75,2|0,2:1|2:0,2:0:0:0:
220,300,264534,6,0,B|199:217|268:245|225:115,1,150,0|0,1:0|2:0,2:0:0:0:
338,4,264798,1,2,2:0:0:0:
341,22,264886,2,0,P|335:49|284:64,1,75,8|0,2:0|2:0,2:0:0:0:
84,56,265063,2,0,P|121:62|146:123,1,75,2|0,2:0|2:0,2:0:0:0:
72,298,265239,6,0,P|36:304|-11:321,1,75,0|0,1:0|2:0,2:0:0:0:
62,187,265416,1,2,2:1:0:0:
70,199,265504,1,2,2:1:0:0:
83,204,265592,2,0,P|138:193|168:187,1,75,8|0,2:0|2:0,2:0:0:0:
292,285,265769,2,0,P|254:290|215:300,1,75,2|0,2:1|2:0,2:0:0:0:
341,22,265945,6,0,P|367:126|323:175,1,150,0|0,1:0|2:0,2:0:0:0:
219,300,266210,1,2,2:0:0:0:
214,286,266298,2,0,P|220:252|236:205,1,75,8|0,2:0|2:0,2:0:0:0:
409,94,266475,2,0,P|435:101|491:117,1,75,2|0,2:0|2:0,2:0:0:0:
209,119,266651,5,0,1:0:0:0:
21,74,266828,6,0,P|15:40|10:-3,1,75,8|0,2:0|2:0,2:0:0:0:
218,122,267004,2,0,P|224:156|229:199,1,75,8|0,2:0|2:0,2:0:0:0:
112,384,267181,5,2,2:1:0:0:
90,382,267269,1,2,2:1:0:0:
72,362,267357,2,0,P|67:290|101:213,1,150,0|0,1:0|2:0,2:0:0:0:
249,56,267622,1,2,2:0:0:0:
257,69,267710,2,0,P|254:98|202:119,1,75,8|0,2:0|2:0,2:0:0:0:
37,164,267886,2,0,P|67:133|117:150,1,75,2|0,2:0|2:0,2:0:0:0:
374,334,268063,6,0,P|425:324|467:315,1,75,0|0,1:0|2:0,2:0:0:0:
292,225,268239,1,0,2:0:0:0:
281,234,268328,2,0,P|229:220|194:218,1,75,2|8,2:0|2:0,2:0:0:0:
361,138,268504,1,0,2:0:0:0:
369,132,268592,2,0,P|402:153|394:199,1,75,2|0,2:0|2:0,2:0:0:0:
221,360,268769,6,0,P|194:277|220:198,1,150,0|0,1:0|2:0,2:0:0:0:
114,4,269034,1,2,2:0:0:0:
129,11,269122,2,0,P|138:36|152:101,1,75,8|0,2:0|2:0,2:0:0:0:
42,258,269298,2,0,P|88:239|140:236,1,75,2|0,2:0|2:0,2:0:0:0:
403,310,269475,5,0,1:0:0:0:
388,305,269563,1,2,2:1:0:0:
375,301,269651,2,0,P|362:279|354:223,1,75,0|0,2:0|2:0,2:0:0:0:
437,0,269828,2,0,P|450:22|458:78,1,75,8|0,2:0|2:0,2:0:0:0:
247,212,270004,2,0,P|264:167|325:148,1,75,2|0,2:1|2:0,2:0:0:0:
430,158,270181,6,0,B|348:135|410:83|279:61,1,150,0|0,1:0|2:0,2:0:0:0:
120,154,270445,1,2,2:0:0:0:
106,160,270534,2,0,P|77:136|79:90,1,75,8|0,2:0|2:0,2:0:0:0:
250,0,270710,2,0,P|242:35|222:82,1,75,2|2,2:0|2:0,2:0:0:0:
122,237,270886,6,0,P|133:278|142:332,1,75,0|0,1:0|2:0,2:0:0:0:
258,384,271063,1,2,2:1:0:0:
304,373,271151,1,2,2:1:0:0:
334,344,271239,2,0,P|344:308|368:262,1,75,8|0,2:0|2:0,2:0:0:0:
205,166,271416,2,0,P|215:208|220:253,1,75,2|0,2:1|2:0,2:0:0:0:
4,384,271592,6,0,P|21:293|42:212,1,150,0|0,1:0|2:0,2:0:0:0:
169,20,271857,1,2,2:0:0:0:
183,32,271945,2,0,P|180:74|129:93,1,75,8|0,2:0|2:0,2:0:0:0:
0,156,272122,2,0,P|32:143|76:158,1,75,2|0,2:0|2:0,2:0:0:0:
219,239,272298,5,0,1:0:0:0:
370,110,272475,6,0,P|423:101|468:89,1,75,8|0,2:0|2:0,2:0:0:0:
208,229,272651,2,0,P|155:238|110:250,1,75,8|0,2:0|2:0,2:0:0:0:
294,364,272828,5,2,2:1:0:0:
311,354,272916,1,2,2:1:0:0:
322,337,273004,2,0,P|315:242|301:172,1,150,4|0,1:2|2:0,2:0:0:0:
427,16,273269,1,2,2:0:0:0:
438,13,273357,2,0,P|461:22|454:83,1,75,8|0,2:0|2:0,2:0:0:0:
232,153,273534,2,0,P|229:133|280:119,1,75,2|0,2:0|2:0,2:0:0:0:
488,204,273710,6,0,P|453:199|414:176,1,75,0|0,1:0|2:0,2:0:0:0:
299,35,273886,1,2,2:0:0:0:
282,27,273975,2,0,P|235:32|212:74,1,75,0|8,2:0|2:0,2:0:0:0:
271,262,274151,1,0,2:0:0:0:
284,256,274239,2,0,P|300:236|303:182,1,75,2|0,2:0|2:0,2:0:0:0:
116,2,274416,6,0,P|122:88|155:188,1,150,0|0,1:0|2:0,2:0:0:0:
75,319,274681,1,2,2:0:0:0:
69,330,274769,2,0,P|32:340|-9:364,1,75,8|0,2:0|2:0,2:0:0:0:
113,236,274945,2,0,P|149:243|185:253,1,75,2|0,2:0|2:0,2:0:0:0:
324,381,275122,6,0,P|348:342|339:308,1,75,0|0,1:0|2:0,2:0:0:0:
282,106,275298,1,2,2:1:0:0:
269,107,275386,1,2,2:1:0:0:
256,110,275475,2,0,P|230:150|238:192,1,75,8|0,2:0|2:0,2:0:0:0:
388,239,275651,2,0,P|357:222|291:223,1,75,2|0,2:1|2:0,2:0:0:0:
169,347,275828,6,0,P|202:283|291:296,1,150,0|2,1:0|2:0,2:0:0:0:
455,384,276092,1,0,2:0:0:0:
442,373,276181,2,0,P|431:345|443:295,1,75,8|2,2:0|2:0,2:0:0:0:
346,155,276357,2,0,P|343:195|303:222,1,75,0|0,2:0|2:0,2:0:0:0:
169,347,276534,6,0,P|164:311|151:261,1,75,0|0,1:0|2:0,2:0:0:0:
10,171,276710,1,2,2:1:0:0:
0,191,276798,1,2,2:1:0:0:
4,217,276886,2,0,P|37:230|92:234,1,75,8|0,2:0|2:0,2:0:0:0:
308,136,277063,2,0,P|252:145|229:152,1,75,2|0,2:1|2:0,2:0:0:0:
154,273,277239,6,0,B|174:179|131:218|155:119,1,150,0|0,1:0|2:0,2:0:0:0:
89,7,277504,1,2,2:0:0:0:
72,0,277592,2,0,P|20:12|-19:23,1,75,8|0,2:0|2:0,2:0:0:0:
172,40,277769,2,0,P|208:30|244:22,1,75,2|0,2:0|2:0,2:0:0:0:
79,122,277945,5,0,1:0:0:0:
154,273,278122,6,0,L|250:293,1,75,8|0,2:0|2:0,2:0:0:0:
73,134,278298,2,0,L|0:118,1,75,8|0,2:0|2:0,2:0:0:0:
315,89,278475,5,0,1:0:0:0:
325,74,278563,1,0,1:0:0:0:
323,47,278651,1,4,1:2:0:0:
285,21,278739,1,2,2:0:0:0:
244,22,278828,1,2,2:0:0:0:
210,46,278916,1,2,2:0:0:0:
197,75,279004,2,0,P|197:111|231:158,1,75,8|0,2:0|2:0,2:0:0:0:
390,263,279181,5,2,2:0:0:0:
398,234,279269,1,2,2:0:0:0:
390,206,279357,2,0,P|352:185|310:189,1,75,0|0,1:0|2:0,2:0:0:0:
142,345,279534,5,2,2:0:0:0:
157,361,279622,1,2,2:0:0:0:
180,363,279710,2,0,P|209:343|208:295,1,75,8|0,2:0|2:0,2:0:0:0:
40,187,279886,2,0,P|67:215|101:217,1,75,2|0,2:0|2:0,2:0:0:0:
305,102,280063,5,4,1:2:0:0:
276,86,280151,1,2,2:0:0:0:
241,93,280239,1,2,2:0:0:0:
216,116,280328,1,2,2:0:0:0:
215,144,280416,2,0,P|218:182|225:222,1,75,8|0,2:0|2:0,2:0:0:0:
89,371,280592,1,2,2:0:0:0:
44,384,280681,1,2,2:0:0:0:
5,363,280769,2,0,P|5:326|18:281,1,75,0|0,1:0|2:0,2:0:0:0:
316,208,280945,2,0,P|313:246|292:290,1,75,2|0,2:0|2:0,2:0:0:0:
203,291,281122,5,8,2:0:0:0:
202,305,281210,1,2,2:0:0:0:
191,317,281298,1,2,2:0:0:0:
169,317,281386,1,2,2:0:0:0:
152,308,281475,5,4,1:2:0:0:
130,257,281563,1,2,2:0:0:0:
132,205,281651,1,2,2:0:0:0:
167,154,281739,1,2,2:0:0:0:
160,101,281828,2,0,P|128:89|74:71,1,75,8|0,2:0|2:0,2:0:0:0:
259,186,282004,1,2,2:0:0:0:
282,210,282092,1,2,2:0:0:0:
317,208,282181,2,0,P|353:200|397:186,1,75,4|0,1:2|2:0,2:0:0:0:
450,64,282357,5,2,2:0:0:0:
421,58,282445,1,2,2:0:0:0:
403,71,282534,6,0,P|390:97|384:119,4,37.5,8|0|0|0|0,2:0|2:0|2:0|2:0|2:0,2:0:0:0:
466,148,282798,1,0,2:0:0:0:
474,174,282886,1,4,1:2:0:0:
181,147,283063,5,2,2:0:0:0:
169,181,283151,2,0,P|176:225|192:272,1,75,2|0,2:1|2:0,2:0:0:0:
421,344,283328,1,2,2:0:0:0:
404,308,283416,2,0,P|366:290|318:287,1,75,0|0,2:1|2:0,2:0:0:0:
181,352,283592,2,0,P|232:339|249:306,1,75,2|0,2:1|2:0,2:0:0:0:
307,36,283769,6,0,L|319:-22,3,37.5,0|0|0|0,1:0|1:0|1:0|1:0,2:0:0:0:
310,68,283945,5,8,2:0:0:0:
330,114,284034,5,2,2:1:0:0:
326,156,284122,5,2,2:1:0:0:
303,198,284210,5,2,2:1:0:0:
270,228,284298,6,0,P|187:246|148:258,1,125,4|2,1:2|2:1,2:0:0:0:
193,153,284651,2,0,P|110:171|71:183,1,125,8|2,2:0|2:1,2:0:0:0:
87,90,285004,1,0,1:0:0:0:
46,199,285181,1,2,2:1:0:0:
3,68,285357,6,0,B|22:21|22:21|171:6,1,187.5,8|0,2:0|2:0,2:0:0:0:
186,25,285710,6,0,B|260:42|199:82|294:105,1,125,0|2,1:0|2:1,2:0:0:0:
279,189,286063,2,0,B|351:166|318:231|412:204,1,125,8|2,2:0|2:1,2:0:0:0:
484,232,286416,1,0,1:0:0:0:
478,126,286592,6,0,P|486:89|493:56,1,62.5,8|0,2:0|2:0,2:0:0:0:
396,207,286769,2,0,P|389:237|382:268,1,62.5,8|0,2:0|2:0,2:0:0:0:
371,93,286945,1,0,1:0:0:0:
484,232,287122,6,0,P|492:301|505:370,1,125,0|2,1:2|2:1,2:0:0:0:
367,384,287475,2,0,P|356:322|349:260,1,125,8|2,2:0|2:1,2:0:0:0:
252,209,287828,1,0,1:0:0:0:
175,286,288004,1,2,2:1:0:0:
98,218,288181,2,0,P|86:149|79:24,1,187.5,8|0,2:0|2:0,2:0:0:0:
96,12,288534,6,0,P|145:1|145:67,1,125,0|2,1:0|2:1,2:0:0:0:
237,122,288886,2,0,P|286:148|307:97,1,125,8|2,2:0|2:1,2:0:0:0:
384,39,289239,1,0,1:0:0:0:
451,105,289416,2,0,P|475:100|521:95,1,62.5,8|0,2:0|2:0,2:0:0:0:
439,199,289592,2,0,P|407:202|377:208,1,62.5,8|0,2:0|2:0,2:0:0:0:
504,275,289769,1,0,1:0:0:0:
433,346,289945,6,0,P|334:318|280:307,1,125,0|2,1:2|2:1,2:0:0:0:
166,251,290298,2,0,P|265:223|319:212,1,125,8|2,2:0|2:1,2:0:0:0:
345,139,290651,1,0,1:0:0:0:
281,56,290828,1,2,2:1:0:0:
202,118,291004,2,0,P|112:96|-27:74,1,187.5,8|0,2:0|2:0,2:0:0:0:
0,95,291357,6,0,P|8:167|70:156,1,125,0|2,1:0|2:1,2:0:0:0:
52,258,291710,2,0,P|118:287|139:227,1,125,8|2,2:0|2:1,2:0:0:0:
245,275,292063,1,0,1:0:0:0:
214,179,292239,6,0,P|206:145|201:109,1,62.5,8|0,2:0|2:0,2:0:0:0:
284,2,292416,2,0,P|288:32|296:63,1,62.5,8|0,2:0|2:0,2:0:0:0:
206,37,292592,1,0,1:0:0:0:
376,115,292769,6,0,P|451:101|532:96,1,125,0|2,1:2|2:1,2:0:0:0:
420,220,293122,2,0,P|345:206|264:201,1,125,8|2,2:0|2:1,2:0:0:0:
222,272,293475,1,0,1:0:0:0:
139,204,293651,1,2,2:1:0:0:
78,285,293828,2,0,B|39:266|39:266|4:114,1,187.5,8|0,2:0|2:0,2:0:0:0:
28,97,294181,6,0,L|181:75,1,125,0|2,1:0|2:1,2:0:0:0:
210,0,294534,2,0,L|333:17,1,125,8|2,2:0|2:1,2:0:0:0:
423,83,294886,1,0,1:0:0:0:
324,170,295063,6,0,P|310:133|304:92,1,62.5,8|0,2:0|2:0,2:0:0:0:
429,198,295239,2,0,P|443:235|449:276,1,62.5,8|0,2:0|2:0,2:0:0:0:
414,102,295416,1,0,1:0:0:0:
326,272,295592,6,0,P|275:284|226:295,1,87.4999999999999,4|0,1:2|2:0,2:0:0:0:
218,325,295857,1,0,2:0:0:0:
218,325,295945,1,8,2:0:0:0:
126,297,296122,1,0,2:0:0:0:
126,297,296475,5,0,2:0:0:0:
138,220,296651,1,8,2:0:0:0:
199,168,296828,1,0,2:0:0:0:
271,123,297004,6,0,P|280:59|293:12,1,87.4999999999999,0|0,2:0|2:0,2:0:0:0:
311,16,297269,1,0,2:0:0:0:
311,16,297357,1,8,2:0:0:0:
416,58,297534,1,0,2:0:0:0:
416,58,297886,5,0,2:0:0:0:
472,113,298063,1,8,2:0:0:0:
498,185,298239,1,0,2:0:0:0:
460,251,298416,6,0,P|408:259|356:277,1,87.4999999999999,0|0,2:0|2:0,2:0:0:0:
355,297,298681,1,0,2:0:0:0:
355,297,298769,1,8,2:0:0:0:
259,248,298945,1,0,2:0:0:0:
259,248,299298,5,0,2:0:0:0:
213,308,299475,1,8,2:0:0:0:
143,333,299651,1,0,2:0:0:0:
69,311,299828,6,0,P|57:247|63:191,1,87.4999999999999,0|0,2:0|2:0,2:0:0:0:
74,193,300092,1,0,2:0:0:0:
74,193,300181,1,8,2:0:0:0:
31,96,300357,1,0,2:0:0:0:
31,96,300710,5,0,2:0:0:0:
163,117,300886,1,8,2:0:0:0:
42,86,301063,1,0,2:0:0:0:
187,24,301239,6,0,L|242:15,3,43.75,4|0|0|0,2:0|2:0|2:0|2:0,2:0:0:0:
278,81,301592,6,0,L|322:89,3,43.75,8|0|0|0,2:0|2:0|2:0|2:0,2:0:0:0:
373,29,301945,6,0,L|428:20,3,43.75,2|0|0|0,2:1|2:0|2:0|2:0,2:0:0:0:
466,101,302298,6,0,L|521:92,1,43.75,8|0,2:0|2:0,2:0:0:0:
410,174,302475,2,0,L|366:181,1,43.75,2|0,2:1|2:0,2:0:0:0:
469,256,302651,6,0,L|524:247,3,43.75,4|0|0|0,2:0|2:0|2:0|2:0,2:0:0:0:
389,327,303004,6,0,L|432:334,3,43.75,8|0|0|0,2:0|2:0|2:0|2:0,2:0:0:0:
290,263,303357,6,0,L|345:254,3,43.75,2|0|0|0,2:1|2:0|2:0|2:0,2:0:0:0:
217,336,303710,6,0,L|260:343,1,43.75,8|0,2:0|2:0,2:0:0:0:
180,239,303886,2,0,L|136:231,1,43.75,2|0,2:1|2:0,2:0:0:0:
252,180,304063,5,4,2:0:0:0:
263,165,304151,1,2,2:0:0:0:
263,145,304239,1,2,2:0:0:0:
251,120,304328,1,2,2:0:0:0:
230,99,304416,1,8,2:0:0:0:
221,65,304504,1,2,2:0:0:0:
227,34,304592,1,2,2:0:0:0:
254,9,304681,1,2,2:0:0:0:
303,13,304769,5,2,2:1:0:0:
345,30,304857,1,2,2:1:0:0:
362,68,304945,1,2,2:1:0:0:
361,109,305034,1,2,2:1:0:0:
395,138,305122,2,0,L|427:146,6,21.875,8|0|0|0|0|0|0,2:0|2:0|2:0|2:0|2:0|2:0|2:0,2:0:0:0:
483,107,305475,5,4,2:0:0:0:
436,228,305651,2,0,L|448:278,1,43.75,0|0,2:0|2:0,2:0:0:0:
296,186,306004,2,0,L|284:236,1,43.75,0|0,2:0|2:0,2:0:0:0:
164,340,306357,5,8,2:0:0:0:
0,250,306534,1,8,2:0:0:0:
161,169,306710,1,2,2:1:0:0:
