osu file format v14

[General]
AudioFilename: Hitoribocchi_no_Marumaru_Seikatsu_OP_CREDITLESS.mp3
AudioLeadIn: 0
PreviewTime: 53650
Countdown: 0
SampleSet: Soft
StackLeniency: 0.7
Mode: 0
LetterboxInBreaks: 0
WidescreenStoryboard: 1

[Editor]
DistanceSpacing: 1.1
BeatDivisor: 4
GridSize: 16
TimelineZoom: 1.5

[Metadata]
Title:Hitoribocchi no Monologue (TV Size)
TitleUnicode:ひとりぼっちのモノローグ (TV Size)
Artist:Morishita Chisaki, Tanaka Minami, Kito Akari, Kurose Yuuko
ArtistUnicode:森下千咲, 田中美海, 鬼頭明里, 黒瀬ゆうこ
Creator:egg and cheese
Version:Normal
Source:ひとりぼっちの○○生活
Tags:icekalt lasse hitoribocchi no marumaru seikatsu op opening japanese pop anime Bocchi Hitori 一里 ぼっち Nako Sunao 本庄 アル Aru Honshou Sotca Luckythar ソトカ・ラキター CV: 砂尾 なこ
BeatmapID:2193351
BeatmapSetID:986224

[Difficulty]
HPDrainRate:3
CircleSize:3
OverallDifficulty:4
ApproachRate:6
SliderMultiplier:0.749999999999999
SliderTickRate:1

[Events]
//Background and Video events
0,0,"bokkie.jpg",0,0
Video,-150,"vicb7g.mp4"
//Break Periods
//Storyboard Layer 0 (Background)
//Storyboard Layer 1 (Fail)
//Storyboard Layer 2 (Pass)
//Storyboard Layer 3 (Foreground)
//Storyboard Layer 4 (Overlay)
//Storyboard Sound Samples

[TimingPoints]
1150,468.75,4,2,0,50,1,0
1150,-50,4,2,0,50,0,0
8650,-50,4,2,0,60,0,0
23650,-50,4,2,0,50,0,0
26462,-50,4,2,0,70,0,0
27400,-50,4,2,0,60,0,0
31150,-50,4,2,0,50,0,0
34900,-50,4,2,0,60,0,0
38650,-50,4,2,0,50,0,0
46150,-50,4,2,0,60,0,0
53650,-50,4,2,0,50,0,0
54587,-50,4,2,0,60,0,0
55525,-50,4,2,0,75,0,1
55759,-50,4,2,0,75,0,0
63025,-50,4,2,0,75,0,1
63259,-50,4,2,0,75,0,0
70525,-50,4,2,0,50,0,0
74275,-50,4,2,0,60,0,0
76150,-50,4,2,0,75,0,1
77556,-50,4,2,0,60,0,0
84587,-50,4,2,0,75,0,0
85525,-50,4,2,0,60,0,0

[Colours]
Combo1 : 250,190,230
Combo2 : 130,200,230
Combo3 : 255,230,140
Combo4 : 170,245,170

[HitObjects]
109,180,1150,6,0,P|116:237|97:295,2,112.5,2|2|2,0:0|0:0|0:0,0:0:0:0:
62,112,2087,1,2,0:0:0:0:
167,47,2439,2,0,L|294:36,1,112.5,2|2,0:0|0:0,0:0:0:0:
344,87,3025,6,0,P|349:155|369:200,1,112.5,2|2,0:0|0:0,0:0:0:0:
455,280,3728,1,2,0:0:0:0:
455,280,3962,2,0,L|369:296,1,74.9999999999999,2|2,0:0|0:0,0:0:0:0:
325,354,4431,2,0,L|248:343,1,74.9999999999999,2|2,0:0|0:0,0:0:0:0:
170,365,4900,6,0,P|168:312|100:245,1,150,6|2,0:0|0:0,0:0:0:0:
4,113,5837,2,0,P|57:111|124:43,1,150,2|2,0:0|0:0,0:0:0:0:
285,16,6775,6,0,P|339:24|389:52,2,112.5,2|2|2,0:0|0:0|0:0,0:0:0:0:
239,84,7712,2,0,L|225:195,1,112.5,2|2,0:0|0:0,0:0:0:0:
129,274,8415,1,2,0:0:0:0:
156,351,8650,6,0,P|252:363|309:334,1,150,4|4,3:2|3:0,0:0:0:0:
385,356,9353,1,8,3:0:0:0:
385,356,9587,2,0,P|381:267|423:218,1,150,0|4,1:0|3:0,0:0:0:0:
491,74,10525,6,0,P|436:96|340:73,1,150,4|4,3:0|3:0,0:0:0:0:
287,23,11228,1,8,3:0:0:0:
287,23,11462,2,0,P|244:13|203:15,1,74.9999999999999,0|0,1:0|1:0,0:0:0:0:
132,32,11931,2,0,P|94:55|66:85,1,74.9999999999999,4|6,3:0|3:0,0:0:0:0:
31,149,12400,6,0,B|27:202|27:202|56:247|56:247|56:305,2,150,6|2|2,3:2|3:2|3:2,0:0:0:0:
5,27,13689,1,2,3:2:0:0:
193,111,14275,6,0,P|200:156|191:193,1,74.9999999999999,6|6,3:2|3:2,0:0:0:0:
137,244,14743,2,0,P|130:289|139:326,1,74.9999999999999,6|6,3:2|3:2,0:0:0:0:
195,374,15212,1,6,3:2:0:0:
357,343,15681,1,4,3:0:0:0:
481,235,16150,6,0,P|466:168|476:121,1,112.5,6|2,3:2|3:2,0:0:0:0:
502,5,16853,1,2,3:2:0:0:
502,5,17087,2,0,P|460:21|387:13,1,112.5,2|2,3:2|3:2,0:0:0:0:
270,1,17790,1,2,3:2:0:0:
270,1,18025,6,0,P|251:53|256:113,1,112.5,2|2,3:2|3:2,0:0:0:0:
364,167,18728,1,2,3:2:0:0:
364,167,18962,2,0,P|355:202|359:243,1,74.9999999999999,2|2,3:2|1:2,0:0:0:0:
431,279,19431,2,0,P|440:314|436:355,1,74.9999999999999,2|2,3:2|1:2,0:0:0:0:
357,375,19900,6,0,P|302:349|210:363,1,150,6|2,1:2|1:2,0:0:0:0:
50,364,20837,2,0,P|100:329|133:242,1,150,6|2,1:2|1:2,0:0:0:0:
19,128,21775,6,0,P|13:58|20:10,2,112.5,4|4|6,1:2|3:0|3:0,0:0:0:0:
90,168,22712,2,0,L|213:153,1,112.5,0|4,1:0|3:0,0:0:0:0:
300,79,23415,1,0,1:0:0:0:
300,79,23650,5,2,0:0:0:0:
407,378,24821,1,2,0:0:0:0:
509,247,25290,1,4,0:0:0:0:
509,247,25525,2,0,P|419:258|353:215,1,150,2|2,0:0|0:0,0:0:0:0:
224,312,26462,2,0,P|189:302|148:304,1,74.9999999999999,6|6,0:0|0:0,0:0:0:0:
83,351,26931,1,6,0:0:0:0:
9,204,27400,6,0,P|50:167|55:62,1,150,4|2,3:0|1:2,0:0:0:0:
138,47,28103,1,2,3:2:0:0:
138,47,28337,2,0,P|193:80|247:71,1,112.5,2|2,3:2|3:2,0:0:0:0:
356,36,29040,1,4,3:0:0:0:
356,36,29275,6,0,P|353:119|398:187,1,150,2|2,3:2|1:2,0:0:0:0:
462,219,29978,1,2,3:2:0:0:
462,219,30212,2,0,P|438:278|438:303,1,74.9999999999999,2|2,3:2|3:2,0:0:0:0:
441,371,30681,2,0,L|361:363,1,74.9999999999999,4|0,3:0|1:0,0:0:0:0:
284,355,31150,5,4,3:2:0:0:
472,116,32321,2,0,L|476:204,2,74.9999999999999,4|0|4,3:0|1:0|3:0,0:0:0:0:
487,34,33025,1,4,3:0:0:0:
157,31,33962,2,0,P|116:19|67:21,1,74.9999999999999,2|2,0:0|0:0,0:0:0:0:
10,56,34431,1,2,0:0:0:0:
5,221,34900,6,0,P|65:216|156:254,1,150,4|2,3:2|1:2,0:0:0:0:
178,330,35603,1,2,3:2:0:0:
178,330,35837,2,0,P|243:338|300:320,1,112.5,2|4,3:2|3:0,0:0:0:0:
404,367,36540,1,4,3:0:0:0:
404,367,36775,6,0,P|402:317|460:233,1,150,2|8,3:2|3:0,0:0:0:0:
497,164,37478,1,4,3:0:0:0:
487,82,37712,2,0,P|426:64|404:66,1,74.9999999999999,0|0,1:0|1:0,0:0:0:0:
343,106,38181,2,0,P|281:120|263:133,1,74.9999999999999,0|0,1:0|1:0,0:0:0:0:
240,203,38650,5,4,3:2:0:0:
174,354,39118,2,0,L|100:339,1,74.9999999999999,2|2,0:0|0:0,0:0:0:0:
17,341,39587,2,0,P|26:280|11:221,1,112.5,4|4,3:0|3:0,0:0:0:0:
2,107,40290,1,8,0:0:0:0:
2,107,40525,6,0,P|36:44|80:20,2,112.5,8|2|2,3:0|0:0|0:0,0:0:0:0:
62,162,41462,2,0,P|135:175|212:154,1,150,4|2,3:0|0:0,0:0:0:0:
361,96,42400,6,0,P|431:93|502:148,1,150,8|2,3:0|0:0,0:0:0:0:
505,224,43103,1,2,0:0:0:0:
505,224,43337,2,0,P|466:259|454:327,1,112.5,8|4,3:0|3:0,0:0:0:0:
340,371,44040,1,8,0:0:0:0:
340,371,44275,6,0,P|280:362|224:377,2,112.5,8|2|2,3:0|0:0|0:0,0:0:0:0:
367,293,45212,2,0,L|389:172,1,112.5,4|4,3:0|3:0,0:0:0:0:
458,81,45915,1,8,0:0:0:0:
458,81,46150,6,0,P|415:70|371:71,1,74.9999999999999,2|2,3:2|0:0,0:0:0:0:
312,110,46618,2,0,P|235:108|171:60,1,150,2|2,1:2|3:2,0:0:0:0:
94,63,47321,1,2,0:0:0:0:
94,63,47556,2,0,L|75:148,1,74.9999999999999,2|2,1:2|0:0,0:0:0:0:
52,214,48025,6,0,P|55:280|34:335,2,112.5,2|2|2,3:2|0:0|3:2,0:0:0:0:
0,149,48962,1,2,3:2:0:0:
150,216,49431,1,4,3:0:0:0:
177,378,49900,6,0,B|263:307|263:307|387:336,1,225,2|0,1:2|0:0,0:0:0:0:
453,353,50837,2,0,P|458:281|472:236,1,112.5,0|4,1:0|3:0,0:0:0:0:
505,140,51540,1,0,1:0:0:0:
505,140,51775,2,0,P|514:71|504:14,2,112.5,2|2|2,3:2|0:0|0:0,0:0:0:0:
256,192,52712,12,6,54587,1:2:0:0:
370,243,55525,6,0,P|353:298|358:364,2,112.5,6|4|4,3:2|3:0|3:0,0:0:0:0:
405,168,56462,2,0,P|406:112|390:58,1,112.5,10|4,3:0|3:0,0:0:0:0:
274,13,57165,1,4,3:0:0:0:
274,13,57400,6,0,P|224:39|186:80,1,112.5,10|4,3:0|3:0,0:0:0:0:
125,188,58103,1,2,1:2:0:0:
125,188,58337,2,0,P|114:227|117:270,1,74.9999999999999,6|0,3:0|1:0,0:0:0:0:
196,276,58806,2,0,P|205:315|230:351,1,74.9999999999999,4|0,3:0|1:0,0:0:0:0:
304,365,59275,6,0,P|338:329|437:328,1,150,6|2,3:0|1:2,0:0:0:0:
493,268,59978,1,2,3:2:0:0:
455,194,60212,2,0,L|464:37,1,150,2|2,1:2|1:2,0:0:0:0:
386,14,60915,1,2,0:0:0:0:
386,14,61150,6,0,P|339:-4|275:7,2,112.5,2|4|0,1:2|3:0|1:0,0:0:0:0:
379,95,62087,2,0,P|367:132|365:185,1,74.9999999999999,0|0,1:0|1:0,0:0:0:0:
382,248,62556,1,0,1:0:0:0:
409,325,62790,1,0,1:0:0:0:
347,379,63025,6,0,P|302:353|231:343,1,112.5,4|4,3:2|3:0,0:0:0:0:
120,363,63728,1,4,3:0:0:0:
120,363,63962,2,0,P|146:318|156:247,1,112.5,10|4,3:0|3:0,0:0:0:0:
122,139,64665,1,4,3:0:0:0:
122,139,64900,6,0,P|168:151|237:141,1,112.5,10|4,3:0|3:0,0:0:0:0:
317,53,65603,1,2,1:2:0:0:
317,53,65837,2,0,P|360:75|387:103,1,74.9999999999999,6|0,3:0|1:0,0:0:0:0:
394,174,66306,2,0,P|420:214|429:252,1,74.9999999999999,4|0,3:0|1:0,0:0:0:0:
412,321,66775,6,0,P|347:313|263:354,1,150,6|2,3:0|1:2,0:0:0:0:
191,367,67478,1,2,0:0:0:0:
157,291,67712,2,0,P|141:227|72:163,1,150,2|2,1:2|1:2,0:0:0:0:
40,98,68415,1,2,0:0:0:0:
40,98,68650,6,0,P|113:69|159:71,1,112.5,2|8,1:2|3:0,0:0:0:0:
264,103,69353,1,8,3:0:0:0:
264,103,69587,2,0,P|312:96|364:50,2,112.5,0|0|4,1:0|1:0|3:0,0:0:0:0:
190,141,70525,5,6,1:2:0:0:
14,315,71228,1,2,0:0:0:0:
14,315,71462,1,2,1:2:0:0:
255,262,72165,1,2,0:0:0:0:
255,262,72400,6,0,P|300:291|325:348,2,112.5,2|2|2,0:0|0:0|0:0,0:0:0:0:
176,286,73337,2,0,P|99:286|59:219,1,150,2|4,1:2|3:0,0:0:0:0:
2,75,74275,6,0,P|93:50|160:57,1,150,6|0,3:2|1:0,0:0:0:0:
221,103,74978,1,0,1:0:0:0:
221,103,75212,2,0,L|303:94,1,74.9999999999999,6|0,3:0|1:0,0:0:0:0:
357,150,75681,2,0,L|431:141,1,74.9999999999999,4|4,3:0|3:0,0:0:0:0:
499,187,76150,5,6,1:2:0:0:
467,327,76618,1,6,1:2:0:0:
344,343,76970,2,0,P|291:323|221:330,1,112.5,6|6,1:2|1:2,0:0:0:0:
164,367,77556,1,6,1:2:0:0:
79,225,78025,6,0,P|67:162|105:78,2,150,2|4|4,3:0|3:0|3:0,0:0:0:0:
183,292,79314,2,0,B|227:263|308:277,1,112.5,4|8,3:0|0:0,0:0:0:0:
371,296,79900,6,0,P|403:207|460:179,1,150,6|4,3:0|3:0,0:0:0:0:
482,106,80603,2,0,L|495:29,1,74.9999999999999,0|0,1:0|1:0,0:0:0:0:
373,5,81189,2,0,P|318:0|256:22,1,112.5,4|0,3:0|1:0,0:0:0:0:
207,77,81775,6,0,P|124:72|78:17,2,150,6|4|4,3:0|3:0|3:0,0:0:0:0:
327,105,83064,2,0,P|309:146|303:227,1,112.5,4|8,3:0|0:0,0:0:0:0:
299,295,83650,6,0,P|244:286|209:290,1,74.9999999999999,6|6,1:2|1:2,0:0:0:0:
166,344,84118,2,0,P|111:353|76:349,1,74.9999999999999,6|6,1:2|1:2,0:0:0:0:
36,290,84587,2,0,L|40:201,1,74.9999999999999,6|6,1:2|1:2,0:0:0:0:
82,144,85056,2,0,L|86:55,1,74.9999999999999,6|6,1:2|1:2,0:0:0:0:
146,13,85525,5,6,1:2:0:0:
256,192,85642,12,14,87400,1:2:0:0:
