osu file format v14

[General]
AudioFilename: Hitoribocchi_no_Marumaru_Seikatsu_OP_CREDITLESS.mp3
AudioLeadIn: 0
PreviewTime: 53650
Countdown: 0
SampleSet: Soft
StackLeniency: 0.7
Mode: 0
LetterboxInBreaks: 0
WidescreenStoryboard: 1

[Editor]
DistanceSpacing: 0.9
BeatDivisor: 4
GridSize: 16
TimelineZoom: 1.5

[Metadata]
Title:Hitoribocchi no Monologue (TV Size)
TitleUnicode:ひとりぼっちのモノローグ (TV Size)
Artist:Morishita Chisaki, Tanaka Minami, Kito Akari, Kurose Yuuko
ArtistUnicode:森下千咲, 田中美海, 鬼頭明里, 黒瀬ゆうこ
Creator:egg and cheese
Version:Extra
Source:ひとりぼっちの○○生活
Tags:icekalt lasse hitoribocchi no marumaru seikatsu op opening japanese pop anime Bocchi Hitori 一里 ぼっち Nako Sunao 本庄 アル Aru Honshou Sotca Luckythar ソトカ・ラキター CV: 砂尾 なこ
BeatmapID:2205387
BeatmapSetID:986224

[Difficulty]
HPDrainRate:6
CircleSize:4
OverallDifficulty:8.5
ApproachRate:9.3
SliderMultiplier:1.7
SliderTickRate:1

[Events]
//Background and Video events
Video,-150,"vicb7g.mp4"
0,0,"bokkie.jpg",0,0
//Break Periods
//Storyboard Layer 0 (Background)
//Storyboard Layer 1 (Fail)
//Storyboard Layer 2 (Pass)
//Storyboard Layer 3 (Foreground)
//Storyboard Layer 4 (Overlay)
//Storyboard Sound Samples

[TimingPoints]
1150,468.75,4,2,0,50,1,0
1150,-100,4,2,0,50,0,0
8650,-50,4,2,0,60,0,0
16150,-50,4,2,0,60,0,0
23650,-100,4,2,0,50,0,0
25290,-50,4,2,0,50,0,0
25525,-100,4,2,0,50,0,0
26462,-50,4,2,0,70,0,0
27400,-50,4,2,0,60,0,0
31150,-100,4,2,0,50,0,0
34431,-50,4,2,0,50,0,0
34900,-50,4,2,0,60,0,0
38650,-100,4,2,0,50,0,0
43337,-50,4,2,0,50,0,0
44275,-100,4,2,0,50,0,0
46150,-50,4,2,0,60,0,0
49900,-55.5555555555556,4,2,0,60,0,0
50837,-50,4,2,0,60,0,0
53650,-200,4,2,0,50,0,0
54587,-33.3333333333333,4,2,0,60,0,0
55525,-40,4,2,0,75,0,1
55759,-40,4,2,0,75,0,0
60212,-50,4,2,0,75,0,0
60446,-40,4,2,0,75,0,0
63025,-40,4,2,0,75,0,1
63259,-40,4,2,0,75,0,0
67712,-50,4,2,0,75,0,0
67946,-40,4,2,0,75,0,0
70525,-100,4,2,0,50,0,0
74275,-50,4,2,0,60,0,0
76150,-33.3333333333333,4,2,0,75,0,1
77556,-33.3333333333333,4,2,0,60,0,0
78025,-50,4,2,0,60,0,0
84587,-33.3333333333333,4,2,0,75,0,0
85525,-125,4,2,0,60,0,0

[Colours]
Combo1 : 250,190,230
Combo2 : 130,200,230
Combo3 : 255,230,140
Combo4 : 170,245,170

[HitObjects]
171,114,1150,6,0,B|129:102|129:102|91:114|91:114|40:98,2,127.5,2|2|2,0:0|0:0|0:0,0:0:0:0:
180,201,2087,2,0,B|137:211|137:211|110:241|110:241|58:252,2,127.5,2|2|2,0:0|0:0|0:0,0:0:0:0:
231,271,3025,2,0,B|199:301|199:301|191:340|191:340|151:376,2,127.5,2|2|2,0:0|0:0|0:0,0:0:0:0:
300,243,3845,1,2,0:0:0:0:
373,259,3962,6,0,P|402:289|418:339,1,85,2|2,0:0|0:0,0:0:0:0:
350,187,4431,2,0,P|361:146|396:108,1,85,2|2,0:0|0:0,0:0:0:0:
489,58,4900,5,6,0:0:0:0:
282,19,5134,2,0,L|276:71,2,42.5,2|2|2,0:0|0:0|0:0,0:0:0:0:
163,51,5603,1,2,0:0:0:0:
167,93,5720,1,2,0:0:0:0:
159,9,5837,1,2,0:0:0:0:
350,142,6071,6,0,L|344:194,2,42.5,2|2|2,0:0|0:0|0:0,0:0:0:0:
150,198,6540,1,2,0:0:0:0:
163,273,6657,1,2,0:0:0:0:
160,175,6775,6,0,P|104:181|61:166,1,85,2|0,0:0|0:0,0:0:0:0:
201,53,7126,2,0,P|155:86|110:94,1,85,2|0,0:0|0:0,0:0:0:0:
52,102,7478,1,2,0:0:0:0:
157,203,7712,6,0,P|100:199|61:176,1,85,2|0,0:0|0:0,0:0:0:0:
218,89,8063,2,0,P|167:113|121:114,1,85,2|0,0:0|0:0,0:0:0:0:
63,112,8415,1,2,0:0:0:0:
369,8,8650,6,0,P|341:71|374:170,1,170,4|8,3:2|3:0,0:0:0:0:
433,212,9001,1,8,3:0:0:0:
497,256,9118,2,0,P|433:267|374:351,1,170,4|8,3:0|3:0,0:0:0:0:
303,336,9470,1,8,3:0:0:0:
233,363,9587,5,0,1:0:0:0:
244,288,9704,1,0,1:0:0:0:
185,240,9821,1,0,1:0:0:0:
115,267,9939,1,0,1:0:0:0:
104,342,10056,5,4,3:0:0:0:
45,295,10173,1,4,3:0:0:0:
56,220,10290,2,0,P|73:169|72:116,1,85,10|0,3:0|0:0,0:0:0:0:
9,21,10525,6,0,P|51:55|188:24,1,170,4|8,3:0|3:0,0:0:0:0:
223,0,10876,1,8,3:0:0:0:
306,17,10993,2,0,P|253:48|238:181,1,170,4|8,3:0|3:0,0:0:0:0:
285,193,11345,1,8,3:0:0:0:
270,266,11462,5,0,1:0:0:0:
341,243,11579,1,0,1:0:0:0:
397,293,11696,1,0,1:0:0:0:
381,366,11814,1,0,1:0:0:0:
453,344,11931,5,4,3:0:0:0:
469,271,12048,1,4,3:0:0:0:
413,216,12165,2,0,P|395:163|423:61,1,127.5,6|0,3:0|0:0,0:0:0:0:
423,65,12400,6,0,B|364:54|364:54|313:90|313:90|240:81,1,170,6|8,3:2|3:0,0:0:0:0:
73,30,12751,1,8,3:0:0:0:
73,30,12868,2,0,P|145:45|184:159,1,170,2|8,3:2|3:0,0:0:0:0:
152,192,13220,1,8,3:0:0:0:
89,232,13337,6,0,L|78:330,1,85,2|8,3:2|3:0,0:0:0:0:
196,372,13571,1,8,3:0:0:0:
196,372,13689,2,0,P|236:332|367:343,1,170,2|8,3:2|3:0,0:0:0:0:
457,376,14040,2,0,P|436:328|436:268,1,85,2|0,3:2|0:0,0:0:0:0:
449,82,14275,6,0,L|437:200,1,85,6|0,3:2|0:0,0:0:0:0:
275,222,14509,2,0,L|266:137,1,85,6|0,3:2|0:0,0:0:0:0:
454,77,14743,2,0,L|441:203,1,85,6|0,3:2|0:0,0:0:0:0:
269,226,14977,2,0,L|260:136,1,85,6|0,3:2|0:0,0:0:0:0:
471,293,15212,6,0,P|375:288|305:354,1,170,6|8,3:2|3:0,0:0:0:0:
253,368,15564,1,8,3:0:0:0:
176,356,15681,2,0,L|80:348,1,85,4|0,3:0|0:0,0:0:0:0:
16,196,15915,1,8,3:0:0:0:
83,234,16032,1,8,3:0:0:0:
149,194,16150,6,0,B|233:179|233:179|326:214,1,170,6|0,3:2|1:0,0:0:0:0:
452,252,16501,2,0,B|368:267|368:267|275:232,1,170,2|0,3:2|0:0,0:0:0:0:
407,173,16853,2,0,L|491:163,1,85,2|0,3:2|0:0,0:0:0:0:
264,0,17087,6,0,P|313:61|278:152,1,170,2|0,3:2|1:0,0:0:0:0:
193,249,17439,2,0,P|221:176|317:160,1,170,2|0,3:2|0:0,0:0:0:0:
402,183,17790,2,0,L|288:165,1,85,2|0,3:2|0:0,0:0:0:0:
60,90,18025,6,0,L|245:79,1,170,2|0,3:2|1:0,0:0:0:0:
318,169,18376,2,0,L|148:158,1,170,2|0,3:2|0:0,0:0:0:0:
33,69,18728,1,2,3:2:0:0:
67,143,18845,1,2,0:0:0:0:
20,208,18962,6,0,P|23:274|8:317,1,85,2|0,3:2|0:0,0:0:0:0:
156,384,19196,2,0,P|153:318|168:275,1,85,2|0,1:2|1:0,0:0:0:0:
8,209,19431,2,0,P|11:275|-4:318,1,85,2|0,3:2|0:0,0:0:0:0:
169,383,19665,2,0,P|166:317|181:274,1,85,2|0,1:2|1:0,0:0:0:0:
428,296,19900,6,0,P|320:309|295:376,1,170,6|0,1:2|1:0,0:0:0:0:
216,212,20251,1,0,3:0:0:0:
216,212,20368,2,0,P|324:225|349:292,1,170,2|0,1:2|1:0,0:0:0:0:
458,120,20720,1,0,3:0:0:0:
458,120,20837,6,0,P|350:133|325:200,1,170,6|0,1:2|1:0,0:0:0:0:
266,285,21189,1,0,3:0:0:0:
266,285,21306,2,0,P|158:272|133:205,1,170,2|0,1:2|1:0,0:0:0:0:
30,98,21657,1,0,3:0:0:0:
30,98,21775,6,0,L|17:202,1,85,4|0,1:2|0:0,0:0:0:0:
96,330,22009,1,0,1:0:0:0:
96,330,22126,2,0,L|106:245,1,85,4|0,3:0|0:0,0:0:0:0:
202,107,22360,1,4,3:0:0:0:
261,56,22478,1,6,3:0:0:0:
337,41,22595,1,4,3:0:0:0:
410,66,22712,6,0,L|402:159,1,85,0|0,1:0|0:0,0:0:0:0:
327,288,22946,1,0,1:0:0:0:
327,288,23064,2,0,L|319:203,1,85,4|0,3:0|0:0,0:0:0:0:
479,17,23415,1,0,1:0:0:0:
208,76,23650,5,2,0:0:0:0:
187,69,23767,1,2,0:0:0:0:
166,62,23884,1,2,0:0:0:0:
145,55,24001,1,2,0:0:0:0:
71,34,24118,5,2,0:0:0:0:
67,54,24235,1,2,0:0:0:0:
63,75,24353,1,2,0:0:0:0:
59,95,24470,1,2,0:0:0:0:
15,158,24587,6,0,L|12:204,1,42.5,2|0,0:0|0:0,0:0:0:0:
91,164,24821,1,2,0:0:0:0:
5,209,24939,2,0,L|8:167,1,42.5,2|0,0:0|0:0,0:0:0:0:
134,359,25290,2,0,P|180:339|263:347,1,127.5,4|0,0:0|0:0,0:0:0:0:
279,360,25525,6,0,L|337:355,1,42.5,2|0,0:0|0:0,0:0:0:0:
335,371,25759,2,0,L|293:375,1,42.5,2|0,0:0|0:0,0:0:0:0:
444,348,25993,5,2,0:0:0:0:
445,326,26110,1,2,0:0:0:0:
446,304,26228,1,2,0:0:0:0:
448,282,26345,1,2,0:0:0:0:
497,220,26462,6,0,L|508:123,1,85,6|0,0:0|0:0,0:0:0:0:
405,206,26696,2,0,L|366:116,1,85,6|0,0:0|0:0,0:0:0:0:
318,239,26931,2,0,L|239:180,1,85,6|0,0:0|0:0,0:0:0:0:
260,312,27165,1,8,0:0:0:0:
260,312,27400,6,0,L|163:301,1,85,4|0,3:0|0:0,0:0:0:0:
29,368,27634,1,2,3:2:0:0:
58,295,27751,1,2,0:0:0:0:
22,227,27868,2,0,P|28:159|13:114,1,85,2|0,1:2|0:0,0:0:0:0:
100,1,28103,2,0,P|94:69|109:114,1,85,2|0,3:2|0:0,0:0:0:0:
276,120,28337,6,0,L|183:127,1,85,2|0,3:2|0:0,0:0:0:0:
373,26,28571,1,2,3:2:0:0:
373,26,28689,2,0,P|330:88|343:194,1,170,2|8,3:2|3:0,0:0:0:0:
391,236,29040,2,0,L|480:227,1,85,4|0,3:0|0:0,0:0:0:0:
352,353,29275,6,0,L|263:344,1,85,2|0,3:2|0:0,0:0:0:0:
138,271,29509,2,0,L|227:262,1,85,2|0,3:2|0:0,0:0:0:0:
362,363,29743,2,0,L|273:354,1,85,2|0,1:2|0:0,0:0:0:0:
148,281,29977,2,0,L|237:272,1,85,2|0,3:2|0:0,0:0:0:0:
41,369,30212,6,0,P|58:317|56:268,1,85,2|0,3:2|0:0,0:0:0:0:
0,149,30446,2,0,P|36:189|79:212,1,85,2|0,3:2|1:0,0:0:0:0:
211,223,30681,2,0,P|157:234|116:260,1,85,4|0,3:0|0:0,0:0:0:0:
306,287,30915,1,0,1:0:0:0:
379,262,31032,1,0,1:0:0:0:
429,203,31150,5,4,3:2:0:0:
444,23,31501,1,0,1:0:0:0:
441,220,31853,1,4,3:0:0:0:
329,72,32204,1,4,3:0:0:0:
329,72,32321,2,0,L|270:65,1,42.5,4|4,3:0|3:0,0:0:0:0:
224,109,32556,1,0,1:0:0:0:
54,19,33025,5,4,3:0:0:0:
29,206,33376,1,0,1:0:0:0:
37,5,33728,1,4,3:0:0:0:
143,183,33962,6,0,L|199:179,1,42.5,2|0,0:0|0:0,0:0:0:0:
247,228,34196,2,0,L|303:224,1,42.5,2|0,0:0|0:0,0:0:0:0:
345,170,34431,2,0,P|417:166|495:257,1,170,2|0,0:0|1:0,0:0:0:0:
511,299,34782,1,0,1:0:0:0:
451,345,34900,6,0,L|353:339,1,85,4|0,3:2|0:0,0:0:0:0:
237,296,35134,1,2,3:2:0:0:
158,297,35251,1,2,0:0:0:0:
103,351,35368,2,0,L|-8:363,1,85,2|0,1:2|0:0,0:0:0:0:
38,239,35603,2,0,L|122:229,1,85,2|0,3:2|0:0,0:0:0:0:
250,315,35837,6,0,P|233:275|242:212,1,85,2|0,3:2|0:0,0:0:0:0:
365,145,36071,1,0,1:0:0:0:
365,145,36189,2,0,P|338:179|279:203,1,85,4|0,3:0|0:0,0:0:0:0:
160,131,36423,1,0,1:0:0:0:
160,131,36540,2,0,P|203:136|253:175,1,85,4|0,3:0|0:0,0:0:0:0:
315,271,36775,6,0,L|426:264,1,85,2|0,3:2|0:0,0:0:0:0:
240,343,37009,2,0,L|129:336,1,85,2|0,3:2|0:0,0:0:0:0:
422,290,37243,5,8,3:0:0:0:
395,217,37360,1,8,3:0:0:0:
408,140,37478,1,4,3:0:0:0:
457,80,37595,1,4,3:0:0:0:
470,3,37712,6,0,P|429:-9|378:-3,1,85,0|0,1:0|0:0,0:0:0:0:
191,29,37946,1,0,1:0:0:0:
241,87,38064,2,0,L|230:192,1,85,0|0,1:0|0:0,0:0:0:0:
466,88,38298,1,0,1:0:0:0:
417,148,38415,2,0,L|428:253,1,85,0|0,1:0|0:0,0:0:0:0:
156,295,38650,5,4,3:2:0:0:
83,161,38884,2,0,L|75:123,1,21.25,8|4,3:0|3:0,0:0:0:0:
214,157,39235,2,0,L|226:120,1,21.25,8|4,3:0|3:0,0:0:0:0:
329,219,39587,5,4,3:0:0:0:
336,236,39939,1,4,3:0:0:0:
329,310,40290,1,8,0:0:0:0:
493,60,40525,5,8,3:0:0:0:
329,22,40759,2,0,L|289:16,1,21.25,8|4,3:0|3:0,0:0:0:0:
344,132,41110,2,0,L|306:146,1,21.25,8|4,3:0|3:0,0:0:0:0:
411,219,41462,5,4,3:0:0:0:
416,236,41814,1,4,3:0:0:0:
451,154,42165,1,8,0:0:0:0:
296,373,42400,5,8,3:0:0:0:
324,207,42634,2,0,L|330:173,1,21.25,8|4,3:0|3:0,0:0:0:0:
201,220,42985,2,0,L|174:197,1,21.25,8|4,3:0|3:0,0:0:0:0:
150,333,43337,6,0,L|66:316,1,85,8|0,3:0|1:0,0:0:0:0:
3,380,43571,1,0,1:0:0:0:
3,380,43689,2,0,P|39:296|4:203,1,170,4|0,3:0|1:0,0:0:0:0:
21,145,44040,1,8,0:0:0:0:
202,13,44275,5,8,3:0:0:0:
403,59,44509,2,0,L|442:56,1,21.25,8|4,3:0|3:0,0:0:0:0:
336,168,44860,2,0,L|358:200,1,21.25,8|4,3:0|3:0,0:0:0:0:
208,164,45212,5,4,3:0:0:0:
204,182,45564,1,4,3:0:0:0:
24,285,45915,1,8,0:0:0:0:
43,292,46032,2,0,L|34:326,1,21.25,2|2,0:0|0:0,0:0:0:0:
60,301,46150,6,0,P|140:294|224:352,1,170,2|2,3:2|0:0,0:0:0:0:
285,371,46501,1,2,0:0:0:0:
285,371,46618,2,0,P|260:309|343:219,1,170,2|0,1:2|0:0,0:0:0:0:
477,78,47087,6,0,P|416:102|302:37,1,170,2|2,3:2|0:0,0:0:0:0:
271,15,47439,1,2,0:0:0:0:
271,15,47556,2,0,L|99:6,1,170,2|2,1:2|0:0,0:0:0:0:
0,218,48025,6,0,P|57:233|100:365,1,170,2|0,3:2|3:0,0:0:0:0:
200,384,48376,2,0,P|184:327|277:223,1,170,2|0,0:0|0:0,0:0:0:0:
176,179,48728,2,0,P|123:182|74:159,1,85,2|0,3:2|0:0,0:0:0:0:
311,214,48962,6,0,P|370:187|451:270,1,170,2|0,3:2|1:0,0:0:0:0:
512,123,49314,1,0,1:0:0:0:
512,123,49431,2,0,P|453:96|372:179,1,170,4|0,3:0|1:0,0:0:0:0:
473,335,49900,6,0,B|421:341|390:307|390:307|355:343|355:343|323:313|273:305|273:305|205:361|112:320|112:320|113:243|209:216,1,535.499983657837,2|0,1:2|0:0,0:0:0:0:
28,355,50837,5,0,1:0:0:0:
28,355,50954,2,0,L|43:257,1,85,0|0,1:0|0:0,0:0:0:0:
13,144,51189,2,0,P|72:176|181:108,1,170,4|4,3:0|3:0,0:0:0:0:
224,0,51540,2,0,P|214:55|226:92,1,85,0|0,1:0|0:0,0:0:0:0:
421,117,51775,5,2,3:2:0:0:
418,95,51892,1,2,0:0:0:0:
393,66,52009,1,2,0:0:0:0:
343,64,52126,1,2,0:0:0:0:
299,104,52243,1,2,0:0:0:0:
297,180,52360,1,2,0:0:0:0:
366,229,52478,1,2,0:0:0:0:
450,189,52595,1,2,0:0:0:0:
510,265,52712,6,0,P|426:285|356:360,1,170,2|2,3:2|3:2,0:0:0:0:
299,368,53064,1,2,0:0:0:0:
244,315,53181,2,0,L|148:310,1,85,2|0,1:2|0:0,0:0:0:0:
5,377,53415,2,0,L|101:372,1,85,2|0,3:2|0:0,0:0:0:0:
331,192,53650,6,0,L|401:188,1,63.75,2|0,0:0|0:0,0:0:0:0:
254,237,54118,2,0,L|209:240,1,42.5,2|0,0:0|0:0,0:0:0:0:
318,164,54470,1,2,0:0:0:0:
318,164,54587,6,0,B|359:161|359:161|403:183|403:183|481:174,1,127.500004863739,6|0,1:2|0:0,0:0:0:0:
252,258,54821,2,0,B|211:255|211:255|167:277|167:277|89:268,1,127.500004863739,6|0,1:2|0:0,0:0:0:0:
331,86,55056,6,0,B|372:83|372:83|416:105|416:105|494:96,1,127.500004863739,6|0,1:2|0:0,0:0:0:0:
260,338,55290,2,0,P|199:312|76:380,1,191.250007295609,6|0,1:2|0:0,0:0:0:0:
66,366,55525,6,0,P|85:308|71:218,1,106.25,6|0,3:2|0:0,0:0:0:0:
17,49,55759,1,0,1:0:0:0:
0,121,55876,2,0,P|40:166|125:199,1,106.25,4|0,3:0|0:0,0:0:0:0:
299,237,56110,1,0,1:0:0:0:
245,186,56227,2,0,P|185:198|114:255,1,106.25,4|0,3:0|0:0,0:0:0:0:
362,377,56462,6,0,L|382:159,1,212.5,10|0,3:0|1:0,0:0:0:0:
482,0,56814,2,0,L|501:211,1,212.5,4|0,3:0|1:0,0:0:0:0:
353,265,57165,2,0,L|363:154,1,106.25,4|0,3:0|0:0,0:0:0:0:
279,20,57400,6,0,P|261:79|220:104,1,106.25,10|0,3:0|0:0,0:0:0:0:
36,73,57634,1,0,1:0:0:0:
86,18,57751,2,0,P|140:72|143:207,1,212.5,4|0,3:0|1:0,0:0:0:0:
12,270,58103,1,2,1:2:0:0:
96,268,58220,1,2,0:0:0:0:
135,341,58337,6,0,P|187:332|253:344,1,106.25,6|0,3:0|0:0,0:0:0:0:
432,371,58571,2,0,P|380:380|314:368,1,106.25,0|0,1:0|0:0,0:0:0:0:
126,334,58806,2,0,P|178:325|244:337,1,106.25,4|0,3:0|0:0,0:0:0:0:
423,364,59040,2,0,P|371:373|305:361,1,106.25,0|0,1:0|0:0,0:0:0:0:
491,294,59275,6,0,P|472:248|487:163,1,106.25,6|0,3:0|0:0,0:0:0:0:
483,52,59509,1,2,3:2:0:0:
454,120,59626,1,2,0:0:0:0:
489,37,59743,2,0,L|369:32,1,106.25,2|0,1:2|0:0,0:0:0:0:
156,77,59978,5,2,3:2:0:0:
162,95,60095,1,2,0:0:0:0:
168,113,60212,2,0,L|280:108,1,85,2|0,1:2|0:0,0:0:0:0:
479,60,60446,5,2,3:2:0:0:
450,128,60563,1,2,0:0:0:0:
485,45,60680,2,0,L|365:40,1,106.25,2|0,1:2|0:0,0:0:0:0:
168,113,60915,1,2,0:0:0:0:
197,45,61032,1,2,0:0:0:0:
162,128,61150,6,0,P|247:110|358:196,1,212.5,2|0,1:2|1:0,0:0:0:0:
512,216,61501,2,0,P|431:223|338:353,1,212.5,4|4,3:0|3:0,0:0:0:0:
296,370,61853,2,0,L|186:361,1,106.25,0|0,1:0|0:0,0:0:0:0:
51,379,62087,6,0,P|80:323|76:256,1,106.25,0|0,1:0|0:0,0:0:0:0:
49,92,62321,2,0,P|20:148|24:215,1,106.25,0|0,1:0|0:0,0:0:0:0:
135,214,62556,5,0,1:0:0:0:
225,230,62673,1,4,3:0:0:0:
311,199,62790,1,0,1:0:0:0:
371,129,62907,1,4,3:0:0:0:
387,38,63025,6,0,P|394:147|501:208,1,212.5,4|0,3:2|1:0,0:0:0:0:
512,303,63376,2,0,P|433:302|316:410,1,212.5,4|0,3:0|1:0,0:0:0:0:
232,383,63728,2,0,P|180:358|118:363,1,106.25,4|0,3:0|0:0,0:0:0:0:
0,231,63962,6,0,P|52:256|114:251,1,106.25,10|0,3:0|0:0,0:0:0:0:
284,141,64196,1,0,1:0:0:0:
221,106,64314,2,0,P|173:138|146:194,1,106.25,4|0,3:0|0:0,0:0:0:0:
142,369,64548,1,0,1:0:0:0:
218,359,64665,2,0,P|213:301|178:250,1,106.25,4|0,3:0|0:0,0:0:0:0:
299,230,64900,6,0,P|353:214|406:220,1,106.25,10|0,3:0|0:0,0:0:0:0:
512,362,65134,1,0,1:0:0:0:
476,297,65251,2,0,P|429:228|470:90,1,212.5,4|0,3:0|1:0,0:0:0:0:
393,4,65603,1,2,1:2:0:0:
329,58,65720,1,2,0:0:0:0:
246,72,65837,6,0,L|135:68,1,106.25,6|0,3:0|0:0,0:0:0:0:
0,184,66071,2,0,L|111:180,1,106.25,0|0,1:0|0:0,0:0:0:0:
258,64,66306,2,0,L|147:60,1,106.25,4|0,3:0|0:0,0:0:0:0:
12,176,66540,2,0,L|123:172,1,106.25,0|0,1:0|0:0,0:0:0:0:
335,115,66775,6,0,P|307:170|304:235,1,106.25,6|0,3:0|0:0,0:0:0:0:
427,338,67009,1,2,0:0:0:0:
501,361,67126,1,2,0:0:0:0:
408,351,67243,2,0,P|436:296|439:231,1,106.25,2|0,1:2|0:0,0:0:0:0:
348,111,67478,5,2,0:0:0:0:
335,115,67595,1,2,0:0:0:0:
323,121,67712,2,0,P|295:176|290:236,1,85,2|0,1:2|0:0,0:0:0:0:
429,351,67946,5,2,0:0:0:0:
503,374,68063,1,2,0:0:0:0:
410,364,68180,2,0,P|438:309|441:244,1,106.25,2|0,1:2|0:0,0:0:0:0:
323,121,68415,1,2,0:0:0:0:
397,98,68532,1,2,0:0:0:0:
304,108,68650,6,0,P|217:136|103:78,1,212.5,2|0,1:2|1:0,0:0:0:0:
8,130,69001,2,0,L|-7:252,1,106.25,8|0,3:0|0:0,0:0:0:0:
178,351,69235,1,0,1:0:0:0:
109,378,69353,2,0,L|96:272,1,106.25,8|0,3:0|0:0,0:0:0:0:
285,234,69587,6,0,P|347:225|400:351,1,212.5,0|0,1:0|0:0,0:0:0:0:
472,373,69939,2,0,P|433:323|515:214,1,212.5,0|0,1:0|0:0,0:0:0:0:
509,141,70290,1,4,3:0:0:0:
386,44,70525,6,0,B|344:59|310:39|310:39|264:34|242:56|242:56|171:16|100:52,1,297.5,6|2,1:2|0:0,0:0:0:0:
50,103,71462,1,2,1:2:0:0:
15,237,72165,1,2,0:0:0:0:
15,237,72400,6,0,B|52:224|52:224|100:245|100:245|144:245,2,127.5,2|2|2,0:0|0:0|0:0,0:0:0:0:
150,341,73337,2,0,L|236:334,1,85,2|0,1:2|0:0,0:0:0:0:
311,351,73689,1,0,1:0:0:0:
311,351,73806,2,0,P|350:346|410:353,1,85,4|4,3:0|3:0,0:0:0:0:
496,287,74275,6,0,P|449:241|444:138,1,170,6|0,3:2|1:0,0:0:0:0:
473,74,74626,1,4,3:0:0:0:
497,4,74743,2,0,P|457:15|378:3,1,85,0|0,1:0|0:0,0:0:0:0:
247,8,74978,1,0,1:0:0:0:
291,70,75095,1,0,1:0:0:0:
285,145,75212,6,0,L|275:246,1,85,6|0,3:0|0:0,0:0:0:0:
124,132,75446,1,0,1:0:0:0:
130,207,75564,2,0,L|140:308,1,85,4|0,3:0|0:0,0:0:0:0:
303,63,75798,1,0,1:0:0:0:
297,138,75915,2,0,L|287:239,1,85,4|0,3:0|0:0,0:0:0:0:
154,308,76150,6,0,B|113:305|113:305|69:327|69:327|-9:318,1,127.500004863739,6|0,1:2|0:0,0:0:0:0:
358,308,76384,2,0,B|399:305|399:305|443:327|443:327|521:318,1,127.500004863739,6|0,1:2|0:0,0:0:0:0:
158,227,76618,2,0,B|117:224|117:224|73:246|73:246|-5:237,1,127.500004863739,6|0,1:2|0:0,0:0:0:0:
337,156,76853,1,6,1:2:0:0:
362,227,76970,2,0,B|403:224|403:224|447:246|447:246|525:237,1,127.500004863739,6|0,1:2|0:0,0:0:0:0:
256,16,77204,5,6,1:2:0:0:
256,104,77321,1,6,1:2:0:0:
256,192,77439,1,6,1:2:0:0:
256,280,77556,1,6,1:2:0:0:
30,25,77790,5,0,1:0:0:0:
85,78,77907,1,0,1:0:0:0:
98,152,78025,6,0,P|101:216|46:321,1,170,2|0,3:0|1:0,0:0:0:0:
10,371,78376,1,0,1:0:0:0:
87,382,78493,2,0,P|139:342|257:349,1,170,4|0,3:0|1:0,0:0:0:0:
308,368,78845,1,0,1:0:0:0:
377,338,78962,6,0,L|398:252,1,85,4|0,3:0|0:0,0:0:0:0:
504,165,79196,1,0,1:0:0:0:
504,165,79314,2,0,P|437:182|336:123,1,170,4|4,3:0|3:0,0:0:0:0:
293,0,79665,2,0,P|304:41|290:91,1,85,8|0,0:0|0:0,0:0:0:0:
88,98,79900,6,0,L|102:6,1,85,6|0,3:0|0:0,0:0:0:0:
214,174,80134,2,0,L|226:258,1,85,0|0,1:0|0:0,0:0:0:0:
78,94,80368,2,0,L|92:2,1,85,4|0,3:0|0:0,0:0:0:0:
204,170,80603,2,0,L|216:254,1,85,0|0,1:0|0:0,0:0:0:0:
463,131,80837,6,0,P|418:152|382:193,1,85,0|0,1:0|1:0,0:0:0:0:
500,243,81071,1,0,1:0:0:0:
500,243,81189,2,0,P|434:218|325:286,1,170,4|4,3:0|3:0,0:0:0:0:
289,331,81540,1,0,1:0:0:0:
212,329,81657,1,0,1:0:0:0:
149,372,81775,6,0,P|171:283|146:207,1,170,6|0,3:0|1:0,0:0:0:0:
89,167,82126,1,0,1:0:0:0:
9,157,82243,2,0,P|108:135|160:46,1,170,4|0,3:0|1:0,0:0:0:0:
184,15,82595,1,0,1:0:0:0:
257,45,82712,6,0,L|350:41,1,85,4|4,3:0|3:0,0:0:0:0:
452,0,82946,1,0,1:0:0:0:
452,0,83064,2,0,P|421:55|428:163,1,170,4|4,3:0|3:0,0:0:0:0:
495,225,83415,2,0,P|442:243|415:276,1,85,8|0,0:0|0:0,0:0:0:0:
181,201,83650,6,0,L|166:110,1,85,6|0,1:2|0:0,0:0:0:0:
331,201,83884,2,0,L|346:110,1,85,6|0,1:2|0:0,0:0:0:0:
91,298,84118,2,0,L|76:207,1,85,6|0,1:2|0:0,0:0:0:0:
421,298,84353,2,0,L|436:207,1,85,6|0,1:2|0:0,0:0:0:0:
169,216,84587,6,0,B|166:175|166:175|188:131|188:131|179:53,1,127.500004863739,6|0,1:2|0:0,0:0:0:0:
343,216,84821,2,0,B|346:175|346:175|324:131|324:131|333:53,1,127.500004863739,6|0,1:2|0:0,0:0:0:0:
73,310,85056,6,0,B|70:269|70:269|92:225|92:225|83:147,1,127.500004863739,6|0,1:2|0:0,0:0:0:0:
439,310,85290,2,0,B|442:269|442:269|420:225|420:225|429:147,1,127.500004863739,6|0,1:2|0:0,0:0:0:0:
256,0,85525,6,0,B|201:89|254:192|254:192|213:279|282:335|282:335|367:295|359:212,1,510,6|0,1:2|0:0,0:0:0:0:
320,155,87400,1,14,1:2:0:0:
