osu file format v14

[General]
AudioFilename: audio.mp3
AudioLeadIn: 0
PreviewTime: 53100
Countdown: 0
SampleSet: Soft
StackLeniency: 0.7
Mode: 0
LetterboxInBreaks: 0
WidescreenStoryboard: 1

[Editor]
Bookmarks: 9213,10150,11088
DistanceSpacing: 1
BeatDivisor: 4
GridSize: 32
TimelineZoom: 1.5

[Metadata]
Title:Hitoribocchi no Monologue (TV Size)
TitleUnicode:ひとりぼっちのモノローグ (TV Size)
Artist:Morishita Chisaki, Tanaka Minami, Kito Akari, Kurose Yuuko
ArtistUnicode:森下千咲, 田中美海, 鬼頭明里, 黒瀬ゆうこ
Creator:Yukiyo
Version:A New Friend!
Source:ひとりぼっちの○○生活
Tags:hitoribocchi no marumaru seikatsu op opening kowari amity airincat atalanta japanese pop deviouspanda anime Bocchi Hitori 一里 ぼっち Nako Sunao 本庄 アル Aru Honshou Sotca Luckythar ソトカ・ラキター CV: 砂尾 なこ
BeatmapID:1989355
BeatmapSetID:952742

[Difficulty]
HPDrainRate:5.7
CircleSize:3.8
OverallDifficulty:8.6
ApproachRate:9.4
SliderMultiplier:1.25
SliderTickRate:1

[Events]
//Background and Video events
Video,-700,"vicb7g.mp4"
0,0,"kRGZxDb.jpg",0,0
//Break Periods
//Storyboard Layer 0 (Background)
//Storyboard Layer 1 (Fail)
//Storyboard Layer 2 (Pass)
//Storyboard Layer 3 (Foreground)
//Storyboard Sound Samples

[TimingPoints]
600,234.375,4,2,1,60,1,0
600,-166.666666666667,4,2,1,60,0,0
3412,-111.111111111111,4,2,1,70,0,0
8100,-83.3333333333333,4,2,1,80,0,0
11850,-76.9230769230769,4,2,1,80,0,0
13725,-55.5555555555556,4,2,1,80,0,0
14662,-71.4285714285714,4,2,1,80,0,0
23100,-125,4,2,1,60,0,0
25912,-76.9230769230769,4,2,1,80,0,0
26850,-83.3333333333333,4,2,1,80,0,0
30600,-100,4,2,1,70,0,0
33881,-83.3333333333333,4,2,1,80,0,0
34350,-76.9230769230769,4,2,1,80,0,0
38100,-83.3333333333333,4,2,1,65,0,0
43139,-83.3333333333333,4,2,1,65,0,0
45600,-71.4285714285714,4,2,1,80,0,0
49350,-80.6451612903226,4,2,1,70,0,0
52162,-62.5,4,2,1,75,0,0
53100,-333.333333333333,4,2,1,80,0,0
53451,-333.333333333333,4,2,1,5,0,0
53568,-333.333333333333,4,2,1,80,0,0
53803,-333.333333333333,4,2,1,5,0,0
53920,-333.333333333333,4,2,1,80,0,0
54037,-50,4,2,1,80,0,0
54506,-43.4782608695652,4,2,1,80,0,0
54975,-55.5555555555556,4,2,1,100,0,1
69037,-83.3333333333333,4,2,1,100,0,1
69975,-81.0810810813002,4,2,1,60,0,0
71850,-96.7741935486993,4,2,1,60,0,0
74662,-75.0000000001875,4,2,1,60,0,0
75600,-55.5555555555556,4,2,1,100,0,1
77475,-83.3333333333333,4,2,1,80,0,0
80639,-83.3333333333333,4,2,1,80,0,0
81225,-71.4285714285714,4,2,1,100,0,0
83100,-50,4,2,1,100,0,0
84975,-173.076923076923,4,2,1,75,0,0

[Colours]
Combo1 : 111,175,255
Combo2 : 255,149,149

[HitObjects]
91,97,600,6,0,L|101:209,1,112.499996566773,2|2,0:2|0:2,0:2:0:0:
234,293,1303,1,2,0:2:0:0:
123,298,1537,5,2,0:2:0:0:
289,380,1889,1,2,0:2:0:0:
278,196,2240,1,2,0:2:0:0:
234,293,2475,6,0,L|374:278,1,112.499996566773,2|2,0:2|0:2,0:2:0:0:
491,157,3178,1,2,0:2:0:0:
487,208,3295,1,2,0:2:0:0:
481,255,3412,2,0,P|458:241|430:237,1,56.2499982833863,2|0,0:2|0:2,0:2:0:0:
359,314,3646,2,0,P|336:328|308:333,1,56.2499982833863,2|0,0:2|0:2,0:2:0:0:
83,277,3881,2,0,P|106:291|134:295,1,56.2499982833863,2|0,0:2|0:2,0:2:0:0:
204,218,4115,2,0,P|228:203|256:199,1,56.2499982833863,2|0,0:2|0:2,0:2:0:0:
429,236,4350,5,6,0:2:0:0:
406,81,4584,1,2,0:2:0:0:
369,65,4701,1,2,0:2:0:0:
327,69,4818,1,2,0:2:0:0:
283,245,5053,1,2,0:2:0:0:
292,226,5170,1,2,0:2:0:0:
293,206,5287,1,2,0:2:0:0:
118,238,5521,1,2,0:2:0:0:
128,283,5639,1,2,0:2:0:0:
165,310,5756,1,2,0:2:0:0:
239,108,5990,5,2,0:2:0:0:
251,66,6107,1,2,0:2:0:0:
263,19,6225,2,0,P|315:37|371:36,1,112.499996566773,2|0,0:2|0:2,0:2:0:0:
325,142,6576,2,0,P|353:190|364:244,1,112.499996566773,2|0,2:2|2:2,2:2:0:0:
285,301,6928,2,0,P|281:328|271:355,1,56.2499982833863,2|0,0:2|0:2,0:2:0:0:
26,310,7162,6,0,P|76:285|132:288,1,112.499996566773,2|0,0:2|0:2,0:2:0:0:
128,132,7514,2,0,P|177:159|207:207,1,112.499996566773,2|0,0:2|0:2,0:2:0:0:
244,18,7865,2,0,P|255:43|256:71,1,56.2499982833863,2|0,0:2|0:2,0:2:0:0:
312,256,8100,6,0,P|315:218|326:182,1,74.9999977111817,0|0,3:2|0:2,0:2:0:0:
377,57,8334,2,0,P|407:78|433:106,1,74.9999977111817,8|0,0:2|0:2,0:2:0:0:
510,214,8568,2,0,P|475:229|439:238,1,74.9999977111817,0|0,3:2|0:2,0:2:0:0:
301,163,8803,1,8,0:2:0:0:
221,134,8920,1,8,0:3:0:0:
145,166,9037,1,0,3:2:0:0:
123,245,9154,1,2,0:3:0:0:
178,306,9271,1,8,0:2:0:0:
260,311,9389,1,4,0:3:0:0:
313,248,9506,1,0,3:2:0:0:
301,163,9623,1,8,0:3:0:0:
221,134,9740,6,0,L|204:35,1,74.9999977111817,8|0,0:2|0:2,0:2:0:0:
59,7,9975,2,0,L|46:80,1,74.9999977111817,0|0,3:2|0:2,0:2:0:0:
180,225,10209,2,0,L|193:143,1,74.9999977111817,8|0,0:2|0:2,0:2:0:0:
34,222,10443,2,0,L|45:296,1,74.9999977111817,0|0,3:2|0:2,0:2:0:0:
167,358,10678,5,8,0:2:0:0:
248,346,10795,1,2,0:3:0:0:
303,285,10912,1,0,3:2:0:0:
292,203,11029,1,4,0:3:0:0:
216,170,11146,1,8,0:2:0:0:
190,90,11264,1,8,0:3:0:0:
227,16,11381,1,0,3:2:0:0:
308,8,11498,1,8,0:3:0:0:
281,94,11615,5,8,0:2:0:0:
190,90,11732,1,8,0:2:0:0:
98,86,11850,6,0,L|119:247,1,162.499992561341,4|8,3:2|0:0,0:2:0:0:
0,373,12201,1,0,0:2:0:0:
0,373,12318,2,0,L|21:211,1,162.499992561341,0|8,3:2|0:0,0:2:0:0:
202,192,12670,1,4,0:3:0:0:
202,192,12787,2,0,P|212:274|145:349,1,162.499992561341,8|8,3:3|0:0,0:2:0:0:
21,211,13139,2,0,L|102:221,1,81.2499962806703,4|8,0:3|3:3,0:2:0:0:
263,95,13373,1,0,0:2:0:0:
263,95,13490,2,0,L|167:106,1,81.2499962806703,8|0,0:2|0:2,0:2:0:0:
199,328,13725,6,0,P|220:276|213:221,1,112.499996566773,10|0,3:2|0:2,0:2:0:0:
387,333,13959,2,0,P|357:285|308:260,1,112.499996566773,10|0,3:2|0:2,0:2:0:0:
508,184,14193,2,0,P|452:181|403:206,1,112.499996566773,10|0,3:2|0:2,0:2:0:0:
437,0,14428,2,0,P|402:43|395:98,1,112.499996566773,10|0,3:2|0:2,0:2:0:0:
51,60,14662,6,0,P|94:65|133:46,1,87.499997329712,2|0,3:2|0:2,0:2:0:0:
293,53,14896,1,8,0:2:0:0:
282,103,15014,1,8,0:2:0:0:
268,151,15131,2,0,P|225:155|186:136,1,87.499997329712,2|0,3:2|0:2,0:2:0:0:
35,153,15365,1,8,0:2:0:0:
46,203,15483,1,8,0:2:0:0:
60,250,15600,6,0,P|138:280|153:363,1,174.999994659424,2|8,3:2|0:2,0:2:0:0:
254,127,15951,2,0,P|189:179|110:151,1,174.999994659424,2|0,3:2|3:2,2:2:0:0:
245,317,16303,2,0,P|246:274|271:239,1,87.499997329712,10|0,0:2|0:2,0:2:0:0:
502,285,16537,6,0,L|327:301,1,174.999994659424,2|8,3:2|0:2,0:2:0:0:
196,190,16889,2,0,L|370:206,1,174.999994659424,2|0,3:2|3:2,0:2:0:0:
432,102,17240,2,0,L|344:110,1,87.499997329712,10|0,0:2|0:2,0:2:0:0:
125,30,17475,6,0,P|209:32|256:102,1,174.999994659424,2|8,3:2|0:2,0:2:0:0:
175,276,17826,2,0,P|205:197|158:128,1,174.999994659424,2|0,3:2|3:2,0:2:0:0:
24,195,18178,1,10,0:2:0:0:
71,202,18295,1,2,0:2:0:0:
113,210,18412,2,0,L|81:312,1,87.499997329712,2|0,3:2|0:2,0:2:0:0:
210,384,18646,2,0,L|169:305,1,87.499997329712,10|0,0:2|3:2,0:2:0:0:
321,233,18881,2,0,L|251:285,1,87.499997329712,2|0,0:2|3:2,0:2:0:0:
419,354,19115,2,0,L|328:323,1,87.499997329712,10|0,0:2|0:2,0:2:0:0:
253,165,19350,6,0,P|333:137|403:186,1,174.999994659424,2|8,3:2|0:2,0:2:0:0:
485,112,19701,1,0,0:2:0:0:
485,112,19818,2,0,P|405:84|335:133,1,174.999994659424,2|8,0:3|0:2,0:2:0:0:
257,45,20170,1,0,0:2:0:0:
257,45,20287,2,0,P|336:18|406:66,1,174.999994659424,4|8,0:3|0:2,0:2:0:0:
381,196,20639,1,0,0:2:0:0:
381,196,20756,2,0,P|301:223|231:174,1,174.999994659424,8|8,0:3|0:2,0:2:0:0:
129,37,21107,5,0,0:2:0:0:
129,37,21225,2,0,L|111:122,1,87.499997329712,2|0,3:2|0:2,0:2:0:0:
35,273,21459,1,8,0:2:0:0:
35,273,21576,2,0,L|17:187,1,87.499997329712,0|0,3:2|0:2,0:2:0:0:
184,155,21810,1,0,3:2:0:0:
233,216,21928,1,8,0:2:0:0:
223,293,22045,1,0,0:2:0:0:
171,351,22162,6,0,P|127:354|87:337,1,87.499997329712,2|0,3:2|0:2,0:2:0:0:
314,272,22396,1,8,0:2:0:0:
314,272,22514,2,0,P|357:274|397:257,1,87.499997329712,2|4,0:3|0:3,0:2:0:0:
512,63,22865,2,0,P|468:65|428:48,1,87.499997329712,4|8,0:3|0:3,0:2:0:0:
220,46,23100,5,2,3:2:0:0:
256,41,23217,1,2,0:2:0:0:
294,55,23334,1,2,0:2:0:0:
312,85,23451,1,2,0:2:0:0:
278,164,23568,5,2,0:2:0:0:
242,169,23685,1,2,0:2:0:0:
204,155,23802,1,2,0:2:0:0:
186,125,23919,1,2,0:2:0:0:
151,38,24037,6,0,L|71:26,1,50,2|0,0:2|0:2,0:2:0:0:
7,124,24271,1,2,3:2:0:0:
7,124,24740,2,0,L|19:214,1,50,12|0,0:2|0:2,0:2:0:0:
135,356,24975,5,2,3:2:0:0:
150,329,25092,1,2,0:2:0:0:
157,300,25209,2,0,P|156:275|148:251,1,50,2|0,0:2|0:2,0:2:0:0:
117,137,25443,5,2,0:2:0:0:
111,114,25560,1,2,0:2:0:0:
185,86,25678,5,2,0:2:0:0:
191,56,25795,1,2,0:2:0:0:
256,14,25912,6,0,L|336:23,1,81.2499962806703,2|0,3:2|0:2,0:2:0:0:
494,88,26146,2,0,L|413:97,1,81.2499962806703,2|0,3:2|0:2,0:2:0:0:
261,305,26381,5,2,3:2:0:0:
261,305,26615,2,0,L|276:192,1,81.2499962806703,8|0,0:2|0:2,0:2:0:0:
503,263,26850,6,0,P|430:279|360:255,1,149.999995422363,4|10,3:2|0:2,0:2:0:0:
294,186,27201,1,2,3:2:0:0:
294,186,27318,2,0,P|258:174|221:172,1,74.9999977111817,2|0,0:2|3:2,0:2:0:0:
105,279,27553,2,0,P|136:258|172:247,1,74.9999977111817,10|0,0:2|0:2,0:2:0:0:
374,260,27787,2,0,P|405:193|389:121,1,149.999995422363,2|10,3:2|0:2,0:2:0:0:
264,25,28139,2,0,P|247:96|279:163,1,149.999995422363,2|0,3:2|3:2,0:2:0:0:
449,201,28490,5,10,0:2:0:0:
448,201,28725,2,0,P|477:177|497:145,1,74.9999977111817,2|0,3:2|0:2,0:2:0:0:
265,27,28959,2,0,P|297:47|321:76,1,74.9999977111817,10|0,0:2|3:2,0:2:0:0:
410,111,29193,2,0,P|414:73|406:37,1,74.9999977111817,2|0,0:2|3:2,0:2:0:0:
159,122,29428,2,0,P|195:114|233:118,1,74.9999977111817,10|0,0:2|0:2,0:2:0:0:
278,267,29662,6,0,P|288:303|287:341,1,74.9999977111817,2|0,3:2|0:2,0:2:0:0:
105,306,29896,2,0,P|72:323|35:328,1,74.9999977111817,10|0,0:2|3:2,0:2:0:0:
301,177,30131,2,0,P|333:195|359:223,1,74.9999977111817,2|0,0:2|3:2,0:2:0:0:
198,314,30365,1,10,0:0:0:0:
105,306,30482,1,8,0:0:0:0:
39,239,30600,5,0,3:2:0:0:
184,143,30951,1,8,0:2:0:0:
29,66,31303,1,2,0:3:0:0:
127,231,31654,1,4,0:3:0:0:
127,231,31771,1,8,0:3:0:0:
127,59,32006,6,0,L|215:52,1,62.5,8|0,0:2|0:2,0:2:0:0:
301,192,32240,2,0,L|213:185,1,62.5,8|0,0:2|0:2,0:2:0:0:
359,34,32475,5,0,3:2:0:0:
489,155,32709,1,0,3:2:0:0:
489,155,32826,1,8,0:2:0:0:
319,207,33061,1,0,3:2:0:0:
319,207,33178,1,8,0:2:0:0:
505,260,33412,6,0,L|443:246,1,62.5,2|0,0:2|0:2,0:2:0:0:
269,323,33646,2,0,L|330:309,1,62.5,2|0,0:2|0:2,0:2:0:0:
296,149,33881,2,0,P|227:123|159:151,1,149.999995422363,12|8,0:2|0:2,0:2:0:0:
38,250,34232,1,8,0:2:0:0:
38,250,34350,6,0,L|31:169,1,81.2499962806703,4|0,3:2|0:2,0:2:0:0:
76,18,34584,1,8,0:2:0:0:
150,58,34701,1,0,3:2:0:0:
239,48,34818,2,0,P|274:30|314:27,1,81.2499962806703,0|0,0:2|3:2,0:2:0:0:
473,162,35053,2,0,P|443:134|405:121,1,81.2499962806703,8|0,0:2|0:2,0:2:0:0:
257,319,35287,6,0,P|297:317|334:302,1,81.2499962806703,0|0,3:2|0:2,0:2:0:0:
208,159,35521,1,8,0:2:0:0:
208,159,35639,2,0,P|188:194|183:234,1,81.2499962806703,0|0,3:2|0:2,0:2:0:0:
383,194,35873,1,0,3:2:0:0:
383,194,35990,2,0,P|361:159|329:135,1,81.2499962806703,8|0,0:2|0:2,0:2:0:0:
172,270,36225,6,0,P|132:280|92:282,1,81.2499962806703,0|0,3:2|0:2,0:2:0:0:
0,139,36459,2,0,P|39:145|77:161,1,81.2499962806703,8|0,0:2|3:2,0:2:0:0:
176,369,36693,5,0,0:2:0:0:
255,320,36810,1,0,3:2:0:0:
344,315,36928,1,8,0:2:0:0:
419,361,37045,1,0,0:2:0:0:
497,319,37162,6,0,L|486:238,1,81.2499962806703,0|0,3:2|0:2,0:2:0:0:
329,151,37396,1,8,0:2:0:0:
329,151,37514,2,0,L|318:231,1,81.2499962806703,0|0,3:2|0:2,0:2:0:0:
512,112,37748,1,0,3:2:0:0:
512,112,37865,2,0,L|501:31,1,81.2499962806703,8|4,0:2|0:3,0:2:0:0:
271,0,38100,5,4,3:2:0:0:
271,0,38334,6,0,L|279:47,1,37.4999988555909,8|8,0:0|0:0,0:0:0:0:
143,106,38685,2,0,L|151:153,1,37.4999988555909,4|4,0:3|0:3,0:3:0:0:
10,199,39037,2,0,L|18:246,1,37.4999988555909,8|8,0:3|0:3,0:0:0:0:
85,352,39389,1,4,0:3:0:0:
201,239,39740,1,8,0:3:0:0:
109,261,39975,5,0,3:2:0:0:
268,356,40209,2,0,L|259:306,1,37.4999988555909,8|8,0:2|0:2,0:2:0:0:
419,313,40560,2,0,L|382:277,1,37.4999988555909,2|2,0:3|0:3,0:2:0:0:
511,202,40912,2,0,L|460:193,1,37.4999988555909,4|4,0:3|0:3,0:2:0:0:
421,38,41264,1,4,0:3:0:0:
312,147,41615,1,8,0:3:0:0:
401,132,41850,5,4,3:2:0:0:
282,238,42084,2,0,L|245:231,1,37.4999988555909,8|8,0:2|0:2,0:2:0:0:
171,297,42435,2,0,L|155:262,1,37.4999988555909,4|4,0:3|0:3,0:2:0:0:
54,259,42787,2,0,L|72:226,1,37.4999988555909,2|2,0:3|0:3,0:2:0:0:
158,95,43021,1,4,0:3:0:0:
158,95,43139,2,0,P|86:119|1:88,1,149.999995422363,8|0,0:3|0:2,0:2:0:0:
114,5,43490,2,0,P|151:-3|188:0,1,74.9999977111817,8|0,0:2|0:2,0:2:0:0:
281,118,43725,5,0,3:2:0:0:
422,58,43959,2,0,L|394:118,1,37.4999988555909,8|8,0:2|0:2,0:2:0:0:
512,193,44310,2,0,L|446:184,1,37.4999988555909,2|2,0:3|0:3,0:2:0:0:
440,328,44662,5,4,0:3:0:0:
267,340,45014,1,8,0:3:0:0:
150,230,45365,1,10,0:2:0:0:
163,221,45482,2,0,P|159:200|148:179,1,37.4999988555909,2|2,0:2|0:2,0:2:0:0:
174,218,45600,6,0,P|180:136|114:63,1,174.999994659424,0|2,3:2|0:2,0:2:0:0:
115,79,45912,1,2,0:2:0:0:
109,91,45990,1,2,0:2:0:0:
103,104,46068,2,0,P|188:102|253:45,1,174.999994659424,10|0,0:2|0:2,0:2:0:0:
358,26,46420,5,2,0:2:0:0:
358,26,46537,2,0,L|332:228,1,174.999994659424,2|2,3:2|0:2,0:2:0:0:
346,195,46850,1,2,0:2:0:0:
357,191,46928,1,2,0:2:0:0:
367,186,47006,2,0,L|333:377,1,174.999994659424,10|0,0:2|0:2,0:2:0:0:
55,308,47475,6,0,P|139:295|212:341,1,174.999994659424,2|0,3:2|0:2,0:2:0:0:
142,96,47826,2,0,P|110:175|34:215,1,174.999994659424,2|0,0:2|0:2,0:2:0:0:
243,244,48178,2,0,P|224:205|225:162,1,87.499997329712,10|0,0:2|0:2,0:2:0:0:
299,46,48412,6,0,P|389:51|485:128,1,174.999994659424,2|0,3:2|0:2,0:2:0:0:
403,230,48764,1,0,0:2:0:0:
403,229,48881,2,0,P|317:217|247:166,1,174.999994659424,10|0,0:2|0:2,0:2:0:0:
141,26,49232,5,0,0:2:0:0:
141,26,49350,2,0,B|109:143|137:254|282:178|311:400|134:523|19:291|156:273,1,541.666677686903,8|0,0:2|0:2,0:2:0:0:
305,279,50287,5,8,0:2:0:0:
305,279,50404,2,0,P|363:296|419:283,1,77.4999969253541,8|0,0:2|0:2,0:2:0:0:
508,173,50639,2,0,P|431:166|363:201,1,154.999993850708,8|4,0:2|0:3,0:2:0:0:
386,85,50990,2,0,L|399:3,1,77.4999969253541,8|0,0:3|0:2,0:2:0:0:
242,71,51225,5,10,0:2:0:0:
237,100,51342,1,2,0:2:0:0:
280,124,51459,1,2,0:2:0:0:
330,70,51576,1,10,0:2:0:0:
298,7,51693,1,2,0:2:0:0:
207,1,51810,1,2,0:2:0:0:
146,62,51928,1,10,0:2:0:0:
150,147,52045,1,2,0:2:0:0:
214,200,52162,6,0,P|243:241|257:289,1,100,0|0,3:2|0:2,0:2:0:0:
50,371,52396,2,0,P|71:326|106:290,1,100,0|0,3:2|0:2,0:2:0:0:
322,218,52631,1,8,0:2:0:0:
405,250,52748,1,8,0:2:0:0:
485,209,52865,1,8,0:2:0:0:
503,121,52982,1,8,0:2:0:0:
503,121,53100,6,0,L|432:132,1,56.2499982833863,2|0,0:2|0:2,0:2:0:0:
370,99,53568,2,0,L|406:105,1,37.4999988555909,2|0,0:2|0:2,0:2:0:0:
388,1,53920,5,2,0:2:0:0:
388,1,54037,2,0,P|326:6|269:31,1,125,10|0,0:2|0:2,0:2:0:0:
132,140,54271,2,0,P|69:138|11:117,1,125,10|0,0:2|0:2,0:2:0:0:
75,289,54506,6,0,P|142:265|213:271,1,143.750002741814,10|0,0:2|0:2,0:2:0:0:
365,352,54740,2,0,P|431:377|502:373,1,143.750002741814,10|0,0:2|0:2,0:2:0:0:
464,132,54975,6,0,P|434:178|434:233,1,112.499996566773,6|0,1:2|0:2,0:2:0:0:
203,69,55209,1,8,0:2:0:0:
284,101,55326,2,0,P|339:104|387:76,1,112.499996566773,2|0,3:2|0:2,0:2:0:0:
367,360,55560,1,0,3:2:0:0:
344,268,55678,2,0,P|318:218|271:190,1,112.499996566773,10|0,0:2|0:2,0:2:0:0:
46,332,55912,6,0,P|156:340|254:288,1,224.999993133545,2|8,3:2|0:2,0:2:0:0:
208,63,56264,2,0,P|97:54|0:106,1,224.999993133545,2|0,3:2|3:2,0:2:0:0:
312,216,56615,2,0,P|307:160|283:109,1,112.499996566773,10|0,0:2|0:2,0:2:0:0:
92,197,56850,6,0,L|204:187,1,112.499996566773,2|0,3:2|0:2,0:2:0:0:
473,164,57084,1,8,0:2:0:0:
410,86,57201,2,0,L|185:65,1,224.999993133545,2|0,3:2|3:2,0:2:0:0:
0,207,57553,5,10,0:2:0:0:
57,282,57670,1,2,0:2:0:0:
153,286,57787,2,0,P|198:253|252:241,1,112.499996566773,2|0,3:2|0:2,0:2:0:0:
444,356,58021,2,0,P|388:357|336:335,1,112.499996566773,10|0,0:2|3:2,0:2:0:0:
403,103,58256,2,0,B|424:163|424:163|414:210,1,112.499996566773,2|0,0:2|3:2,0:2:0:0:
161,117,58490,2,0,B|151:69|151:69|172:9,1,112.499996566773,10|0,0:2|0:2,0:2:0:0:
497,12,58725,5,2,3:2:0:0:
497,12,58959,5,10,0:2:0:0:
409,46,59076,1,2,3:2:0:0:
317,82,59193,1,2,3:2:0:0:
317,82,59428,5,10,0:2:0:0:
389,102,59545,1,2,3:2:0:0:
469,124,59662,1,2,3:2:0:0:
469,124,59896,5,10,0:2:0:0:
364,147,60013,1,2,3:2:0:0:
263,171,60130,1,2,3:2:0:0:
263,171,60365,5,10,0:2:0:0:
339,183,60482,1,2,3:2:0:0:
418,197,60600,2,0,L|398:307,1,112.499996566773,2|0,3:2|0:2,0:2:0:0:
151,316,60834,1,8,0:2:0:0:
234,272,60951,2,0,L|214:161,1,112.499996566773,2|0,3:2|0:2,0:2:0:0:
416,17,61185,1,0,3:2:0:0:
316,0,61303,2,0,L|296:110,1,112.499996566773,10|0,0:2|0:2,0:2:0:0:
398,241,61537,6,0,P|450:260|505:254,1,112.499996566773,10|0,3:2|0:2,0:2:0:0:
240,40,61771,2,0,P|187:20|132:26,1,112.499996566773,10|0,0:2|0:2,0:2:0:0:
21,323,62006,5,10,0:2:0:0:
103,359,62123,1,8,0:2:0:0:
188,329,62240,1,10,0:2:0:0:
246,261,62357,1,8,0:2:0:0:
242,168,62475,6,0,P|133:193|26:161,1,224.999993133545,2|8,1:2|0:2,0:2:0:0:
456,11,62826,2,0,P|373:85|337:191,1,224.999993133545,2|0,3:2|3:2,0:2:0:0:
300,369,63178,2,0,P|294:313|270:262,1,112.499996566773,10|0,0:2|0:2,0:2:0:0:
35,178,63412,6,0,P|83:207|139:214,1,112.499996566773,2|0,3:2|0:2,0:2:0:0:
267,163,63646,1,8,0:2:0:0:
176,97,63764,2,0,P|220:63|275:51,1,112.499996566773,2|0,3:2|0:2,0:2:0:0:
376,291,63998,1,0,3:2:0:0:
467,225,64116,2,0,P|422:191|367:179,1,112.499996566773,10|0,0:2|0:2,0:2:0:0:
85,290,64350,6,0,B|199:310|199:310|291:252,1,224.999993133545,2|8,3:2|0:2,0:2:0:0:
494,122,64701,2,0,B|427:27|427:27|321:2,1,224.999993133545,2|0,3:2|3:2,0:2:0:0:
71,90,65053,1,10,0:2:0:0:
146,139,65170,1,2,0:2:0:0:
227,100,65287,6,0,L|250:-12,1,112.499996566773,2|2,3:2|3:2,0:2:0:0:
393,209,65521,2,0,L|370:97,1,112.499996566773,10|0,0:2|3:2,0:2:0:0:
120,267,65756,2,0,L|143:155,1,112.499996566773,2|0,0:2|3:2,0:2:0:0:
286,376,65990,2,0,L|263:264,1,112.499996566773,10|0,0:2|0:2,0:2:0:0:
15,12,66225,5,2,3:2:0:0:
15,12,66459,5,10,0:2:0:0:
105,44,66576,1,2,3:2:0:0:
191,72,66693,1,2,3:2:0:0:
191,72,66928,5,10,0:2:0:0:
114,91,67045,1,2,3:2:0:0:
41,109,67162,1,2,3:2:0:0:
41,109,67396,5,10,3:2:0:0:
134,139,67513,1,2,3:2:0:0:
228,163,67630,1,2,3:2:0:0:
228,163,67865,5,10,0:2:0:0:
151,186,67982,1,2,3:2:0:0:
76,211,68100,2,0,L|96:321,1,112.499996566773,2|0,3:2|0:2,0:2:0:0:
357,229,68334,1,8,0:2:0:0:
357,229,68451,2,0,L|377:119,1,112.499996566773,2|0,3:2|0:2,0:2:0:0:
151,31,68685,1,0,3:2:0:0:
151,31,68803,2,0,L|171:141,1,112.499996566773,10|0,0:2|0:2,0:2:0:0:
163,350,69037,6,0,P|212:296|285:289,1,149.999995422363,2|0,0:3|0:2,0:2:0:0:
11,179,69389,2,0,P|84:185|133:239,1,149.999995422363,4|0,0:3|0:2,0:2:0:0:
75,14,69740,2,0,P|88:48|90:86,1,74.9999977111817,8|0,0:3|0:2,0:2:0:0:
512,139,69975,6,0,B|395:171|284:143|360:-2|138:-31|15:146|247:261|265:126,1,539.583356661268,2|0,3:2|0:2,0:2:0:0:
258,147,70912,5,8,0:2:0:0:
359,0,71615,1,2,3:2:0:0:
431,46,71850,6,0,P|386:90|366:151,1,129.16666765213,2|0,3:2|0:2,0:2:0:0:
455,208,72201,2,0,P|488:262|493:326,1,129.16666765213,2|0,3:2|0:2,0:2:0:0:
396,368,72553,2,0,L|285:338,1,64.5833338260651,10|0,0:2|0:2,0:2:0:0:
242,269,72787,5,8,0:2:0:0:
99,333,73021,1,0,3:2:0:0:
99,333,73139,1,8,0:2:0:0:
5,198,73373,1,0,3:2:0:0:
5,198,73490,1,8,0:2:0:0:
132,209,73725,6,0,L|150:81,1,129.16666765213,2|0,3:2|0:2,0:2:0:0:
227,22,74076,1,0,0:2:0:0:
227,22,74193,2,0,L|245:149,1,129.16666765213,8|10,0:2|0:2,0:2:0:0:
322,246,74545,5,10,0:2:0:0:
322,246,74662,2,0,P|361:259|402:261,1,83.3333333333333,2|0,3:2|0:2,0:2:0:0:
512,122,74896,1,8,0:2:0:0:
512,122,75013,2,0,P|471:132|437:155,1,83.3333333333333,8|2,0:2|3:2,0:2:0:0:
299,24,75248,1,2,0:3:0:0:
299,24,75365,2,0,P|340:34|374:57,1,83.3333333333333,4|8,0:3|0:3,0:2:0:0:
132,360,75600,6,0,P|78:343|40:303,1,112.499996566773,8|0,3:2|0:2,0:2:0:0:
309,248,75834,2,0,P|270:287|217:304,1,112.499996566773,8|0,0:2|0:2,0:2:0:0:
296,47,76068,2,0,P|306:101|289:154,1,112.499996566773,8|0,3:2|0:2,0:2:0:0:
21,152,76303,5,8,0:2:0:0:
87,73,76420,2,0,L|221:94,1,112.499996566773,8|0,0:2|3:2,0:2:0:0:
452,198,76654,5,8,0:2:0:0:
347,227,76771,1,8,0:2:0:0:
318,122,76889,1,8,0:2:0:0:
423,93,77006,1,8,3:2:0:0:
423,93,77240,5,8,0:2:0:0:
417,122,77357,1,8,0:2:0:0:
412,153,77475,2,0,P|399:227|406:302,1,149.999995422363,0|8,1:2|0:2,0:2:0:0:
273,374,77826,1,0,0:2:0:0:
273,374,77943,2,0,P|298:303|305:229,1,149.999995422363,0|8,3:2|0:2,0:2:0:0:
251,166,78295,1,2,0:3:0:0:
168,166,78412,1,0,3:2:0:0:
105,220,78529,1,4,0:3:0:0:
28,251,78646,1,8,0:2:0:0:
39,168,78764,6,0,L|53:94,1,74.9999977111817,8|0,0:3|3:2,0:2:0:0:
192,13,78998,1,4,0:3:0:0:
192,13,79115,2,0,L|206:86,1,74.9999977111817,8|0,0:2|0:2,0:2:0:0:
334,206,79350,6,0,P|367:224|404:232,1,74.9999977111817,0|0,3:2|0:2,0:2:0:0:
504,118,79584,2,0,P|471:100|434:92,1,74.9999977111817,8|0,0:2|0:2,0:2:0:0:
309,283,79818,6,0,P|277:304|242:315,1,74.9999977111817,0|0,3:2|0:2,0:2:0:0:
230,163,80052,2,0,P|262:142|298:132,1,74.9999977111817,8|2,0:2|0:3,0:2:0:0:
75,381,80287,6,0,P|38:371|5:353,1,74.9999977111817,0|4,3:2|0:3,0:2:0:0:
110,144,80521,1,8,2:2:0:0:
110,144,80639,2,0,L|61:319,1,149.999995422363,8|2,2:3|2:3,2:2:0:0:
173,248,80990,5,8,0:2:0:0:
259,229,81107,1,8,0:2:0:0:
326,289,81225,2,0,P|419:323|512:293,1,174.999994659424,0|8,3:2|0:2,0:2:0:0:
505,162,81576,1,2,0:3:0:0:
505,162,81693,2,0,P|427:128|343:148,1,174.999994659424,0|8,3:2|0:2,0:2:0:0:
254,209,82045,1,4,0:3:0:0:
254,209,82162,2,0,B|138:187|138:187|90:114,1,174.999994659424,0|8,3:2|0:2,0:2:0:0:
53,26,82514,2,0,B|169:48|169:48|217:121,1,174.999994659424,8|0,0:3|3:2,0:2:0:0:
42,210,82865,2,0,L|0:133,1,87.499997329712,8|0,0:2|0:2,0:2:0:0:
180,8,83100,6,0,L|344:-3,1,125,2|0,3:2|0:2,0:2:0:0:
475,96,83334,2,0,L|350:104,1,125,2|8,3:2|0:2,0:2:0:0:
42,126,83568,6,0,L|166:134,1,125,2|0,3:2|0:2,0:2:0:0:
340,244,83803,2,0,L|215:235,1,125,10|0,3:2|0:2,0:2:0:0:
231,371,84037,5,8,0:2:0:0:
236,347,84154,1,0,3:2:0:0:
306,279,84271,5,8,0:2:0:0:
301,255,84388,1,0,3:2:0:0:
222,184,84506,5,8,0:2:0:0:
227,160,84623,1,0,3:2:0:0:
294,62,84740,5,8,0:2:0:0:
289,38,84857,1,0,3:2:0:0:
132,328,84975,6,2,B|249:360|360:332|284:187|506:158|629:335|397:450|379:313,1,541.666677686903,2|0,3:2|0:2,0:1:0:0:
384,332,86850,5,6,0:2:0:0:
