osu file format v14

[General]
AudioFilename: audio.mp3
AudioLeadIn: 0
PreviewTime: 68620
Countdown: 0
SampleSet: Soft
StackLeniency: 0.2
Mode: 0
LetterboxInBreaks: 0
EpilepsyWarning: 1
WidescreenStoryboard: 1

[Editor]
Bookmarks: 18370,88262
DistanceSpacing: 1
BeatDivisor: 8
GridSize: 32
TimelineZoom: 3.559999

[Metadata]
Title:Hana no Youni
TitleUnicode:花のように
Artist:Morinaka Kazaki
ArtistUnicode:森中花咲
Creator:Yugu
Version:Mr. Bear
Source:
Tags:Vtuber Virtual YouTuber バーチャルYouTuber にじさんじ 2434 かずぺそ japanese pop -Eriri-
BeatmapID:1826637
BeatmapSetID:873905

[Difficulty]
HPDrainRate:5.4
CircleSize:4.2
OverallDifficulty:8.4
ApproachRate:9.2
SliderMultiplier:2
SliderTickRate:1

[Events]
//Background and Video events
0,0,"1238.png",0,0
//Break Periods
//Storyboard Layer 0 (Background)
//Storyboard Layer 1 (Fail)
//Storyboard Layer 2 (Pass)
//Storyboard Layer 3 (Foreground)
Sprite,Foreground,Centre,"SB\petal.png",320,240 M,0,107312,107462,305.1355,258.9935,267.1483,230.0903 M,0,107462,107612,267.1483,230.0903,225.0323,237.5226 S,0,107462,107612,0.5127741,0.6118707 R,0,107462,107612,-0.5780646,-0.7927747 M,0,107612,107762,225.0323,237.5226,187.8709,254.8644 F,0,107612,107762,1,0 S,0,107612,107762,0.6118707,0.4467093 R,0,107612,107762,-0.7927747,-1.205678
Sprite,Foreground,Centre,"SB\petal3.png",320,240 P,0,107312,,H M,0,107312,107462,309.2645,252.387,287.7936,237.5226 S,0,107312,107462,0.6201291,0.647656 F,0,107312,107612,1 M,0,107462,107612,287.7936,237.5226,259.7161,233.3935 S,0,107462,107612,0.647656,0.6297635 R,0,107462,107612,1.370839,0.7597418 M,0,107612,107762,259.7161,233.3935,235.7677,248.258 F,0,107612,107762,1,0 S,0,107612,107762,0.6297635,0.4797421 R,0,107612,107762,0.7597418,0.2972901
Sprite,Foreground,Centre,"SB\petal2.png",320,240 P,0,107312,,H M,0,107312,107462,309.2646,249.9096,271.2773,206.142 S,0,107312,107462,0.7109677,0.8678709 R,0,107312,107462,0,-0.04954864 M,0,107462,107612,271.2773,206.142,229.1613,197.058 S,0,107462,107612,0.8678709,0.9339355 R,0,107462,107612,-0.04954864,-0.5450327 M,0,107612,107762,229.1613,197.058,188.6968,211.0968 F,0,107612,107762,1,0 S,0,107612,107762,0.9339355,0.7274838 R,0,107612,107762,-0.5450327,-0.990968
Sprite,Foreground,Centre,"SB\petal2.png",320,240 P,0,117212,,H M,0,117212,117362,340.6451,449.7549,366.2451,464.6194 S,0,117212,117362,0.7357419,0.7852902 M,0,117362,117512,366.2451,464.6194,378.6323,490.2194 F,0,117362,117512,1,0.7027096 S,0,117362,117512,0.7852902,0.5210324 R,0,117362,117512,0.08258057,0.1981934
Sprite,Foreground,Centre,"SB\petal.png",320,240 M,0,117212,117362,340.6452,450.5807,367.071,442.3226 S,0,117212,117362,0.5292905,0.6201291 R,0,117212,117362,-1.007483,-0.7101929 M,0,117362,117512,367.071,442.3226,411.6646,453.8839 F,0,117362,117512,1,0 S,0,117362,117512,0.6201291,0.3971613 R,0,117362,117512,-0.7101929,-0.1651605
Sprite,Foreground,Centre,"SB\yugu.png",320,240 M,0,15970,,320,240 F,0,15970,18370,1
//Storyboard Sound Samples

[TimingPoints]
1693,428.571428571429,4,2,1,100,1,0
1693,-200,4,2,1,30,0,0
3407,333.333333333333,4,2,1,30,1,0
3407,-200,4,2,1,30,0,0
5192,300,4,2,1,30,1,0
5192,-200,4,2,1,30,0,0
6923,659.340659340659,4,2,1,30,1,0
6923,-200,4,2,1,30,0,0
8147,400,4,2,1,30,1,0
8147,-200,4,2,1,30,0,0
9295,375,4,2,1,30,1,0
10270,300,4,2,1,40,1,0
10420,-200,4,2,1,40,0,0
10645,-200,4,2,1,5,0,0
10720,-200,4,2,1,40,0,0
10870,-133.333333333333,4,2,1,40,0,0
11470,-100,4,2,1,60,0,0
11695,-100,4,2,1,5,0,0
11770,-100,4,2,1,60,0,0
14095,-100,4,2,1,5,0,0
14170,-100,4,2,1,60,0,0
16495,-100,4,2,1,5,0,0
16570,-100,4,2,1,60,0,0
17695,-100,4,2,1,5,0,0
17770,-100,4,2,1,60,0,0
18295,-100,4,2,1,5,0,0
18370,-100,4,2,1,60,0,0
21295,-100,4,2,1,5,0,0
21370,-100,4,2,1,60,0,0
23695,-100,4,2,1,5,0,0
23770,-100,4,2,1,60,0,0
24895,-100,4,2,1,5,0,0
24970,-100,4,2,1,60,0,0
25795,-100,4,2,1,5,0,0
25870,-100,4,2,1,60,0,0
26095,-100,4,2,1,5,0,0
26170,-100,4,2,1,60,0,0
30295,-100,4,2,1,5,0,0
30370,-200,4,2,1,60,0,0
30595,-200,4,2,1,5,0,0
30670,600,4,2,1,60,1,0
30670,-66.6666666666667,4,2,1,60,0,0
31045,-66.6666666666667,4,2,1,5,0,0
31120,-50,4,2,1,60,0,0
31570,-100,4,2,1,60,0,0
32470,-100,4,2,1,60,0,0
33070,-100,4,2,1,40,0,0
35470,-66.6666666666667,4,2,1,60,0,0
35845,-66.6666666666667,4,2,1,5,0,0
35920,-50,4,2,1,60,0,0
36370,-100,4,2,1,60,0,0
37270,-100,4,2,1,40,0,0
40270,-66.6666666666667,4,2,1,60,0,0
40645,-66.6666666666667,4,2,1,5,0,0
40720,-50,4,2,1,60,0,0
41170,-100,4,2,1,60,0,0
41845,-100,4,2,1,5,0,0
41920,-100,4,2,1,40,0,0
43645,-100,4,2,1,5,0,0
43720,-100,4,2,1,40,0,0
45070,-66.6666666666667,4,2,1,60,0,0
45445,-66.6666666666667,4,2,1,5,0,0
45520,-50,4,2,1,60,0,0
45970,-100,4,2,1,60,0,0
46495,-100,4,2,1,5,0,0
46570,-100,4,2,1,10,0,0
46870,-100,4,2,1,15,0,0
47170,-100,4,2,1,20,0,0
47470,-100,4,2,1,25,0,0
47770,-100,4,2,1,30,0,0
48070,-100,4,2,1,40,0,0
48370,-100,4,2,1,50,0,0
48670,-100,4,2,1,60,0,0
48970,-100,4,2,1,70,0,0
49270,-100,4,2,1,20,0,0
49396,480,4,2,1,60,1,0
49396,-100,4,2,1,60,0,0
49870,600,4,2,1,75,1,0
49870,-50,4,2,1,75,0,0
50095,-50,4,2,1,5,0,0
50170,-50,4,2,1,75,0,0
50395,-50,4,2,1,5,0,0
50470,-50,4,2,1,50,0,0
50920,-50,4,2,1,75,0,0
51295,-50,4,2,1,5,0,0
51370,-50,4,2,1,75,0,0
51595,-50,4,2,1,5,0,0
51670,-50,4,2,1,50,0,0
52270,-50,4,2,1,75,0,0
52495,-50,4,2,1,5,0,0
52570,-50,4,2,1,75,0,0
52795,-50,4,2,1,5,0,0
52870,-50,4,2,1,50,0,0
53320,-50,4,2,1,75,0,0
53695,-50,4,2,1,5,0,0
53770,-50,4,2,1,75,0,0
53995,-50,4,2,1,5,0,0
54070,-50,4,2,1,50,0,0
54670,-50,4,2,1,75,0,0
54895,-50,4,2,1,5,0,0
54970,-50,4,2,1,75,0,0
55195,-50,4,2,1,5,0,0
55270,-50,4,2,1,50,0,0
55720,-50,4,2,1,75,0,0
56095,-50,4,2,1,5,0,0
56170,-50,4,2,1,75,0,0
56395,-50,4,2,1,5,0,0
56470,-50,4,2,1,50,0,0
57070,-50,4,2,1,75,0,0
57295,-50,4,2,1,5,0,0
57370,-50,4,2,1,75,0,0
57595,-50,4,2,1,5,0,0
57670,-50,4,2,1,50,0,0
58120,-50,4,2,1,75,0,0
58495,-50,4,2,1,5,0,0
58570,-50,4,2,1,75,0,0
58795,-50,4,2,1,5,0,0
58870,-50,4,2,1,50,0,0
59470,-50,4,2,1,75,0,0
60070,-50,4,2,1,50,0,0
60520,-50,4,2,1,75,0,0
60895,-50,4,2,1,5,0,0
60970,-50,4,2,1,75,0,0
61195,-50,4,2,1,5,0,0
61270,-50,4,2,1,50,0,0
61495,-50,4,2,1,5,0,0
61570,-50,4,2,1,50,0,0
61870,-50,4,2,1,75,0,0
62095,-50,4,2,1,5,0,0
62170,-50,4,2,1,75,0,0
62320,-66.6666666666667,4,2,1,65,0,0
62545,-66.6666666666667,4,2,1,5,0,0
62620,-66.6666666666667,4,2,1,65,0,0
62770,-100,4,2,1,55,0,0
63445,-100,4,2,1,5,0,0
63520,-100,4,2,1,30,0,0
64270,-100,4,2,1,60,0,0
64795,-100,4,2,1,5,0,0
64870,-100,4,2,1,60,0,0
65395,-100,4,2,1,5,0,0
65470,-66.6666666666667,4,2,1,75,0,0
65695,-66.6666666666667,4,2,1,5,0,0
65770,-66.6666666666667,4,2,1,75,0,0
66070,-66.6666666666667,4,2,1,30,0,0
66670,-66.6666666666667,4,2,1,50,0,0
67270,-66.6666666666667,4,2,1,60,0,0
67870,-66.6666666666667,4,2,1,70,0,0
68207,-66.6666666666667,4,2,1,5,0,0
68470,-66.6666666666667,4,2,1,10,0,0
68620,-66.6666666666667,4,2,1,15,0,0
68657,-66.6666666666667,4,2,1,21,0,0
68695,-66.6666666666667,4,2,1,27,0,0
68732,-66.6666666666667,4,2,1,33,0,0
68770,-66.6666666666667,4,2,1,39,0,0
68807,-66.6666666666667,4,2,1,45,0,0
68845,-66.6666666666667,4,2,1,51,0,0
68882,-66.6666666666667,4,2,1,57,0,0
68920,-66.6666666666667,4,2,1,63,0,0
68957,-66.6666666666667,4,2,1,68,0,0
68995,-100,4,2,1,70,0,0
69062,600,4,2,1,90,1,0
69062,-66.6666666666667,4,2,1,90,0,0
73187,-66.6666666666667,4,2,1,5,0,0
73262,-66.6666666666667,4,2,1,90,0,0
78662,300,4,2,1,100,1,1
78662,-83.3333333333333,4,2,1,100,0,1
78887,-83.3333333333333,4,2,1,5,0,1
78962,-83.3333333333333,4,2,1,100,0,1
80087,-83.3333333333333,4,2,1,5,0,1
80162,-83.3333333333333,4,2,1,100,0,1
80987,-83.3333333333333,4,2,1,5,0,1
81062,-83.3333333333333,4,2,1,100,0,1
81287,-83.3333333333333,4,2,1,5,0,1
81362,-83.3333333333333,4,2,1,100,0,1
83387,-83.3333333333333,4,2,1,5,0,1
83462,-83.3333333333333,4,2,1,100,0,1
83687,-83.3333333333333,4,2,1,5,0,1
83762,-83.3333333333333,4,2,1,100,0,1
84587,-83.3333333333333,4,2,1,5,0,1
84662,-83.3333333333333,4,2,1,100,0,1
85487,-83.3333333333333,4,2,1,5,0,1
85562,-83.3333333333333,4,2,1,100,0,1
85787,-83.3333333333333,4,2,1,5,0,1
85862,-83.3333333333333,4,2,1,100,0,1
88187,-83.3333333333333,4,2,1,5,0,1
88262,-83.3333333333333,4,2,1,100,0,1
88487,-83.3333333333333,4,2,1,5,0,1
88562,-83.3333333333333,4,2,1,100,0,1
90587,-83.3333333333333,4,2,1,5,0,1
90662,-83.3333333333333,4,2,1,100,0,1
90887,-83.3333333333333,4,2,1,5,0,1
90962,-83.3333333333333,4,2,1,100,0,1
91937,-83.3333333333333,4,2,1,5,0,1
92012,-83.3333333333333,4,2,1,100,0,1
92987,-83.3333333333333,4,2,1,5,0,1
93062,-83.3333333333333,4,2,1,100,0,1
93287,-83.3333333333333,4,2,1,5,0,1
93362,-83.3333333333333,4,2,1,100,0,1
94487,-83.3333333333333,4,2,1,5,0,1
94562,-83.3333333333333,4,2,1,100,0,1
95387,-83.3333333333333,4,2,1,5,0,1
95462,-100,4,2,1,100,0,1
97862,-83.3333333333333,4,2,1,100,0,1
98087,-83.3333333333333,4,2,1,5,0,1
98162,-83.3333333333333,4,2,1,100,0,1
100487,-83.3333333333333,4,2,1,5,0,1
100562,-83.3333333333333,4,2,1,100,0,1
101687,-83.3333333333333,4,2,1,5,0,1
101762,-83.3333333333333,4,2,1,100,0,1
102662,-83.3333333333333,4,2,1,100,0,1
104762,-83.3333333333333,4,2,1,100,0,1
105212,-83.3333333333333,4,2,1,90,0,0
105662,-83.3333333333333,4,2,1,80,0,0
106112,-83.3333333333333,4,2,1,70,0,0
106562,-100,4,2,1,60,0,0
106787,-100,4,2,1,5,0,0
106862,-100,4,2,1,60,0,0
107312,-458.715596330275,4,2,1,60,0,0
107387,-458.715596330275,4,2,4,5,0,0
117212,-458.715596330275,4,2,1,30,0,0

[Colours]
Combo1 : 22,220,72
Combo2 : 140,250,67
Combo3 : 19,101,162
Combo4 : 250,167,180
Combo5 : 255,220,113

[HitObjects]
189,184,1693,6,0,L|166:177,3,16.6666666666667
203,253,3407,6,0,L|179:258,3,16.6666666666667
249,305,5192,6,0,L|231:321,3,16.6666666666667
320,303,6923,6,0,P|321:327|316:352,1,50
378,262,8147,6,0,L|407:273,1,25
397,195,9295,6,0,L|431:186,1,25
161,103,10270,5,8,0:0:0:0:
258,63,10420,2,0,P|264:98|251:156,1,75,2|0,0:0|0:0,0:0:0:0:
249,155,10720,1,2,0:0:0:0:
161,103,10870,6,0,L|117:99,1,37.5000014305115,8|0,0:3|0:0,0:0:0:0:
198,212,11020,1,8,0:0:0:0:
213,222,11095,1,2,0:3:0:0:
231,228,11170,1,2,0:3:0:0:
249,230,11245,1,2,0:3:0:0:
268,228,11320,1,2,0:3:0:0:
285,221,11395,1,2,0:3:0:0:
362,213,11470,6,0,P|321:154|249:155,1,150,6|0,0:0|0:0,0:0:0:0:
125,177,11770,2,0,P|91:196|18:175,1,100,8|0,0:0|0:0,0:0:0:0:
68,109,11995,1,8,0:0:0:0:
73,124,12070,1,2,0:0:0:0:
39,232,12220,1,2,0:0:0:0:
153,55,12370,2,0,L|139:179,1,100,8|2,0:0|0:0,0:0:0:0:
209,272,12670,6,0,P|271:247|287:206,1,100,0|2,0:0|0:0,0:0:0:0:
444,252,12970,2,0,P|391:210|347:217,1,100,8|0,0:0|0:0,0:0:0:0:
374,296,13195,1,8,0:0:0:0:
379,282,13270,1,2,0:0:0:0:
498,195,13420,1,2,0:0:0:0:
484,333,13570,2,0,B|456:317|456:317|443:251,1,100,8|0,0:0|0:0,0:0:0:0:
376,61,13870,6,0,P|449:61|497:120,1,150,2|0,0:0|0:0,0:0:0:0:
361,212,14170,2,0,P|330:173|328:124,1,100,8|0,0:0|0:0,0:0:0:0:
413,142,14395,1,8,0:0:0:0:
399,148,14470,1,2,0:0:0:0:
293,125,14620,1,2,0:0:0:0:
443,251,14770,2,0,L|322:232,1,100,8|2,0:0|0:0,0:0:0:0:
188,170,15070,6,0,P|158:209|156:261,1,100,0|2,0:0|0:0,0:0:0:0:
293,125,15370,2,0,P|289:75|260:36,1,100,8|0,0:0|0:0,0:0:0:0:
210,91,15595,1,8,0:0:0:0:
221,102,15670,1,2,0:0:0:0:
231,239,15820,1,2,0:0:0:0:
89,162,15970,2,0,B|125:157|125:157|195:171,1,100,8|0,0:0|0:0,0:0:0:0:
88,334,16270,6,0,P|86:267|171:277,1,150,6|0,0:0|0:0,0:0:0:0:
232,313,16570,2,0,P|277:295|303:253,1,100,8|0,0:0|0:0,0:0:0:0:
236,224,16795,1,8,0:0:0:0:
231,239,16870,1,2,0:0:0:0:
305,367,17020,1,2,0:0:0:0:
375,221,17170,2,0,P|420:200|477:212,1,100,8|2,0:0|0:0,0:0:0:0:
504,327,17470,6,0,B|463:359|463:359|420:328|431:272,1,150
468,207,17770,1,8,0:0:0:0:
419,50,17920,1,2,0:0:0:0:
419,50,17995,1,8,0:0:0:0:
419,50,18070,2,0,P|365:95|277:75,1,150,2|0,0:0|0:0,0:0:0:0:
238,18,18370,2,0,P|208:57|207:106,1,100,8|0,0:0|0:0,0:0:0:0:
262,290,18670,6,0,L|275:164,1,100,2|0,0:0|0:0,0:0:0:0:
99,46,18970,2,0,B|103:97|150:116|150:116|185:98|223:110,1,150,8|8,0:0|0:0,0:0:0:0:
191,180,19270,1,2,0:0:0:0:
55,138,19420,1,2,0:0:0:0:
114,326,19570,2,0,P|134:253|115:204,1,100,8|2,0:0|0:0,0:0:0:0:
206,106,19870,6,0,P|203:52|226:6,1,100,0|2,0:0|0:0,0:0:0:0:
362,124,20170,2,0,P|316:153|265:156,1,100,8|0,0:0|0:0,0:0:0:0:
289,70,20395,1,8,0:0:0:0:
293,84,20470,1,2,0:0:0:0:
283,196,20620,1,2,0:0:0:0:
409,43,20770,2,0,L|401:165,1,100,8|0,0:0|0:0,0:0:0:0:
365,223,20995,1,8,0:0:0:0:
366,238,21070,6,0,B|372:332|372:332|398:306|444:312,1,150,6|0,0:0|0:0,0:0:0:0:
303,360,21370,2,0,P|256:346|230:304,1,100,8|0,0:0|0:0,0:0:0:0:
299,275,21595,1,8,0:0:0:0:
300,290,21670,1,2,0:0:0:0:
175,367,21820,1,2,0:0:0:0:
195,196,21970,2,0,B|205:238|205:238|194:293,1,100,8|2,0:0|0:0,0:0:0:0:
111,138,22270,6,0,P|63:132|12:156,1,100,0|2,0:0|0:0,0:0:0:0:
195,196,22570,2,0,P|253:189|297:143,1,100,8|0,0:0|0:0,0:0:0:0:
220,104,22795,1,8,0:0:0:0:
218,119,22870,1,2,0:0:0:0:
111,138,23020,1,2,0:0:0:0:
243,27,23170,2,0,P|185:34|141:80,1,100,8|0,0:0|0:0,0:0:0:0:
307,144,23470,6,0,B|345:163|385:144|385:144|419:128|460:148,1,150,2|0,0:0|0:0,0:0:0:0:
487,252,23770,2,0,P|454:288|406:296,1,100,8|0,0:0|0:0,0:0:0:0:
417,212,23995,1,8,0:0:0:0:
420,226,24070,1,2,0:0:0:0:
386,332,24220,1,2,0:0:0:0:
313,157,24370,2,0,B|304:190|304:190|322:278,1,100,8|2,0:0|0:0,0:0:0:0:
247,338,24670,6,0,P|175:353|118:305,1,150
102,212,24970,2,0,P|55:196|7:208,1,100,8|0,0:0|0:0,0:0:0:0:
46,287,25195,1,8,0:0:0:0:
52,274,25270,1,2,0:0:0:0:
31,53,25420,1,2,0:0:0:0:
31,53,25495,1,0,0:0:0:0:
31,53,25570,2,0,B|88:40|88:40|206:62,1,150,8|0,0:0|0:0,0:0:0:0:
265,158,25870,6,0,B|219:125|252:75|252:75|323:61,1,150,6|0,0:0|0:0,0:0:0:0:
404,49,26170,2,0,P|430:98|393:146,1,100,8|0,0:0|0:0,0:0:0:0:
350,198,26395,1,8,0:0:0:0:
346,184,26470,1,2,0:0:0:0:
506,141,26620,1,2,0:0:0:0:
432,336,26770,2,0,B|415:301|415:301|427:205,1,100,8|2,0:0|0:0,0:0:0:0:
306,367,27070,6,0,B|266:377|266:377|136:349,1,150
84,377,27370,1,8,0:0:0:0:
268,227,27520,1,2,0:0:0:0:
275,262,27595,1,8,0:0:0:0:
265,296,27670,5,8,0:0:0:0:
184,256,27820,1,2,0:0:0:0:
352,198,27970,1,2,0:0:0:0:
218,82,28120,1,2,0:0:0:0:
358,184,28270,6,0,L|278:173,1,50,2|0,0:1|0:0,0:0:0:0:
94,146,28420,1,2,0:1:0:0:
399,109,28720,5,2,0:1:0:0:
53,221,28870,1,2,0:1:0:0:
444,183,29170,5,2,0:1:0:0:
8,147,29320,1,2,0:1:0:0:
8,147,29995,5,8,0:0:0:0:
32,103,30070,2,0,P|102:112|114:182,1,150,8|0,0:0|0:0,0:0:0:0:
58,222,30370,6,0,P|79:192|114:182,1,75,2|0,0:0|0:0,0:0:0:0:
237,71,30670,6,0,P|299:78|295:200,1,187.500007152558,6|0,0:0|0:0,0:0:0:0:
346,161,31120,2,0,P|369:117|414:98,1,100,2|0,0:0|0:0,0:0:0:0:
414,98,31570,6,0,P|475:115|399:252,1,275,2|2,0:0|0:3,0:0:0:0:
425,177,32470,2,0,P|440:231|394:257,1,100,2|2,0:3|0:0,0:0:0:0:
226,245,33070,6,0,L|235:351,1,100,2|0,0:0|0:0,0:0:0:0:
243,348,33445,1,0,3:0:0:0:
252,351,33520,1,0,3:0:0:0:
217,242,33670,1,8,0:0:0:0:
147,203,33970,1,2,0:0:0:0:
147,203,34120,6,0,L|152:137,1,50,2|0,0:0|0:0,0:0:0:0:
155,103,34420,2,0,L|151:153,1,50,0|0,3:0|3:0,0:0:0:0:
155,103,34870,5,8,0:0:0:0:
225,64,35020,1,2,0:0:0:0:
225,63,35470,6,0,P|144:76|152:-4,1,187.500007152558,6|0,0:0|0:0,0:0:0:0:
108,58,35920,2,0,P|83:71|6:55,1,100,2|0,0:0|0:0,0:0:0:0:
14,61,36370,6,0,B|28:261|28:261|92:205,1,275,2|2,0:0|0:3,0:0:0:0:
102,195,37270,1,2,0:3:0:0:
102,195,37420,1,8,0:3:0:0:
180,229,37570,2,0,P|210:220|238:223,1,50,8|0,0:3|0:0,0:0:0:0:
219,304,37870,5,2,0:0:0:0:
301,322,38020,1,2,0:0:0:0:
378,288,38170,1,0,3:0:0:0:
387,283,38245,1,0,3:0:0:0:
396,281,38320,1,0,3:0:0:0:
478,299,38470,6,0,B|486:321|486:321|517:342,1,50,8|2,0:0|0:0,0:0:0:0:
452,213,38770,2,0,B|444:191|444:191|413:170,2,50,0|8|0,0:0|0:0|0:0,0:0:0:0:
446,94,39220,1,2,0:0:0:0:
363,113,39370,1,2,0:0:0:0:
363,113,39520,1,0,0:0:0:0:
292,66,39670,6,0,B|278:50|278:50|278:9,1,50,8|2,0:0|0:0,0:0:0:0:
287,151,39970,2,0,B|280:171|280:171|244:191,1,50,0|8,0:0|0:0,0:0:0:0:
13,112,40270,6,0,P|70:87|127:194,1,187.500007152558,6|0,0:0|0:0,0:0:0:0:
152,136,40720,2,0,P|149:86|179:47,1,100,2|0,0:0|0:0,0:0:0:0:
179,47,41170,6,0,P|240:31|276:171,1,225,2|0,0:0|0:0,0:0:0:0:
219,114,41920,1,0,3:0:0:0:
223,111,41995,1,0,3:0:0:0:
228,109,42070,2,0,P|279:113|283:171,1,100,0|0,3:0|0:0,0:0:0:0:
380,302,42670,6,0,L|374:362,1,50,2|2,0:0|0:0,0:0:0:0:
430,231,42970,1,0,3:0:0:0:
425,229,43045,1,0,3:0:0:0:
420,227,43120,1,0,3:0:0:0:
380,302,43270,1,8,0:0:0:0:
301,270,43420,6,0,P|252:289|232:324,1,75,2|0,0:0|0:0,0:0:0:0:
217,318,43720,2,0,P|185:312|161:291,1,50,2|0,0:0|0:0,0:0:0:0:
127,228,44020,1,2,0:0:0:0:
154,147,44170,2,0,B|157:132|157:132|148:89,1,50,2|0,0:0|0:0,0:0:0:0:
36,25,44470,6,0,B|48:35|48:35|81:46,1,50,8|2,0:0|0:0,0:0:0:0:
159,12,44770,2,0,B|172:4|172:4|206:0,1,50,0|8,0:0|0:0,0:0:0:0:
383,24,45070,6,0,B|365:74|312:78|312:78|259:80|236:135,1,187.500007152558,6|0,0:0|0:0,0:0:0:0:
350,104,45520,2,0,B|359:131|387:133|387:133|416:134|428:164,1,100,2|0,0:0|0:0,0:0:0:0:
426,159,45970,6,0,B|410:204|363:207|363:207|315:209|295:258,1,175,6|0,0:0|0:0,0:0:0:0:
293,282,46570,5,2,0:0:0:0:
259,312,46870,1,2,0:0:0:0:
192,334,47170,1,2,0:0:0:0:
98,315,47470,1,2,0:0:0:0:
24,219,47770,1,2,0:0:0:0:
57,77,48070,1,2,0:0:0:0:
220,30,48370,1,2,0:0:0:0:
330,163,48670,1,2,0:0:0:0:
235,323,48970,1,2,0:0:0:0:
175,179,49270,5,0,0:0:0:0:
175,179,49396,2,0,L|168:228,1,50,0|2,3:0|0:0,0:0:0:0:
327,341,49870,6,2,B|364:356|364:356|494:333,1,150,6|0,0:0|0:0,0:1:0:0:
511,339,50170,2,2,B|474:324|474:324|344:347,1,150,6|0,0:0|0:0,0:1:0:0:
446,233,50470,1,8,0:0:0:0:
327,341,50620,2,0,P|319:284|339:243,1,100,2|0,0:0|0:0,0:0:0:0:
439,80,50920,6,2,P|351:163|231:147,1,250,6|0,0:0|0:0,0:1:0:0:
208,114,51370,2,2,P|272:155|346:153,1,150,6|0,0:0|0:0,0:1:0:0:
300,56,51670,1,8,0:0:0:0:
115,112,51820,1,2,0:0:0:0:
115,112,52270,6,2,B|134:205|134:205|109:285,1,150,6|0,0:0|0:0,0:1:0:0:
121,297,52570,2,2,B|102:204|102:204|127:124,1,150,6|0,0:0|0:0,0:1:0:0:
218,210,52870,1,8,0:0:0:0:
121,297,53020,2,0,B|83:309|83:309|19:294,1,100,2|0,0:0|0:0,0:0:0:0:
218,210,53320,6,2,B|386:251|386:251|450:330,1,250,6|0,0:0|0:0,0:1:0:0:
453,346,53770,2,2,B|380:258|380:258|323:245,1,150,6|0,0:0|0:0,0:1:0:0:
330,340,54070,1,8,0:0:0:0:
453,346,54220,1,8,0:3:0:0:
459,223,54370,1,8,0:3:0:0:
459,223,54520,1,0,0:0:0:0:
336,217,54670,6,2,P|324:136|368:48,1,150,6|0,0:0|0:0,0:1:0:0:
351,33,54970,2,2,P|363:114|319:202,1,150,6|0,0:0|0:0,0:1:0:0:
251,98,55270,1,8,0:0:0:0:
397,142,55420,2,0,B|427:132|427:132|503:148,1,100,2|0,0:0|0:0,0:0:0:0:
322,304,55720,6,2,B|252:257|196:302|196:302|147:342|70:342,1,250,6|0,0:0|0:0,0:1:0:0:
53,329,56170,2,2,P|130:325|210:274,1,150,6|0,0:0|0:0,0:1:0:0:
99,226,56470,1,8,0:0:0:0:
256,358,56620,1,2,0:0:0:0:
256,358,57070,6,2,P|320:326|276:289,1,150,6|0,0:0|0:0,0:1:0:0:
302,254,57370,2,2,P|241:276|281:328,1,150,6|0,0:0|0:0,0:1:0:0:
396,320,57670,1,8,0:0:0:0:
290,238,57820,2,0,P|236:261|236:315,1,100,2|0,0:0|0:0,0:0:0:0:
460,208,58120,6,2,P|421:101|311:129,1,250,6|0,0:0|0:0,0:1:0:0:
340,155,58570,2,2,P|404:132|425:196,1,150,6|0,0:0|0:0,0:1:0:0:
290,238,58870,1,8,0:0:0:0:
237,95,59020,1,8,0:3:0:0:
140,213,59170,1,8,0:3:0:0:
140,213,59320,1,0,0:0:0:0:
87,70,59470,6,2,B|55:35|55:35|8:11,1,100,6|0,0:0|0:0,0:1:0:0:
140,213,59770,2,2,B|125:258|125:258|128:310,1,100,6|0,0:0|0:0,0:1:0:0:
237,95,60070,1,8,0:0:0:0:
226,197,60220,2,0,B|236:243|236:243|264:287,1,100,2|0,0:0|0:0,0:0:0:0:
455,322,60520,6,2,P|391:245|379:342,1,250,6|0,0:0|0:0,0:1:0:0:
419,337,60970,2,2,B|406:297|406:297|417:186,1,150,6|0,0:0|0:0,0:1:0:0:
503,97,61270,1,8,0:0:0:0:
373,68,61420,2,0,L|381:156,1,50,2|0,0:0|0:0,0:0:0:0:
497,82,61570,1,8,0:0:0:0:
497,82,61870,6,2,B|372:62|372:62|325:80,1,150,6|0,0:0|0:0,0:1:0:0:
199,40,62170,1,8,0:3:0:0:
116,198,62320,6,2,B|195:185|195:185|226:196,1,112.500004291535,6|0,0:0|0:0,0:1:0:0:
306,171,62620,1,8,0:3:0:0:
389,329,62770,6,2,B|309:316|309:316|250:339|250:339|168:322,1,225,6|0,0:0|0:0,0:1:0:0:
169,317,63520,1,0,3:0:0:0:
166,312,63595,1,0,3:0:0:0:
163,307,63670,1,0,3:0:0:0:
40,88,64270,6,2,P|77:137|191:139,1,175,6|0,0:0|0:0,0:1:0:0:
194,136,64870,2,0,P|231:87|345:85,1,175
370,146,65470,6,2,P|337:188|289:168,1,112.500004291535,6|0,0:0|0:0,0:1:0:0:
363,210,65770,2,2,P|387:247|385:299,1,75.0000028610231,6|0,0:0|0:0,0:1:0:0:
368,364,66070,1,0,0:0:0:0:
368,364,66670,5,8,0:0:0:0:
332,297,66970,1,8,0:0:0:0:
260,256,67270,1,8,0:0:0:0:
170,246,67570,1,8,0:0:0:0:
77,278,67870,1,8,0:0:0:0:
16,363,68170,2,0,L|43:380,23,18.7500007152558,8|0|0|0|0|0|0|0|0|0|0|0|0|0|0|0|0|0|0|0|0|0|0|0,0:0|3:0|3:0|3:0|3:0|3:0|3:0|3:0|3:0|3:0|3:0|3:0|3:0|3:0|3:0|3:0|3:0|3:0|3:0|3:0|3:0|3:0|3:0|3:0,3:0:0:0:
52,371,69062,6,0,P|120:365|171:287,1,150.000005722046,6|0,0:0|0:0,0:0:0:0:
109,179,69512,2,0,P|105:220|117:259,1,75.0000028610231,0|8,0:0|0:0,0:0:0:0:
178,213,69812,1,0,0:0:0:0:
249,187,69962,1,0,0:0:0:0:
283,122,70112,2,0,P|271:157|249:187,1,75.0000028610231,2|0,0:0|0:0,0:0:0:0:
266,49,70412,5,2,0:0:0:0:
283,122,70562,2,0,P|319:130|356:125,1,75.0000028610231,2|0,0:0|0:0,0:0:0:0:
449,223,70862,5,8,0:0:0:0:
427,151,71012,1,2,0:0:0:0:
500,167,71162,1,0,0:0:0:0:
500,167,71312,1,0,0:0:0:0:
471,295,71462,6,0,P|397:277|379:197,1,150.000005722046,2|0,0:0|0:0,0:0:0:0:
241,210,71912,2,0,P|278:204|306:180,1,75.0000028610231,0|8,0:0|0:0,0:0:0:0:
170,234,72212,2,0,P|156:268|164:304,1,75.0000028610231
225,350,72512,1,2,0:0:0:0:
297,341,72662,2,0,P|262:355|220:348,1,75.0000028610231,0|2,0:0|0:0,0:0:0:0:
157,380,72962,2,0,P|108:354|89:295,1,112.500004291535,2|0,0:0|0:0,0:0:0:0:
64,273,73262,6,0,P|71:236|58:202,1,75.0000028610231,8|0,0:0|0:0,0:0:0:0:
115,153,73562,2,0,P|142:177|195:184,1,75.0000028610231
234,62,73862,6,0,P|172:45|179:109,1,150.000005722046,6|0,0:0|0:0,0:0:0:0:
301,86,74312,2,0,P|270:64|234:62,1,75.0000028610231,0|8,0:0|0:0,0:0:0:0:
311,160,74612,1,0,0:0:0:0:
369,206,74762,1,8,0:0:0:0:
443,208,74912,2,0,P|401:213|357:201,1,75.0000028610231,2|0,0:0|0:0,0:0:0:0:
503,163,75212,5,2,0:0:0:0:
443,208,75362,2,0,P|438:249|450:293,1,75.0000028610231,2|0,0:0|0:0,0:0:0:0:
262,333,75662,1,8,0:0:0:0:
334,310,75812,1,2,0:0:0:0:
402,343,75962,2,0,P|444:356|492:340,1,75.0000028610231
333,310,76262,6,0,P|260:312|208:255,1,150.000005722046,2|0,0:0|0:0,0:0:0:0:
225,187,76712,1,0,0:0:0:0:
90,244,76862,2,0,P|126:234|154:210,1,75.0000028610231,8|0,0:0|0:0,0:0:0:0:
225,187,77162,1,8,0:0:0:0:
289,153,77312,6,0,P|253:162|225:187,1,75.0000028610231,2|0,0:0|0:0,0:0:0:0:
360,174,77612,1,2,0:0:0:0:
428,142,77762,1,2,0:0:0:0:
444,68,77912,1,0,0:0:0:0:
399,7,78062,5,8,0:0:0:0:
264,45,78212,2,0,P|259:63|258:81,1,37.5000014305115,2|0,0:0|0:0,0:0:0:0:
324,0,78362,1,8,0:0:0:0:
158,58,78512,1,8,0:0:0:0:
121,47,78587,1,8,0:0:0:0:
97,17,78662,6,0,B|113:96|64:136|64:136|39:160|37:188,1,179.999994506836,6|0,0:0|0:0,0:0:0:0:
58,306,78962,2,0,L|68:392,1,59.9999981689454,8|0,0:0|0:0,0:0:0:0:
199,264,79112,1,2,0:0:0:0:
201,222,79187,1,8,0:0:0:0:
163,240,79262,1,2,0:0:0:0:
230,330,79412,1,2,0:0:0:0:
240,162,79562,1,8,0:0:0:0:
89,238,79712,1,0,0:0:0:0:
230,330,79862,6,0,P|307:287|339:205,1,179.999994506836
431,274,80162,2,0,P|393:227|338:205,1,119.999996337891,8|0,0:0|0:0,0:0:0:0:
384,63,80387,1,8,0:0:0:0:
352,91,80463,2,0,P|331:146|339:205,1,119.999996337891,2|2,0:0|0:0,0:0:0:0:
440,340,80762,2,0,P|411:256|339:205,1,179.999994506836,8|0,0:0|0:0,0:0:0:0:
199,79,81062,6,0,B|181:142|235:180|235:180|266:203|266:257,1,179.999994506836,2|0,0:0|0:0,0:0:0:0:
163,294,81362,2,0,P|168:264|185:240,1,59.9999981689454,8|0,0:0|0:0,0:0:0:0:
272,109,81512,1,2,0:0:0:0:
276,67,81587,1,8,0:0:0:0:
259,28,81662,1,2,0:0:0:0:
178,120,81812,1,2,0:0:0:0:
20,200,81962,2,0,P|73:174|132:181,1,119.999996337891,8|2,0:0|0:0,0:0:0:0:
14,109,82262,5,0,0:0:0:0:
87,256,82412,1,2,0:0:0:0:
132,19,82562,2,0,B|161:34|161:34|184:153,1,119.999996337891,8|0,0:0|0:0,0:0:0:0:
235,201,82787,1,8,0:0:0:0:
225,241,82862,2,0,B|196:256|196:256|173:375,1,119.999996337891,2|2,0:0|0:0,0:0:0:0:
315,242,83162,2,0,B|375:224|407:279|407:279|428:312|482:324,1,179.999994506836,8|0,0:0|0:0,0:0:0:0:
477,239,83462,6,0,B|431:196|463:140|463:140|481:106|464:53,1,179.999994506836,6|0,0:0|0:0,0:0:0:0:
397,4,83762,2,0,P|352:12|321:39,1,59.9999981689454,8|0,0:0|0:0,0:0:0:0:
334,162,83912,1,2,0:0:0:0:
382,141,83987,1,8,0:0:0:0:
394,101,84062,1,2,0:0:0:0:
477,0,84212,1,2,0:0:0:0:
321,91,84362,2,0,B|270:100|228:66|228:66|189:35|126:62,1,179.999994506836,8|0,0:0|0:0,0:0:0:0:
68,138,84662,6,0,B|44:173|44:173|63:269,1,119.999996337891,0|2,0:0|0:0,0:0:0:0:
68,58,84962,1,8,0:0:0:0:
180,130,85112,1,2,0:0:0:0:
149,158,85187,1,8,0:0:0:0:
140,199,85262,2,0,B|162:244|216:240|216:240|261:238|290:282,1,179.999994506836,2|0,0:0|0:0,0:0:0:0:
343,325,85562,2,0,B|310:362|258:344|258:344|216:331|176:366,1,179.999994506836,8|0,0:0|0:0,0:0:0:0:
106,305,85862,6,0,P|102:261|151:192,1,119.999996337891,2|0,0:0|0:0,0:0:0:0:
224,315,86162,1,8,0:0:0:0:
363,248,86312,1,2,0:0:0:0:
399,269,86387,1,8,0:0:0:0:
419,305,86462,1,2,0:0:0:0:
477,209,86612,1,2,0:0:0:0:
273,182,86762,2,0,P|307:230|363:247,1,119.999996337891,8|2,0:0|0:0,0:0:0:0:
456,115,87062,6,0,P|369:63|356:164,1,239.999992675781,0|8,0:0|0:0,0:0:0:0:
322,4,87512,1,2,0:0:0:0:
290,31,87587,1,8,0:0:0:0:
267,66,87662,2,0,P|257:124|273:182,1,119.999996337891,2|2,0:0|0:0,0:0:0:0:
221,278,87962,2,0,B|160:310|160:310|51:283,1,179.999994506836,8|0,0:0|0:0,0:0:0:0:
62,125,88262,6,0,P|143:145|149:229,1,179.999994506836,6|0,0:0|0:0,0:0:0:0:
231,285,88562,2,0,B|289:299,1,59.9999981689454,8|0,0:0|0:0,0:0:0:0:
289,143,88712,1,2,0:0:0:0:
273,182,88787,1,8,0:0:0:0:
278,224,88862,2,0,B|387:251,2,59.9999981689454,2|0|2,0:0|0:0|0:0,0:0:0:0:
422,371,89162,2,0,P|430:313|406:259,1,119.999996337891,8|2,0:0|0:0,0:0:0:0:
369,84,89462,6,0,P|377:142|353:196,1,119.999996337891,0|2,0:0|0:0,0:0:0:0:
201,213,89762,1,8,0:0:0:0:
104,107,89912,1,2,0:0:0:0:
135,78,89987,1,8,0:0:0:0:
144,119,90062,1,2,0:0:0:0:
47,48,90212,1,2,0:0:0:0:
223,108,90362,2,0,B|226:168|174:193|174:193|133:222|157:287,1,179.999994506836,8|0,0:0|0:0,0:0:0:0:
64,321,90662,6,0,B|147:335|147:335|178:328|178:328|273:342,1,179.999994506836,2|0,0:0|0:0,0:0:0:0:
343,381,90962,2,0,P|329:337|277:304,1,59.9999981689454,8|0,0:0|0:0,0:0:0:0:
406,195,91112,1,2,0:0:0:0:
405,153,91187,1,8,0:0:0:0:
428,117,91262,1,2,0:0:0:0:
465,265,91412,1,2,0:0:0:0:
317,222,91562,1,8,0:0:0:0:
343,381,91712,6,0,P|366:306|311:218,1,179.999994506836,2|0,0:0|0:0,0:0:0:0:
367,135,92012,1,2,0:0:0:0:
205,211,92162,2,0,P|259:234|317:222,1,119.999996337891,8|0,0:0|0:0,0:0:0:0:
288,79,92387,1,8,0:0:0:0:
272,119,92462,2,0,P|278:177|317:222,1,119.999996337891,2|2,0:0|0:0,0:0:0:0:
456,39,92762,2,0,B|392:18|355:55|355:55|325:82|275:79,1,179.999994506836,8|0,0:0|0:0,0:0:0:0:
176,115,93062,6,0,P|87:112|35:7,1,179.999994506836,6|0,0:0|0:0,0:0:0:0:
103,149,93362,2,0,P|116:186|101:237,1,59.9999981689454,8|0,0:0|0:0,0:0:0:0:
173,366,93512,1,2,0:0:0:0:
188,326,93587,1,8,0:0:0:0:
185,284,93662,1,2,0:0:0:0:
63,300,93812,1,2,0:0:0:0:
226,209,93962,2,0,P|312:218|336:245,1,119.999996337891,8|2,0:0|0:0,0:0:0:0:
402,382,94262,6,0,B|366:338|395:294|395:294|423:250|410:185,1,179.999994506836
508,148,94562,2,0,P|456:187|374:181,1,119.999996337891,8|0,0:0|0:0,0:0:0:0:
296,39,94787,1,8,0:0:0:0:
338,35,94862,2,0,P|393:56|428:105,1,119.999996337891,2|2,0:0|0:0,0:0:0:0:
325,149,95162,2,0,B|231:157|231:157|217:165|217:165|135:171,1,179.999994506836,8|0,0:0|0:0,0:0:0:0:
59,119,95462,6,0,P|39:70|44:14,1,100,2|0,0:0|0:0,0:0:0:0:
151,199,95762,2,0,P|152:248|133:294,1,100,8|0,0:0|0:0,0:0:0:0:
245,333,95987,1,8,0:0:0:0:
245,333,96062,6,0,P|202:359|153:365,1,100,2|2,0:0|0:0,0:0:0:0:
326,262,96362,2,0,P|375:268|417:294,1,100,8|2,0:0|0:0,0:0:0:0:
463,88,96662,2,0,P|512:185|494:274,1,200,0|8,0:0|0:0,0:0:0:0:
338,180,97112,1,2,0:0:0:0:
338,180,97187,1,8,0:0:0:0:
338,180,97262,2,0,P|284:191|247:235,1,100,2|2,0:0|0:0,0:0:0:0:
345,347,97562,1,8,0:0:0:0:
366,55,97712,1,0,0:0:0:0:
366,55,97787,1,0,0:0:0:0:
366,55,97862,6,0,P|246:46|200:83,1,179.999994506836,6|0,0:0|0:0,0:0:0:0:
91,150,98162,2,0,P|44:147|20:131,1,59.9999981689454,8|0,0:0|0:0,0:0:0:0:
182,171,98312,1,2,0:0:0:0:
199,209,98387,1,8,0:0:0:0:
194,244,98462,1,2,0:0:0:0:
66,248,98612,1,2,0:0:0:0:
257,297,98762,1,8,0:0:0:0:
141,343,98912,1,2,0:0:0:0:
313,229,99062,6,0,P|343:288|326:353,1,119.999996337891,0|2,0:0|0:0,0:0:0:0:
141,343,99362,2,0,L|5:326,1,119.999996337891,8|0,0:0|0:0,0:0:0:0:
177,206,99587,1,8,0:0:0:0:
194,244,99662,2,0,L|330:227,1,119.999996337891,2|0,0:0|0:0,0:0:0:0:
462,150,99962,2,0,P|492:91|475:26,1,119.999996337891,8|0,0:0|0:0,0:0:0:0:
355,75,100262,6,0,B|338:132|375:170|375:170|405:200|396:260,1,179.999994506836,2|0,0:0|0:0,0:0:0:0:
449,353,100562,2,0,L|530:342,1,59.9999981689454,8|0,0:0|0:0,0:0:0:0:
313,229,100712,1,2,0:0:0:0:
301,269,100787,1,8,0:0:0:0:
313,309,100862,1,2,0:0:0:0:
204,165,101012,1,2,0:0:0:0:
319,115,101162,2,0,P|330:188|312:231,1,119.999996337891,8|2,0:0|0:0,0:0:0:0:
165,296,101462,6,0,B|26:276|26:276|44:327,1,179.999994506836
115,208,101762,2,0,P|125:146|97:88,1,119.999996337891,8|0,0:0|0:0,0:0:0:0:
293,24,101987,1,8,0:0:0:0:
261,51,102062,2,0,P|237:104|249:164,1,119.999996337891,2|2,0:0|0:0,0:0:0:0:
261,274,102287,1,0,0:0:0:0:
261,274,102362,2,0,P|272:216|248:162,1,119.999996337891,8|0,0:0|0:0,0:0:0:0:
39,67,102662,5,6,0:0:0:0:
472,27,102962,1,8,0:0:0:0:
102,145,103262,5,8,0:0:0:0:
383,170,103412,1,2,0:0:0:0:
135,147,103562,5,8,0:0:0:0:
348,167,103712,1,2,0:0:0:0:
39,317,103862,5,2,0:0:0:0:
472,357,104162,1,8,0:0:0:0:
206,73,104462,5,8,0:0:0:0:
231,354,104612,1,2,0:0:0:0:
208,106,104762,5,8,0:0:0:0:
228,319,104912,1,2,0:0:0:0:
235,302,104987,1,2,0:0:0:0:
249,292,105062,2,0,L|326:284,1,59.9999981689454,2|0,0:0|0:0,0:0:0:0:
187,230,105212,5,12,0:0:0:0:
374,83,105362,1,0,0:0:0:0:
406,318,105512,1,2,0:0:0:0:
206,216,105662,5,12,0:0:0:0:
376,106,105812,1,0,0:0:0:0:
384,308,105962,1,2,0:0:0:0:
228,207,106112,5,12,0:0:0:0:
372,129,106262,1,0,0:0:0:0:
366,293,106412,1,2,0:0:0:0:
251,204,106562,6,0,B|243:158|261:122|261:122|279:83|264:21,1,150,12|0,0:0|0:0,0:0:0:0:
192,80,106862,1,10,0:0:0:0:
346,32,107012,1,2,0:0:0:0:
256,192,107312,6,0,B|276:232|276:232|304:288|336:288|368:288|368:288|384:264|384:216|336:192|336:192|404:180|416:120|408:104|408:104|384:88|336:72|288:128|288:128|312:56|280:28|256:16|256:16|232:28|200:56|224:128|224:128|176:72|128:88|104:104|104:104|96:120|108:180|176:192|176:192|128:216|128:264|144:288|144:288|144:288|176:288|208:288|236:232|236:232|256:272|256:272|224:320|256:372,1,1438.79996750757,6|0,0:0|0:0,0:0:0:0:
