osu file format v14

[General]
AudioFilename: audio.mp3
AudioLeadIn: 0
PreviewTime: 85981
Countdown: 0
SampleSet: Normal
StackLeniency: 0.7
Mode: 1
LetterboxInBreaks: 0
WidescreenStoryboard: 0

[Editor]
Bookmarks: 982,8982,16982,22315,27648,32981,38315,43648,48981,54315,59648,64981,70315,75648,80981,86315,95648,96981,106315,107648,118315,119648,120315,120981,130315
DistanceSpacing: 0.8
BeatDivisor: 6
GridSize: 32
TimelineZoom: 2.4

[Metadata]
Title:Sweet* Witch* Girl*
TitleUnicode:Sweet* Witch* Girl*
Artist:Morimori Atsushi vs. uma
ArtistUnicode:モリモリあつし vs. uma
Creator:eiri-
Version:Kantan
Source:Muse Dash
Tags:Ayyri Electronic Video Game Instrumental Featured Artist FA
BeatmapID:2740304
BeatmapSetID:1316609

[Difficulty]
HPDrainRate:8
CircleSize:2
OverallDifficulty:3
ApproachRate:10
SliderMultiplier:1.4
SliderTickRate:1

[Events]
//Background and Video events
0,0,"Sweet Witch Girl.jpg",0,20
//Break Periods
//Storyboard Layer 0 (Background)
//Storyboard Layer 1 (Fail)
//Storyboard Layer 2 (Pass)
//Storyboard Layer 3 (Foreground)
//Storyboard Layer 4 (Overlay)
//Storyboard Sound Samples

[TimingPoints]
982,333.333333333333,3,1,0,50,1,0
16982,333.333333333333,4,1,0,75,1,0
22259,-100,4,1,0,75,0,0
23593,-100,4,1,0,50,0,0
27259,-100,4,1,0,75,0,0
27593,-100,4,1,0,60,0,0
32926,-100,4,1,0,75,0,0
38259,-100,4,1,0,80,0,0
43593,-100,4,1,0,90,0,0
58926,-100,4,1,0,100,0,0
59593,-100,4,1,0,90,0,0
64926,-100,4,1,0,75,0,0
66259,-100,4,1,0,50,0,0
68926,-100,4,1,0,60,0,0
70259,-100,4,1,0,75,0,0
74259,-100,4,1,0,80,0,0
75593,-100,4,1,0,50,0,0
79593,-100,4,1,0,60,0,0
80926,-100,4,1,0,75,0,0
82259,-100,4,1,0,80,0,0
83593,-100,4,1,0,85,0,0
84926,-100,4,1,0,90,0,0
86315,-100,4,1,0,100,0,1
95648,-100,4,1,0,100,0,0
96981,-100,4,1,0,100,0,1
106315,-100,4,1,0,100,0,0
107648,-100,4,1,0,100,0,1
118315,-100,4,1,0,75,0,0
119648,-100,4,1,0,100,0,1
120315,-100,4,1,0,100,0,0
120981,-100,4,1,0,100,0,1
130315,-100,4,1,0,100,0,0

[HitObjects]
256,192,982,5,0,0:0:0:0:
256,192,1315,1,8,0:0:0:0:
256,192,1648,1,8,0:0:0:0:
256,192,1981,1,0,0:0:0:0:
256,192,2981,1,0,0:0:0:0:
256,192,3648,1,0,0:0:0:0:
256,192,3981,1,8,0:0:0:0:
256,192,4648,1,8,0:0:0:0:
256,192,4981,1,0,0:0:0:0:
256,192,5315,1,8,0:0:0:0:
256,192,5648,1,8,0:0:0:0:
256,192,5981,1,0,0:0:0:0:
256,192,6981,1,0,0:0:0:0:
256,192,7648,1,8,0:0:0:0:
256,192,7981,1,8,0:0:0:0:
256,192,8648,1,8,0:0:0:0:
256,192,8981,1,0,0:0:0:0:
256,192,9315,1,8,0:0:0:0:
256,192,9648,1,8,0:0:0:0:
256,192,9981,1,0,0:0:0:0:
256,192,10981,1,0,0:0:0:0:
256,192,11648,1,0,0:0:0:0:
256,192,11981,1,8,0:0:0:0:
256,192,12648,1,8,0:0:0:0:
256,192,12981,1,0,0:0:0:0:
256,192,13981,1,0,0:0:0:0:
256,192,14981,1,8,0:0:0:0:
256,192,16981,1,12,0:0:0:0:
256,192,17647,1,12,0:0:0:0:
256,192,18314,1,12,0:0:0:0:
256,192,18648,1,12,0:0:0:0:
256,192,18980,1,12,0:0:0:0:
256,192,19647,1,12,0:0:0:0:
256,192,20314,1,12,0:0:0:0:
256,192,20980,1,12,0:0:0:0:
256,192,21314,1,4,0:0:0:0:
256,192,21647,1,12,0:0:0:0:
256,192,22314,1,12,0:0:0:0:
256,192,23647,1,8,0:0:0:0:
256,192,24980,1,8,0:0:0:0:
256,192,26314,1,8,0:0:0:0:
256,192,27314,1,0,0:0:0:0:
256,192,27647,1,12,0:0:0:0:
256,192,28314,1,8,0:0:0:0:
256,192,28980,1,8,0:0:0:0:
256,192,29647,1,8,0:0:0:0:
256,192,29980,1,8,0:0:0:0:
256,192,30314,1,12,0:0:0:0:
256,192,30980,1,12,0:0:0:0:
256,192,31314,1,0,0:0:0:0:
256,192,31647,1,12,0:0:0:0:
256,192,32314,1,0,0:0:0:0:
256,192,32980,1,12,0:0:0:0:
256,192,33647,1,0,0:0:0:0:
256,192,33980,1,8,0:0:0:0:
256,192,34314,1,0,0:0:0:0:
256,192,34980,1,8,0:0:0:0:
256,192,35314,1,0,0:0:0:0:
256,192,35647,1,12,0:0:0:0:
256,192,36314,1,12,0:0:0:0:
256,192,36980,1,12,0:0:0:0:
256,192,38314,1,4,0:0:0:0:
256,192,38648,1,8,0:0:0:0:
256,192,38981,1,0,0:0:0:0:
256,192,39648,1,0,0:0:0:0:
256,192,40314,1,0,0:0:0:0:
256,192,40648,1,8,0:0:0:0:
256,192,40981,1,12,0:0:0:0:
256,192,41648,1,12,0:0:0:0:
256,192,42314,1,12,0:0:0:0:
256,192,42648,1,4,0:0:0:0:
256,192,42981,1,12,0:0:0:0:
256,192,43648,1,4,0:0:0:0:
256,192,43981,1,4,0:0:0:0:
256,192,44315,1,4,0:0:0:0:
256,192,44981,1,4,0:0:0:0:
256,192,45315,1,4,0:0:0:0:
256,192,45648,1,4,0:0:0:0:
256,192,46315,1,4,0:0:0:0:
256,192,46648,1,4,0:0:0:0:
256,192,46981,1,4,0:0:0:0:
256,192,47648,1,4,0:0:0:0:
256,192,47981,1,4,0:0:0:0:
256,192,48315,1,4,0:0:0:0:
256,192,48981,1,4,0:0:0:0:
256,192,49315,1,4,0:0:0:0:
256,192,49648,1,4,0:0:0:0:
256,192,50315,1,4,0:0:0:0:
256,192,50648,1,4,0:0:0:0:
256,192,50981,1,4,0:0:0:0:
256,192,51648,1,4,0:0:0:0:
256,192,52315,1,4,0:0:0:0:
256,192,52981,1,4,0:0:0:0:
256,192,53315,1,4,0:0:0:0:
256,192,53648,1,4,0:0:0:0:
256,192,54315,1,4,0:0:0:0:
256,192,54648,1,4,0:0:0:0:
256,192,54981,1,4,0:0:0:0:
256,192,55648,1,4,0:0:0:0:
256,192,55981,1,4,0:0:0:0:
256,192,56315,1,4,0:0:0:0:
256,192,56981,1,4,0:0:0:0:
256,192,57315,1,4,0:0:0:0:
256,192,57648,1,4,0:0:0:0:
256,192,58315,1,4,0:0:0:0:
256,192,58648,1,4,0:0:0:0:
256,192,58981,1,12,0:0:0:0:
256,192,59648,1,4,0:0:0:0:
256,192,59981,1,4,0:0:0:0:
256,192,60315,1,4,0:0:0:0:
256,192,60981,1,4,0:0:0:0:
256,192,61315,1,4,0:0:0:0:
256,192,61648,1,4,0:0:0:0:
256,192,62315,1,4,0:0:0:0:
256,192,62981,1,4,0:0:0:0:
256,192,63648,1,4,0:0:0:0:
256,192,63981,1,4,0:0:0:0:
256,192,64315,1,4,0:0:0:0:
256,192,64981,1,4,0:0:0:0:
256,192,66315,1,0,0:0:0:0:
256,192,67648,1,0,0:0:0:0:
256,192,68981,1,12,0:0:0:0:
256,192,69648,1,12,0:0:0:0:
256,192,69981,1,12,0:0:0:0:
256,192,70315,1,4,0:0:0:0:
256,192,70981,1,4,0:0:0:0:
256,192,71648,1,4,0:0:0:0:
256,192,72315,1,4,0:0:0:0:
256,192,74315,1,4,0:0:0:0:
256,192,75648,1,12,0:0:0:0:
256,192,76315,1,8,0:0:0:0:
256,192,76981,1,8,0:0:0:0:
256,192,77648,1,8,0:0:0:0:
256,192,78315,1,8,0:0:0:0:
256,192,78981,1,8,0:0:0:0:
256,192,79648,1,12,0:0:0:0:
256,192,79981,1,12,0:0:0:0:
256,192,80315,1,12,0:0:0:0:
256,192,80981,1,12,0:0:0:0:
256,192,81648,1,8,0:0:0:0:
256,192,82315,1,8,0:0:0:0:
256,192,82648,1,8,0:0:0:0:
256,192,82981,1,8,0:0:0:0:
256,192,83648,1,12,0:0:0:0:
256,192,84315,1,12,0:0:0:0:
256,192,84981,1,4,0:0:0:0:
256,192,85315,1,4,0:0:0:0:
256,192,85648,1,4,0:0:0:0:
256,192,86315,1,12,0:0:0:0:
256,192,86648,1,8,0:0:0:0:
256,192,86870,1,0,0:0:0:0:
256,192,87204,1,8,0:0:0:0:
256,192,87648,1,8,0:0:0:0:
256,192,88648,1,8,0:0:0:0:
256,192,88981,1,12,0:0:0:0:
256,192,89315,1,8,0:0:0:0:
256,192,89537,1,0,0:0:0:0:
256,192,89981,1,8,0:0:0:0:
256,192,90315,1,12,0:0:0:0:
256,192,91315,1,0,0:0:0:0:
256,192,91648,1,12,0:0:0:0:
256,192,91981,1,8,0:0:0:0:
256,192,92203,1,0,0:0:0:0:
256,192,92648,1,8,0:0:0:0:
256,192,92981,1,12,0:0:0:0:
256,192,93981,1,8,0:0:0:0:
256,192,94314,1,12,0:0:0:0:
256,192,94981,1,12,0:0:0:0:
256,192,95648,1,12,0:0:0:0:
256,192,95981,1,12,0:0:0:0:
256,192,96315,1,12,0:0:0:0:
256,192,96981,1,12,0:0:0:0:
256,192,97315,1,8,0:0:0:0:
256,192,97648,1,0,0:0:0:0:
256,192,98315,1,8,0:0:0:0:
256,192,98981,1,8,0:0:0:0:
256,192,99315,1,0,0:0:0:0:
256,192,99648,1,12,0:0:0:0:
256,192,100315,1,0,0:0:0:0:
256,192,100981,1,12,0:0:0:0:
256,192,101314,1,4,0:0:0:0:
256,192,101647,1,12,0:0:0:0:
256,192,101980,1,4,0:0:0:0:
256,192,102314,1,12,0:0:0:0:
256,192,102981,1,8,0:0:0:0:
256,192,103315,1,0,0:0:0:0:
256,192,103648,1,12,0:0:0:0:
256,192,104315,1,0,0:0:0:0:
256,192,104648,1,8,0:0:0:0:
256,192,104981,1,12,0:0:0:0:
256,192,105648,1,12,0:0:0:0:
256,192,105981,1,0,0:0:0:0:
256,192,106315,1,12,0:0:0:0:
256,192,106649,1,12,0:0:0:0:
256,192,106982,1,4,0:0:0:0:
256,192,107649,1,4,0:0:0:0:
256,192,108315,1,4,0:0:0:0:
256,192,108981,1,4,0:0:0:0:
256,192,110315,1,4,0:0:0:0:
256,192,110981,1,4,0:0:0:0:
256,192,111648,1,8,0:0:0:0:
256,192,112648,1,0,0:0:0:0:
256,192,112981,1,12,0:0:0:0:
256,192,113314,1,0,0:0:0:0:
256,192,113536,1,8,0:0:0:0:
256,192,114314,1,12,0:0:0:0:
256,192,114647,1,8,0:0:0:0:
256,192,114870,1,0,0:0:0:0:
256,192,115314,1,8,0:0:0:0:
256,192,115647,1,12,0:0:0:0:
256,192,116314,1,12,0:0:0:0:
256,192,116647,1,0,0:0:0:0:
256,192,116981,1,12,0:0:0:0:
256,192,117315,1,12,0:0:0:0:
256,192,117648,1,12,0:0:0:0:
256,192,118315,1,0,0:0:0:0:
256,192,118981,1,8,0:0:0:0:
256,192,119648,1,4,0:0:0:0:
256,192,120981,1,12,0:0:0:0:
256,192,121648,1,4,0:0:0:0:
256,192,122315,1,12,0:0:0:0:
256,192,122981,1,4,0:0:0:0:
256,192,123648,1,12,0:0:0:0:
256,192,123981,1,12,0:0:0:0:
256,192,124315,1,12,0:0:0:0:
256,192,124648,1,12,0:0:0:0:
256,192,124981,1,8,0:0:0:0:
256,192,125648,1,8,0:0:0:0:
256,192,125981,1,8,0:0:0:0:
256,192,126315,1,8,0:0:0:0:
256,192,126981,1,8,0:0:0:0:
256,192,127315,1,8,0:0:0:0:
256,192,127648,1,8,0:0:0:0:
256,192,128315,1,8,0:0:0:0:
256,192,128648,1,8,0:0:0:0:
256,192,128981,1,4,0:0:0:0:
256,192,129315,1,4,0:0:0:0:
256,192,129648,1,4,0:0:0:0:
256,192,130315,1,4,0:0:0:0:
