osu file format v14

[General]
AudioFilename: audio.mp3
AudioLeadIn: 0
PreviewTime: 85981
Countdown: 0
SampleSet: Normal
StackLeniency: 0.7
Mode: 1
LetterboxInBreaks: 0
WidescreenStoryboard: 0

[Editor]
Bookmarks: 982,8982,16982,22315,27648,32981,38315,43648,48981,54315,59648,64981,70315,75648,80981,86315,95648,96981,106315,107648,118315,119648,120315,120981,130315
DistanceSpacing: 0.8
BeatDivisor: 6
GridSize: 32
TimelineZoom: 2.4

[Metadata]
Title:Sweet* Witch* Girl*
TitleUnicode:Sweet* Witch* Girl*
Artist:Morimori Atsushi vs. uma
ArtistUnicode:モリモリあつし vs. uma
Creator:eiri-
Version:Inner Oni
Source:Muse Dash
Tags:Ayyri Electronic Video Game Instrumental Featured Artist FA
BeatmapID:2728072
BeatmapSetID:1316609

[Difficulty]
HPDrainRate:6
CircleSize:2
OverallDifficulty:6
ApproachRate:10
SliderMultiplier:1.4
SliderTickRate:1

[Events]
//Background and Video events
0,0,"Sweet Witch Girl.jpg",0,20
//Break Periods
//Storyboard Layer 0 (Background)
//Storyboard Layer 1 (Fail)
//Storyboard Layer 2 (Pass)
//Storyboard Layer 3 (Foreground)
//Storyboard Layer 4 (Overlay)
//Storyboard Sound Samples

[TimingPoints]
982,333.333333333333,3,1,0,50,1,0
982,-125,3,1,0,50,0,0
13927,-117.647058823529,3,1,0,50,0,0
14927,-111.111111111111,3,1,0,50,0,0
16259,-100,3,1,0,60,0,0
16982,333.333333333333,4,1,0,75,1,0
20926,-86.9565217391304,4,1,0,75,0,0
21259,-95.2380952380952,4,1,0,75,0,0
21593,-86.9565217391304,4,1,0,75,0,0
21926,-100,4,1,0,75,0,0
22259,-90.9090909090909,4,1,0,75,0,0
23593,-111.111111111111,4,1,0,50,0,0
27259,-86.9565217391304,4,1,0,75,0,0
27593,-100,4,1,0,60,0,0
32926,-100,4,1,0,75,0,0
38259,-100,4,1,0,80,0,0
43259,-86.9565217391304,4,1,0,100,0,0
43593,-100,4,1,0,90,0,0
45926,-100,4,1,0,100,0,0
46259,-100,4,1,0,90,0,0
48593,-86.9565217391304,4,1,0,100,0,0
48926,-100,4,1,0,90,0,0
51259,-100,4,1,0,100,0,0
51593,-100,4,1,0,90,0,0
53926,-86.9565217391304,4,1,0,100,0,0
54259,-100,4,1,0,90,0,0
56593,-100,4,1,0,100,0,0
56926,-100,4,1,0,90,0,0
58926,-100,4,1,0,100,0,0
59593,-100,4,1,0,90,0,0
61926,-100,4,1,0,100,0,0
62259,-100,4,1,0,90,0,0
64593,-86.9565217391304,4,1,0,80,0,0
64926,-100,4,1,0,75,0,0
65481,-111.111111111111,4,1,0,50,0,0
68259,-107.52688172043,4,1,0,50,0,0
68593,-105.263157894737,4,1,0,50,0,0
68926,-103.092783505155,4,1,0,60,0,0
69259,-100,4,1,0,60,0,0
69593,-97.0873786407767,4,1,0,60,0,0
69926,-95.2380952380952,4,1,0,60,0,0
70259,-90.9090909090909,4,1,0,75,0,0
70926,-93.4579439252336,4,1,0,75,0,0
71593,-95.2380952380952,4,1,0,75,0,0
72259,-97.0873786407767,4,1,0,75,0,0
72926,-100,4,1,0,75,0,0
74259,-86.9565217391304,4,1,0,80,0,0
75593,-111.111111111111,4,1,0,50,0,0
78148,-107.52688172043,4,1,0,50,0,0
78259,-105.263157894737,4,1,0,50,0,0
79593,-100,4,1,0,60,0,0
80926,-95.2380952380952,4,1,0,75,0,0
82259,-93.4579439252336,4,1,0,80,0,0
83593,-93.4579439252336,4,1,0,85,0,0
84704,-92.5925925925926,4,1,0,85,0,0
84815,-91.743119266055,4,1,0,85,0,0
84926,-90.9090909090909,4,1,0,90,0,0
85259,-86.9565217391304,4,1,0,90,0,0
85593,-83.3333333333333,4,1,0,90,0,0
85926,-80,4,1,0,95,0,0
86315,-100,4,1,0,100,0,1
95648,-100,4,1,0,100,0,0
96981,-100,4,1,0,100,0,1
106315,-100,4,1,0,100,0,0
107648,-100,4,1,0,100,0,1
118315,-111.111111111111,4,1,0,75,0,0
119648,-86.9565217391304,4,1,0,100,0,1
120315,-86.9565217391304,4,1,0,100,0,0
120981,-100,4,1,0,100,0,1
123593,-95.2380952380952,4,1,0,100,0,1
124815,-93.4579439252336,4,1,0,100,0,1
124926,-90.9090909090909,4,1,0,100,0,1
129926,-86.9565217391304,4,1,0,100,0,1
130315,-100,4,1,0,100,0,0

[HitObjects]
256,192,982,5,0,0:0:0:0:
256,192,1315,1,8,0:0:0:0:
256,192,1648,1,8,0:0:0:0:
256,192,1981,1,0,0:0:0:0:
256,192,2315,1,8,0:0:0:0:
256,192,2648,1,8,0:0:0:0:
256,192,2981,1,0,0:0:0:0:
256,192,3315,1,8,0:0:0:0:
256,192,3648,1,0,0:0:0:0:
256,192,3981,1,8,0:0:0:0:
256,192,4648,1,8,0:0:0:0:
256,192,4981,1,0,0:0:0:0:
256,192,5315,1,8,0:0:0:0:
256,192,5648,1,8,0:0:0:0:
256,192,5981,1,0,0:0:0:0:
256,192,6315,1,8,0:0:0:0:
256,192,6648,1,8,0:0:0:0:
256,192,6981,1,0,0:0:0:0:
256,192,7648,1,8,0:0:0:0:
256,192,7981,1,8,0:0:0:0:
256,192,8648,1,8,0:0:0:0:
256,192,8981,1,0,0:0:0:0:
256,192,9315,1,8,0:0:0:0:
256,192,9648,1,8,0:0:0:0:
256,192,9981,1,0,0:0:0:0:
256,192,10315,1,8,0:0:0:0:
256,192,10648,1,8,0:0:0:0:
256,192,10981,1,0,0:0:0:0:
256,192,11315,1,8,0:0:0:0:
256,192,11648,1,0,0:0:0:0:
256,192,11981,1,8,0:0:0:0:
256,192,12648,1,8,0:0:0:0:
256,192,12981,1,0,0:0:0:0:
256,192,13981,1,0,0:0:0:0:
256,192,14981,1,8,0:0:0:0:
256,192,16315,1,8,0:0:0:0:
256,192,16426,1,8,0:0:0:0:
256,192,16537,1,0,0:0:0:0:
256,192,16648,1,8,0:0:0:0:
256,192,16759,1,0,0:0:0:0:
256,192,16870,1,0,0:0:0:0:
256,192,16981,1,12,0:0:0:0:
256,192,17314,1,4,0:0:0:0:
256,192,17647,1,12,0:0:0:0:
256,192,17981,1,4,0:0:0:0:
256,192,18314,1,12,0:0:0:0:
256,192,18536,1,0,0:0:0:0:
256,192,18647,1,8,0:0:0:0:
256,192,18758,1,0,0:0:0:0:
256,192,18869,1,0,0:0:0:0:
256,192,18980,1,8,0:0:0:0:
256,192,19092,1,0,0:0:0:0:
256,192,19203,1,0,0:0:0:0:
256,192,19314,1,8,0:0:0:0:
256,192,19425,1,0,0:0:0:0:
256,192,19536,1,0,0:0:0:0:
256,192,19647,1,12,0:0:0:0:
256,192,19869,1,12,0:0:0:0:
256,192,20314,1,12,0:0:0:0:
256,192,20536,1,12,0:0:0:0:
256,192,20980,1,12,0:0:0:0:
256,192,21314,1,4,0:0:0:0:
256,192,21647,1,12,0:0:0:0:
256,192,21980,1,0,0:0:0:0:
256,192,22314,1,12,0:0:0:0:
256,192,23647,1,8,0:0:0:0:
256,192,24980,1,8,0:0:0:0:
256,192,26314,1,8,0:0:0:0:
256,192,27314,1,0,0:0:0:0:
256,192,27647,1,12,0:0:0:0:
256,192,27980,1,8,0:0:0:0:
256,192,28314,1,8,0:0:0:0:
256,192,28647,1,8,0:0:0:0:
256,192,28980,1,8,0:0:0:0:
256,192,29314,1,8,0:0:0:0:
256,192,29647,1,8,0:0:0:0:
256,192,29869,1,0,0:0:0:0:
256,192,29980,1,8,0:0:0:0:
256,192,30092,1,0,0:0:0:0:
256,192,30203,1,0,0:0:0:0:
256,192,30314,1,12,0:0:0:0:
256,192,30647,1,0,0:0:0:0:
256,192,30980,1,8,0:0:0:0:
256,192,31092,1,8,0:0:0:0:
256,192,31203,1,0,0:0:0:0:
256,192,31314,1,8,0:0:0:0:
256,192,31425,1,0,0:0:0:0:
256,192,31536,1,0,0:0:0:0:
256,192,31647,1,12,0:0:0:0:
256,192,32314,1,0,0:0:0:0:
256,192,32425,1,0,0:0:0:0:
256,192,32536,1,0,0:0:0:0:
256,192,32647,1,8,0:0:0:0:
256,192,32758,1,8,0:0:0:0:
256,192,32869,1,8,0:0:0:0:
256,192,32980,1,4,0:0:0:0:
256,192,33203,1,0,0:0:0:0:
256,192,33314,1,8,0:0:0:0:
256,192,33536,1,8,0:0:0:0:
256,192,33647,1,8,0:0:0:0:
256,192,33869,1,0,0:0:0:0:
256,192,33980,1,8,0:0:0:0:
256,192,34203,1,8,0:0:0:0:
256,192,34314,1,0,0:0:0:0:
256,192,34536,1,0,0:0:0:0:
256,192,34647,1,8,0:0:0:0:
256,192,34869,1,8,0:0:0:0:
256,192,34980,1,8,0:0:0:0:
256,192,35203,1,0,0:0:0:0:
256,192,35314,1,8,0:0:0:0:
256,192,35647,1,12,0:0:0:0:
256,192,35980,1,0,0:0:0:0:
256,192,36092,1,0,0:0:0:0:
256,192,36203,1,0,0:0:0:0:
256,192,36314,1,12,0:0:0:0:
256,192,36647,1,0,0:0:0:0:
256,192,36758,1,0,0:0:0:0:
256,192,36869,1,0,0:0:0:0:
256,192,36980,1,12,0:0:0:0:
256,192,37203,1,8,0:0:0:0:
256,192,37315,1,0,0:0:0:0:
256,192,37536,1,8,0:0:0:0:
256,192,37648,1,0,0:0:0:0:
256,192,37869,1,8,0:0:0:0:
256,192,37980,1,8,0:0:0:0:
256,192,38204,1,8,0:0:0:0:
256,192,38314,1,4,0:0:0:0:
256,192,38537,1,0,0:0:0:0:
256,192,38648,1,8,0:0:0:0:
256,192,38870,1,8,0:0:0:0:
256,192,38981,1,8,0:0:0:0:
256,192,39203,1,0,0:0:0:0:
256,192,39314,1,8,0:0:0:0:
256,192,39537,1,8,0:0:0:0:
256,192,39648,1,0,0:0:0:0:
256,192,39870,1,0,0:0:0:0:
256,192,39981,1,8,0:0:0:0:
256,192,40203,1,8,0:0:0:0:
256,192,40314,1,8,0:0:0:0:
256,192,40537,1,0,0:0:0:0:
256,192,40648,1,8,0:0:0:0:
256,192,40758,1,0,0:0:0:0:
256,192,40869,1,0,0:0:0:0:
256,192,40981,1,12,0:0:0:0:
256,192,41203,1,4,0:0:0:0:
256,192,41648,1,12,0:0:0:0:
256,192,41869,1,4,0:0:0:0:
256,192,42314,1,12,0:0:0:0:
256,192,42648,1,4,0:0:0:0:
256,192,42981,1,12,0:0:0:0:
256,192,43315,1,12,0:0:0:0:
256,192,43648,1,4,0:0:0:0:
256,192,43981,1,4,0:0:0:0:
256,192,44315,1,4,0:0:0:0:
256,192,44648,1,4,0:0:0:0:
256,192,44981,1,4,0:0:0:0:
256,192,45315,1,4,0:0:0:0:
256,192,45648,1,4,0:0:0:0:
256,192,45981,1,12,0:0:0:0:
256,192,46204,1,12,0:0:0:0:
256,192,46315,1,4,0:0:0:0:
256,192,46648,1,4,0:0:0:0:
256,192,46981,1,4,0:0:0:0:
256,192,47315,1,4,0:0:0:0:
256,192,47648,1,4,0:0:0:0:
256,192,47981,1,4,0:0:0:0:
256,192,48315,1,4,0:0:0:0:
256,192,48648,1,12,0:0:0:0:
256,192,48981,1,4,0:0:0:0:
256,192,49315,1,4,0:0:0:0:
256,192,49648,1,4,0:0:0:0:
256,192,49981,1,4,0:0:0:0:
256,192,50315,1,4,0:0:0:0:
256,192,50648,1,4,0:0:0:0:
256,192,50981,1,4,0:0:0:0:
256,192,51315,1,12,0:0:0:0:
256,192,51537,1,12,0:0:0:0:
256,192,51648,1,4,0:0:0:0:
256,192,52315,1,4,0:0:0:0:
256,192,52981,1,4,0:0:0:0:
256,192,53315,1,4,0:0:0:0:
256,192,53648,1,4,0:0:0:0:
256,192,53981,1,12,0:0:0:0:
256,192,54315,1,4,0:0:0:0:
256,192,54648,1,4,0:0:0:0:
256,192,54981,1,4,0:0:0:0:
256,192,55315,1,4,0:0:0:0:
256,192,55648,1,4,0:0:0:0:
256,192,55981,1,4,0:0:0:0:
256,192,56315,1,4,0:0:0:0:
256,192,56648,1,12,0:0:0:0:
256,192,56870,1,12,0:0:0:0:
256,192,56981,1,4,0:0:0:0:
256,192,57315,1,4,0:0:0:0:
256,192,57648,1,4,0:0:0:0:
256,192,57981,1,4,0:0:0:0:
256,192,58315,1,4,0:0:0:0:
256,192,58648,1,4,0:0:0:0:
256,192,58981,1,12,0:0:0:0:
256,192,59204,1,4,0:0:0:0:
256,192,59315,1,12,0:0:0:0:
256,192,59648,1,4,0:0:0:0:
256,192,59981,1,4,0:0:0:0:
256,192,60315,1,4,0:0:0:0:
256,192,60648,1,4,0:0:0:0:
256,192,60981,1,4,0:0:0:0:
256,192,61315,1,4,0:0:0:0:
256,192,61648,1,4,0:0:0:0:
256,192,61981,1,12,0:0:0:0:
256,192,62204,1,12,0:0:0:0:
256,192,62315,1,4,0:0:0:0:
256,192,62981,1,4,0:0:0:0:
256,192,63648,1,4,0:0:0:0:
256,192,63981,1,4,0:0:0:0:
256,192,64315,1,4,0:0:0:0:
256,192,64648,1,12,0:0:0:0:
256,192,64981,1,4,0:0:0:0:
256,192,65537,1,0,0:0:0:0:
256,192,65648,1,8,0:0:0:0:
256,192,66315,1,0,0:0:0:0:
256,192,66870,1,0,0:0:0:0:
256,192,66981,1,8,0:0:0:0:
256,192,67537,1,0,0:0:0:0:
256,192,67648,1,0,0:0:0:0:
256,192,68204,1,0,0:0:0:0:
256,192,68315,1,8,0:0:0:0:
256,192,68537,1,8,0:0:0:0:
256,192,68648,1,0,0:0:0:0:
256,192,68870,1,0,0:0:0:0:
256,192,68981,1,12,0:0:0:0:
256,192,69315,1,12,0:0:0:0:
256,192,69648,1,12,0:0:0:0:
256,192,69981,1,12,0:0:0:0:
256,192,70315,1,4,0:0:0:0:
256,192,70537,1,8,0:0:0:0:
256,192,70759,1,8,0:0:0:0:
256,192,70981,1,4,0:0:0:0:
256,192,71204,1,8,0:0:0:0:
256,192,71426,1,8,0:0:0:0:
256,192,71648,1,4,0:0:0:0:
256,192,71870,1,8,0:0:0:0:
256,192,72093,1,8,0:0:0:0:
256,192,72315,1,4,0:0:0:0:
256,192,72537,1,8,0:0:0:0:
256,192,72759,1,8,0:0:0:0:
256,192,74315,1,4,0:0:0:0:
256,192,74426,1,4,0:0:0:0:
256,192,74537,1,4,0:0:0:0:
256,192,74648,1,4,0:0:0:0:
256,192,74870,1,4,0:0:0:0:
256,192,74981,1,4,0:0:0:0:
256,192,75648,1,12,0:0:0:0:
256,192,75981,1,8,0:0:0:0:
256,192,76315,1,8,0:0:0:0:
256,192,76648,1,8,0:0:0:0:
256,192,76981,1,8,0:0:0:0:
256,192,77315,1,8,0:0:0:0:
256,192,77648,1,8,0:0:0:0:
256,192,77981,1,8,0:0:0:0:
256,192,78204,1,0,0:0:0:0:
256,192,78315,1,8,0:0:0:0:
256,192,78648,1,8,0:0:0:0:
256,192,78981,1,8,0:0:0:0:
256,192,79315,1,8,0:0:0:0:
256,192,79648,1,12,0:0:0:0:
256,192,79981,1,12,0:0:0:0:
256,192,80315,1,12,0:0:0:0:
256,192,80537,1,0,0:0:0:0:
256,192,80648,1,12,0:0:0:0:
256,192,80981,1,12,0:0:0:0:
256,192,81315,1,8,0:0:0:0:
256,192,81648,1,8,0:0:0:0:
256,192,81981,1,8,0:0:0:0:
256,192,82315,1,8,0:0:0:0:
256,192,82648,1,8,0:0:0:0:
256,192,82981,1,8,0:0:0:0:
256,192,83204,1,0,0:0:0:0:
256,192,83315,1,8,0:0:0:0:
256,192,83426,1,0,0:0:0:0:
256,192,83537,1,0,0:0:0:0:
256,192,83648,1,12,0:0:0:0:
256,192,83870,1,8,0:0:0:0:
256,192,83981,1,0,0:0:0:0:
256,192,84204,1,0,0:0:0:0:
256,192,84315,1,8,0:0:0:0:
256,192,84426,1,0,0:0:0:0:
256,192,84537,1,0,0:0:0:0:
256,192,84648,1,8,0:0:0:0:
256,192,84759,1,8,0:0:0:0:
256,192,84870,1,8,0:0:0:0:
256,192,84981,1,4,0:0:0:0:
256,192,85315,1,4,0:0:0:0:
256,192,85648,1,4,0:0:0:0:
256,192,85981,1,12,0:0:0:0:
256,192,86315,1,8,0:0:0:0:
256,192,86370,1,8,0:0:0:0:
256,192,86426,1,8,0:0:0:0:
256,192,86537,1,0,0:0:0:0:
256,192,86648,1,8,0:0:0:0:
256,192,86870,1,8,0:0:0:0:
256,192,86981,1,0,0:0:0:0:
256,192,87204,1,8,0:0:0:0:
256,192,87537,1,0,0:0:0:0:
256,192,87648,1,8,0:0:0:0:
256,192,87870,1,8,0:0:0:0:
256,192,87981,1,0,0:0:0:0:
256,192,88204,1,8,0:0:0:0:
256,192,88315,1,8,0:0:0:0:
256,192,88537,1,0,0:0:0:0:
256,192,88648,1,8,0:0:0:0:
256,192,88759,1,0,0:0:0:0:
256,192,88870,1,0,0:0:0:0:
256,192,88981,1,12,0:0:0:0:
256,192,89204,1,0,0:0:0:0:
256,192,89315,1,8,0:0:0:0:
256,192,89537,1,8,0:0:0:0:
256,192,89648,1,0,0:0:0:0:
256,192,89870,1,8,0:0:0:0:
256,192,89981,1,8,0:0:0:0:
256,192,90204,1,0,0:0:0:0:
256,192,90315,1,8,0:0:0:0:
256,192,90370,1,8,0:0:0:0:
256,192,90426,1,8,0:0:0:0:
256,192,90537,1,0,0:0:0:0:
256,192,90648,1,8,0:0:0:0:
256,192,90870,1,8,0:0:0:0:
256,192,90981,1,0,0:0:0:0:
256,192,91204,1,0,0:0:0:0:
256,192,91315,1,8,0:0:0:0:
256,192,91426,1,8,0:0:0:0:
256,192,91537,1,0,0:0:0:0:
256,192,91648,1,12,0:0:0:0:
256,192,91870,1,0,0:0:0:0:
256,192,91981,1,8,0:0:0:0:
256,192,92203,1,8,0:0:0:0:
256,192,92315,1,0,0:0:0:0:
256,192,92537,1,8,0:0:0:0:
256,192,92648,1,8,0:0:0:0:
256,192,92870,1,0,0:0:0:0:
256,192,92981,1,12,0:0:0:0:
256,192,93203,1,8,0:0:0:0:
256,192,93314,1,0,0:0:0:0:
256,192,93537,1,8,0:0:0:0:
256,192,93870,1,0,0:0:0:0:
256,192,93981,1,8,0:0:0:0:
256,192,94093,1,0,0:0:0:0:
256,192,94204,1,0,0:0:0:0:
256,192,94314,1,12,0:0:0:0:
256,192,94537,1,0,0:0:0:0:
256,192,94648,1,8,0:0:0:0:
256,192,94759,1,8,0:0:0:0:
256,192,94870,1,0,0:0:0:0:
256,192,94981,1,8,0:0:0:0:
256,192,95093,1,0,0:0:0:0:
256,192,95204,1,0,0:0:0:0:
256,192,95314,1,8,0:0:0:0:
256,192,95426,1,8,0:0:0:0:
256,192,95537,1,0,0:0:0:0:
256,192,95648,1,12,0:0:0:0:
256,192,95981,1,12,0:0:0:0:
256,192,96315,1,12,0:0:0:0:
256,192,96648,1,0,0:0:0:0:
256,192,96981,1,12,0:0:0:0:
256,192,97204,1,0,0:0:0:0:
256,192,97315,1,8,0:0:0:0:
256,192,97426,1,8,0:0:0:0:
256,192,97537,1,0,0:0:0:0:
256,192,97648,1,8,0:0:0:0:
256,192,97870,1,0,0:0:0:0:
256,192,97981,1,8,0:0:0:0:
256,192,98093,1,0,0:0:0:0:
256,192,98204,1,0,0:0:0:0:
256,192,98315,1,0,0:0:0:0:
256,192,98537,1,8,0:0:0:0:
256,192,98648,1,0,0:0:0:0:
256,192,98759,1,0,0:0:0:0:
256,192,98870,1,8,0:0:0:0:
256,192,98981,1,0,0:0:0:0:
256,192,99204,1,8,0:0:0:0:
256,192,99315,1,0,0:0:0:0:
256,192,99537,1,0,0:0:0:0:
256,192,99648,1,12,0:0:0:0:
256,192,99870,1,8,0:0:0:0:
256,192,99981,1,0,0:0:0:0:
256,192,100093,1,0,0:0:0:0:
256,192,100204,1,8,0:0:0:0:
256,192,100315,1,0,0:0:0:0:
256,192,100537,1,0,0:0:0:0:
256,192,100648,1,8,0:0:0:0:
256,192,100759,1,8,0:0:0:0:
256,192,100870,1,0,0:0:0:0:
256,192,100981,1,12,0:0:0:0:
256,192,101203,1,0,0:0:0:0:
256,192,101314,1,8,0:0:0:0:
256,192,101425,1,0,0:0:0:0:
256,192,101536,1,0,0:0:0:0:
256,192,101647,1,8,0:0:0:0:
256,192,101869,1,0,0:0:0:0:
256,192,101980,1,8,0:0:0:0:
256,192,102092,1,8,0:0:0:0:
256,192,102203,1,0,0:0:0:0:
256,192,102314,1,12,0:0:0:0:
256,192,102537,1,0,0:0:0:0:
256,192,102648,1,8,0:0:0:0:
256,192,102759,1,0,0:0:0:0:
256,192,102870,1,0,0:0:0:0:
256,192,102981,1,0,0:0:0:0:
256,192,103204,1,0,0:0:0:0:
256,192,103315,1,8,0:0:0:0:
256,192,103426,1,8,0:0:0:0:
256,192,103537,1,0,0:0:0:0:
256,192,103648,1,12,0:0:0:0:
256,192,103870,1,8,0:0:0:0:
256,192,103981,1,0,0:0:0:0:
256,192,104093,1,0,0:0:0:0:
256,192,104204,1,8,0:0:0:0:
256,192,104315,1,0,0:0:0:0:
256,192,104537,1,0,0:0:0:0:
256,192,104648,1,8,0:0:0:0:
256,192,104759,1,0,0:0:0:0:
256,192,104870,1,0,0:0:0:0:
256,192,104981,1,12,0:0:0:0:
256,192,105204,1,8,0:0:0:0:
256,192,105315,1,0,0:0:0:0:
256,192,105537,1,0,0:0:0:0:
256,192,105648,1,12,0:0:0:0:
256,192,105870,1,0,0:0:0:0:
256,192,105981,1,8,0:0:0:0:
256,192,106093,1,8,0:0:0:0:
256,192,106204,1,0,0:0:0:0:
256,192,106315,1,12,0:0:0:0:
256,192,106649,1,12,0:0:0:0:
256,192,106982,1,4,0:0:0:0:
256,192,107315,1,12,0:0:0:0:
256,192,107649,1,4,0:0:0:0:
256,192,107759,1,4,0:0:0:0:
256,192,107870,1,4,0:0:0:0:
256,192,107981,1,4,0:0:0:0:
256,192,108315,1,4,0:0:0:0:
256,192,108648,1,4,0:0:0:0:
256,192,108870,1,4,0:0:0:0:
256,192,108981,1,4,0:0:0:0:
256,192,109315,1,4,0:0:0:0:
256,192,109648,1,4,0:0:0:0:
256,192,109870,1,4,0:0:0:0:
256,192,109981,1,12,0:0:0:0:
256,192,110315,1,4,0:0:0:0:
256,192,110426,1,4,0:0:0:0:
256,192,110537,1,4,0:0:0:0:
256,192,110648,1,4,0:0:0:0:
256,192,110870,1,4,0:0:0:0:
256,192,110981,1,4,0:0:0:0:
256,192,111315,1,4,0:0:0:0:
256,192,111648,1,8,0:0:0:0:
256,192,111759,1,8,0:0:0:0:
256,192,111870,1,8,0:0:0:0:
256,192,111981,1,8,0:0:0:0:
256,192,112093,1,8,0:0:0:0:
256,192,112204,1,8,0:0:0:0:
256,192,112315,1,8,0:0:0:0:
256,192,112426,1,8,0:0:0:0:
256,192,112537,1,8,0:0:0:0:
256,192,112648,1,8,0:0:0:0:
256,192,112759,1,8,0:0:0:0:
256,192,112870,1,8,0:0:0:0:
256,192,112981,1,4,0:0:0:0:
256,192,113203,1,0,0:0:0:0:
256,192,113314,1,8,0:0:0:0:
256,192,113536,1,8,0:0:0:0:
256,192,113870,1,8,0:0:0:0:
256,192,113981,1,0,0:0:0:0:
256,192,114203,1,0,0:0:0:0:
256,192,114314,1,12,0:0:0:0:
256,192,114536,1,8,0:0:0:0:
256,192,114647,1,0,0:0:0:0:
256,192,114870,1,8,0:0:0:0:
256,192,115203,1,0,0:0:0:0:
256,192,115314,1,8,0:0:0:0:
256,192,115426,1,0,0:0:0:0:
256,192,115537,1,0,0:0:0:0:
256,192,115647,1,12,0:0:0:0:
256,192,115870,1,0,0:0:0:0:
256,192,115981,1,8,0:0:0:0:
256,192,116092,1,8,0:0:0:0:
256,192,116203,1,0,0:0:0:0:
256,192,116314,1,8,0:0:0:0:
256,192,116426,1,0,0:0:0:0:
256,192,116537,1,0,0:0:0:0:
256,192,116647,1,8,0:0:0:0:
256,192,116759,1,8,0:0:0:0:
256,192,116870,1,0,0:0:0:0:
256,192,116981,1,12,0:0:0:0:
256,192,117315,1,12,0:0:0:0:
256,192,117648,1,12,0:0:0:0:
256,192,118315,1,0,0:0:0:0:
256,192,118648,1,8,0:0:0:0:
256,192,118981,1,0,0:0:0:0:
256,192,119315,1,8,0:0:0:0:
256,192,119648,1,4,0:0:0:0:
256,192,119759,1,4,0:0:0:0:
256,192,119870,1,4,0:0:0:0:
256,192,119981,1,4,0:0:0:0:
256,192,120093,1,4,0:0:0:0:
256,192,120204,1,4,0:0:0:0:
256,192,120315,1,4,0:0:0:0:
256,192,120981,1,12,0:0:0:0:
256,192,121204,1,12,0:0:0:0:
256,192,121648,1,4,0:0:0:0:
256,192,121870,1,4,0:0:0:0:
256,192,122315,1,12,0:0:0:0:
256,192,122537,1,12,0:0:0:0:
256,192,122981,1,4,0:0:0:0:
256,192,123204,1,4,0:0:0:0:
256,192,123648,1,12,0:0:0:0:
256,192,123870,1,0,0:0:0:0:
256,192,123981,1,8,0:0:0:0:
256,192,124093,1,8,0:0:0:0:
256,192,124204,1,0,0:0:0:0:
256,192,124315,1,8,0:0:0:0:
256,192,124426,1,0,0:0:0:0:
256,192,124537,1,0,0:0:0:0:
256,192,124648,1,8,0:0:0:0:
256,192,124870,1,0,0:0:0:0:
256,192,124981,1,8,0:0:0:0:
256,192,125093,1,8,0:0:0:0:
256,192,125204,1,8,0:0:0:0:
256,192,125315,1,8,0:0:0:0:
256,192,125426,1,8,0:0:0:0:
256,192,125537,1,8,0:0:0:0:
256,192,125648,1,8,0:0:0:0:
256,192,125759,1,8,0:0:0:0:
256,192,125870,1,8,0:0:0:0:
256,192,125981,1,8,0:0:0:0:
256,192,126093,1,8,0:0:0:0:
256,192,126204,1,8,0:0:0:0:
256,192,126259,1,8,0:0:0:0:
256,192,126315,1,8,0:0:0:0:
256,192,126426,1,8,0:0:0:0:
256,192,126537,1,8,0:0:0:0:
256,192,126648,1,8,0:0:0:0:
256,192,126759,1,8,0:0:0:0:
256,192,126870,1,8,0:0:0:0:
256,192,126981,1,8,0:0:0:0:
256,192,127093,1,8,0:0:0:0:
256,192,127204,1,8,0:0:0:0:
256,192,127315,1,8,0:0:0:0:
256,192,127426,1,8,0:0:0:0:
256,192,127537,1,8,0:0:0:0:
256,192,127593,1,8,0:0:0:0:
256,192,127648,1,8,0:0:0:0:
256,192,127759,1,8,0:0:0:0:
256,192,127870,1,8,0:0:0:0:
256,192,127981,1,8,0:0:0:0:
256,192,128093,1,8,0:0:0:0:
256,192,128204,1,8,0:0:0:0:
256,192,128315,1,8,0:0:0:0:
256,192,128426,1,8,0:0:0:0:
256,192,128537,1,8,0:0:0:0:
256,192,128648,1,8,0:0:0:0:
256,192,128759,1,8,0:0:0:0:
256,192,128870,1,8,0:0:0:0:
256,192,128981,1,4,0:0:0:0:
256,192,129315,1,4,0:0:0:0:
256,192,129648,1,4,0:0:0:0:
256,192,129981,1,12,0:0:0:0:
256,192,130315,1,4,0:0:0:0:
