osu file format v14

[General]
AudioFilename: sweet witch girl.mp3
AudioLeadIn: 0
PreviewTime: 34670
Countdown: 0
SampleSet: Soft
StackLeniency: 0.7
Mode: 3
LetterboxInBreaks: 0
SpecialStyle: 0
WidescreenStoryboard: 0

[Editor]
Bookmarks: 74670
DistanceSpacing: 1.8
BeatDivisor: 6
GridSize: 4
TimelineZoom: 3.299998

[Metadata]
Title:Sweet* Witch* Girl*
TitleUnicode:Sweet* Witch* Girl*
Artist:Morimori Atsushi vs. uma
ArtistUnicode:モリモリあつし vs. uma
Creator:Syadow-
Version:Sweet Witch
Source:Muse Dash
Tags:happy halloween RTTF Records Triplet Hardcore FAMoss PeroPeroGames video game instrumental
BeatmapID:1349931
BeatmapSetID:636160

[Difficulty]
HPDrainRate:8.5
CircleSize:4
OverallDifficulty:8.5
ApproachRate:5
SliderMultiplier:1.4
SliderTickRate:1

[Events]
//Background and Video events
0,0,"BG sweet.jpg",0,0
//Break Periods
//Storyboard Layer 0 (Background)
//Storyboard Layer 1 (Fail)
//Storyboard Layer 2 (Pass)
//Storyboard Layer 3 (Foreground)
//Storyboard Layer 4 (Overlay)
//Storyboard Sound Samples
Sample,34670,0,"cheer.ogg",70
Sample,88004,0,"cheer.ogg",70
Sample,114670,0,"cheer.ogg",70
Sample,132004,0,"push_scratch.ogg",100
Sample,132004,0,"cheer.ogg",70
Sample,153337,0,"push_scratch.ogg",100

[TimingPoints]
2672,333.333333333333,3,2,2,50,1,0
18671,333.333333333333,4,2,1,50,1,0
22559,-83.3333333333333,4,2,1,50,0,0
22670,-111.111111111111,4,2,1,50,0,0
22893,-83.3333333333333,4,2,1,50,0,0
23004,-111.111111111111,4,2,1,50,0,0
23226,-83.3333333333333,4,2,1,50,0,0
23337,-111.111111111111,4,2,1,50,0,0
23559,-100,4,2,1,50,0,0
23948,-90.9090909090909,4,2,1,50,0,0
24004,-108.695652173913,4,2,1,50,0,0
25337,-106.382978723404,4,2,1,50,0,0
26670,-104.166666666667,4,2,1,50,0,0
28004,-102.040816326531,4,2,1,50,0,0
29004,-71.4285714285714,4,2,1,50,0,0
29115,-125,4,2,1,50,0,0
29337,-100,4,2,1,50,0,0
34670,-100,4,2,1,50,0,1
42670,-142.857142857143,4,2,1,50,0,1
42782,-76.9230769230769,4,2,1,50,0,1
42893,-100,4,2,1,50,0,1
43337,-142.857142857143,4,2,1,50,0,1
43448,-76.9230769230769,4,2,1,50,0,1
43559,-100,4,2,1,50,0,1
44004,-117.647058823529,4,2,1,50,0,1
44226,-76.9230769230769,4,2,1,50,0,1
44337,-117.647058823529,4,2,1,50,0,1
44559,-76.9230769230769,4,2,1,50,0,1
44670,-100,4,2,1,50,0,1
45337,-100,4,2,1,50,0,0
46004,-133.333333333333,4,2,1,50,0,0
46115,-80,4,2,1,50,0,0
46226,-100,4,2,1,50,0,0
46337,-133.333333333333,4,2,1,50,0,0
46448,-79.9999999999999,4,2,1,50,0,0
46559,-100,4,2,1,50,0,0
46670,-133.333333333333,4,2,1,50,0,0
46782,-80,4,2,1,50,0,0
46893,-100,4,2,1,50,0,0
47004,-117.647058823529,4,2,1,50,0,0
47226,-76.9230769230769,4,2,1,50,0,0
47337,-117.647058823529,4,2,1,50,0,0
47559,-76.9230769230769,4,2,1,50,0,0
47670,-100,4,2,1,50,0,0
48004,-117.647058823529,4,2,1,50,0,0
48226,-76.9230769230769,4,2,1,50,0,0
48337,-133.333333333333,4,2,1,50,0,0
48448,-79.9999999999999,4,2,1,50,0,0
48559,-100,4,2,1,50,0,0
48670,-117.647058823529,4,2,1,50,0,0
48893,-76.9230769230769,4,2,1,50,0,0
49004,-133.333333333333,4,2,1,50,0,0
49115,-80,4,2,1,50,0,0
49226,-100,4,2,1,50,0,0
49337,-133.333333333333,4,2,1,50,0,0
49448,-79.9999999999998,4,2,1,50,0,0
49559,-100,4,2,1,50,0,0
49670,-133.333333333333,4,2,1,50,0,0
49782,-79.9999999999998,4,2,1,50,0,0
49893,-100,4,2,1,50,0,0
50004,-117.647058823529,4,2,1,50,0,0
50226,-76.9230769230769,4,2,1,50,0,0
50337,-100,4,2,1,50,0,0
51337,-133.333333333333,4,2,1,50,0,0
51448,-79.9999999999999,4,2,1,50,0,0
51559,-100,4,2,1,50,0,0
51670,-133.333333333333,4,2,1,50,0,0
51782,-79.9999999999999,4,2,1,50,0,0
51893,-100,4,2,1,50,0,0
52004,-133.333333333333,4,2,1,50,0,0
52115,-79.9999999999998,4,2,1,50,0,0
52226,-100,4,2,1,50,0,0
52337,-117.647058823529,4,2,1,50,0,0
52559,-76.9230769230769,4,2,1,50,0,0
52670,-117.647058823529,4,2,1,50,0,0
52893,-76.9230769230769,4,2,1,50,0,0
53004,-100,4,2,1,50,0,0
53337,-76.9230769230769,4,2,1,50,0,0
53448,-117.647058823529,4,2,1,50,0,0
53670,-100,4,2,1,50,0,0
54004,-76.9230769230769,4,2,1,50,0,0
54115,-117.647058823529,4,2,1,50,0,0
54337,-100,4,2,1,50,0,0
54670,-76.9230769230769,4,2,1,50,0,0
54726,-111.111111111111,4,2,1,50,0,0
54892,-100,4,2,1,50,0,0
55003,-76.9230769230769,4,2,1,50,0,0
55059,-111.111111111111,4,2,1,50,0,0
55226,-100,4,2,1,50,0,0
55337,-76.9230769230769,4,2,1,50,0,0
55393,-117.647058823529,4,2,1,50,0,0
55559,-100,4,2,1,50,0,0
56670,-133.333333333333,4,2,1,50,0,0
56781,-79.9999999999999,4,2,1,50,0,0
56892,-100,4,2,1,50,0,0
57004,-133.333333333333,4,2,1,50,0,0
57115,-79.9999999999999,4,2,1,50,0,0
57226,-100,4,2,1,50,0,0
57337,-133.333333333333,4,2,1,50,0,0
57448,-79.9999999999999,4,2,1,50,0,0
57559,-100,4,2,1,50,0,0
57670,-117.647058823529,4,2,1,50,0,0
57893,-76.9230769230769,4,2,1,50,0,0
58004,-117.647058823529,4,2,1,50,0,0
58226,-76.9230769230769,4,2,1,50,0,0
58337,-100,4,2,1,50,0,0
58671,-117.647058823529,4,2,1,50,0,0
58893,-76.9230769230769,4,2,1,50,0,0
59004,-133.333333333333,4,2,1,50,0,0
59115,-80,4,2,1,50,0,0
59226,-100,4,2,1,50,0,0
59337,-117.647058823529,4,2,1,50,0,0
59559,-76.9230769230769,4,2,1,50,0,0
59670,-133.333333333333,4,2,1,50,0,0
59782,-79.9999999999999,4,2,1,50,0,0
59893,-100,4,2,1,50,0,0
60004,-133.333333333333,4,2,1,50,0,0
60115,-79.9999999999999,4,2,1,50,0,0
60226,-100,4,2,1,50,0,0
60337,-133.333333333333,4,2,1,50,0,0
60448,-79.9999999999999,4,2,1,50,0,0
60559,-100,4,2,1,50,0,0
60671,-76.923076923077,4,2,1,50,0,0
60782,-117.647058823529,4,2,1,50,0,0
61004,-100,4,2,1,50,0,0
62004,-133.333333333333,4,2,1,50,0,0
62115,-79.9999999999999,4,2,1,50,0,0
62226,-100,4,2,1,50,0,0
62337,-133.333333333333,4,2,1,50,0,0
62448,-79.9999999999999,4,2,1,50,0,0
62559,-100,4,2,1,50,0,0
62670,-133.333333333333,4,2,1,50,0,0
62782,-79.9999999999999,4,2,1,50,0,0
62893,-100,4,2,1,50,0,0
63004,-117.647058823529,4,2,1,50,0,0
63226,-76.9230769230769,4,2,1,50,0,0
63337,-117.647058823529,4,2,1,50,0,0
63559,-76.9230769230769,4,2,1,50,0,0
63671,-100,4,2,1,50,0,0
64004,-76.9230769230769,4,2,1,50,0,0
64115,-117.647058823529,4,2,1,50,0,0
64337,-100,4,2,1,50,0,0
64670,-76.9230769230769,4,2,1,50,0,0
64782,-117.647058823529,4,2,1,50,0,0
65004,-100,4,2,1,50,0,0
65337,-76.9230769230769,4,2,1,50,0,0
65393,-111.111111111111,4,2,1,50,0,0
65559,-100,4,2,1,50,0,0
65670,-76.9230769230769,4,2,1,50,0,0
65726,-111.111111111111,4,2,1,50,0,0
65893,-100,4,2,1,50,0,0
66004,-76.9230769230769,4,2,1,50,0,0
66059,-111.111111111111,4,2,1,50,0,0
66226,-100,4,2,1,50,0,0
66337,-111.111111111111,4,2,1,50,0,0
66559,-83.3333333333333,4,2,1,50,0,0
66670,-111.111111111111,4,2,1,50,0,0
70004,-100,4,2,1,50,0,0
70670,-133.333333333333,4,2,1,50,0,0
70893,-66.6666666666667,4,2,1,50,0,0
71004,-133.333333333333,4,2,1,50,0,0
71226,-66.6666666666667,4,2,1,50,0,0
71337,-133.333333333333,4,2,1,50,0,0
71559,-66.6666666666667,4,2,1,50,0,0
71670,-133.333333333333,4,2,1,50,0,0
71893,-66.6666666666667,4,2,1,50,0,0
72004,-76.9230769230769,4,2,1,50,0,0
72115,-142.857142857143,4,2,1,50,0,0
72226,-76.9230769230769,4,2,1,50,0,0
72337,-142.857142857143,4,2,1,50,0,0
72448,-76.9230769230769,4,2,1,50,0,0
72559,-142.857142857143,4,2,1,50,0,0
72670,-76.9230769230769,4,2,1,50,0,0
72782,-142.857142857143,4,2,1,50,0,0
72893,-76.9230769230769,4,2,1,50,0,0
73004,-142.857142857143,4,2,1,50,0,0
73115,-76.9230769230769,4,2,1,50,0,0
73226,-142.857142857143,4,2,1,50,0,0
73337,-76.9230769230769,4,2,1,50,0,0
73448,-142.857142857143,4,2,1,50,0,0
73559,-76.9230769230769,4,2,1,50,0,0
73670,-142.857142857143,4,2,1,50,0,0
73782,-76.9230769230769,4,2,1,50,0,0
73893,-142.857142857143,4,2,1,50,0,0
74004,-76.9230769230769,4,2,1,50,0,0
74115,-142.857142857143,4,2,1,50,0,0
74226,-76.9230769230769,4,2,1,50,0,0
74337,-142.857142857143,4,2,1,50,0,0
74448,-100,4,2,1,50,0,0
88004,-100,4,2,1,50,0,1
97337,-66.6666666666667,4,2,1,50,0,1
97448,-133.333333333333,4,2,1,50,0,1
97670,-66.6666666666667,4,2,1,50,0,1
97782,-133.333333333333,4,2,1,50,0,1
98004,-66.6666666666667,4,2,1,50,0,1
98115,-133.333333333333,4,2,1,50,0,1
98337,-125,4,2,1,50,0,1
98559,-68.9655172413793,4,2,1,50,0,1
98670,-100,4,2,1,50,0,0
108004,-71.4285714285714,4,2,1,50,0,0
108115,-125,4,2,1,50,0,0
108337,-71.4285714285714,4,2,1,50,0,0
108448,-125,4,2,1,50,0,0
108670,-83.3333333333333,4,2,1,50,0,0
108782,-125,4,2,1,50,0,0
108893,-100,4,2,1,50,0,0
109337,-100,4,2,1,50,0,1
118670,-66.6666666666667,4,2,1,50,0,1
118782,-133.333333333333,4,2,1,50,0,1
119004,-66.6666666666667,4,2,1,50,0,1
119115,-133.333333333333,4,2,1,50,0,1
119337,-66.6666666666667,4,2,1,50,0,1
119448,-133.333333333333,4,2,1,50,0,1
119670,-111.111111111111,4,2,1,50,0,1
119893,-83.3333333333333,4,2,1,50,0,1
120004,-100,4,2,1,50,0,0
122337,-111.111111111111,4,2,1,50,0,0
122559,-83.3333333333333,4,2,1,50,0,0
122670,-100,4,2,1,50,0,0
126670,-66.6666666666667,4,2,1,50,0,0
126726,-200,4,2,1,50,0,0
126782,-66.6666666666667,4,2,1,50,0,0
126837,-200,4,2,1,50,0,0
126893,-66.6666666666667,4,2,1,50,0,0
126948,-200,4,2,1,50,0,0
127004,-66.6666666666667,4,2,1,50,0,0
127059,-200,4,2,1,50,0,0
127115,-66.6666666666667,4,2,1,50,0,0
127170,-200,4,2,1,50,0,0
127226,-66.6666666666667,4,2,1,50,0,0
127282,-200,4,2,1,50,0,0
127337,-66.6666666666667,4,2,1,50,0,0
127393,-200,4,2,1,50,0,0
127448,-66.6666666666667,4,2,1,50,0,0
127504,-200,4,2,1,50,0,0
127559,-66.6666666666667,4,2,1,50,0,0
127615,-200,4,2,1,50,0,0
127670,-66.6666666666667,4,2,1,50,0,0
127726,-200,4,2,1,50,0,0
127782,-66.6666666666667,4,2,1,50,0,0
127837,-200,4,2,1,50,0,0
127893,-66.6666666666667,4,2,1,50,0,0
127948,-200,4,2,1,50,0,0
128004,-66.6666666666667,4,2,1,50,0,0
128059,-200,4,2,1,50,0,0
128115,-66.6666666666667,4,2,1,50,0,0
128170,-200,4,2,1,50,0,0
128226,-66.6666666666667,4,2,1,50,0,0
128282,-200,4,2,1,50,0,0
128337,-66.6666666666667,4,2,1,50,0,0
128393,-200,4,2,1,50,0,0
128448,-66.6666666666667,4,2,1,50,0,0
128504,-200,4,2,1,50,0,0
128559,-66.6666666666667,4,2,1,50,0,0
128615,-200,4,2,1,50,0,0
128670,-66.6666666666667,4,2,1,50,0,0
128726,-200,4,2,1,50,0,0
128782,-66.6666666666667,4,2,1,50,0,0
128837,-200,4,2,1,50,0,0
128893,-66.6666666666667,4,2,1,50,0,0
128948,-200,4,2,1,50,0,0
129004,-66.6666666666667,4,2,1,50,0,0
129059,-200,4,2,1,50,0,0
129115,-66.6666666666667,4,2,1,50,0,0
129170,-200,4,2,1,50,0,0
129226,-66.6666666666667,4,2,1,50,0,0
129282,-200,4,2,1,50,0,0
129337,-66.6666666666667,4,2,1,50,0,0
129393,-200,4,2,1,50,0,0
129448,-66.6666666666667,4,2,1,50,0,0
129504,-200,4,2,1,50,0,0
129559,-66.6666666666667,4,2,1,50,0,0
129615,-200,4,2,1,50,0,0
129670,-66.6666666666667,4,2,1,50,0,0
129726,-200,4,2,1,50,0,0
129782,-66.6666666666667,4,2,1,50,0,0
129837,-200,4,2,1,50,0,0
129893,-66.6666666666667,4,2,1,50,0,0
129948,-200,4,2,1,50,0,0
130004,-66.6666666666667,4,2,1,50,0,0
130059,-200,4,2,1,50,0,0
130115,-66.6666666666667,4,2,1,50,0,0
130170,-200,4,2,1,50,0,0
130226,-66.6666666666667,4,2,1,50,0,0
130282,-200,4,2,1,50,0,0
130337,-66.6666666666667,4,2,1,50,0,0
130393,-200,4,2,1,50,0,0
130448,-66.6666666666667,4,2,1,50,0,0
130504,-200,4,2,1,50,0,0
130559,-66.6666666666667,4,2,1,50,0,0
130615,-200,4,2,1,50,0,0
130670,-142.857142857143,4,2,1,50,0,0
130893,-62.5,4,2,1,50,0,0
131004,-142.857142857143,4,2,1,50,0,0
131226,-62.5,4,2,1,50,0,0
131337,-142.857142857143,4,2,1,50,0,0
131559,-62.5,4,2,1,50,0,0
131670,-166.666666666667,4,2,1,50,0,0
131893,-55.5555555555556,4,2,1,50,0,0
132004,-100,4,2,1,50,0,1
141337,-40,4,2,1,50,0,0
141448,-200,4,2,1,50,0,0
141559,-166.666666666667,4,2,1,50,0,0
141670,-142.857142857143,4,2,1,50,0,0
141782,-125,4,2,1,50,0,0
141893,-111.111111111111,4,2,1,50,0,0
142004,-66.6666666666667,4,2,1,50,0,0
142059,-200,4,2,1,50,0,0
142115,-66.6666666666667,4,2,1,50,0,0
142170,-200,4,2,1,50,0,0
142226,-66.6666666666667,4,2,1,50,0,0
142282,-200,4,2,1,50,0,0
142337,-66.6666666666667,4,2,1,50,0,0
142393,-200,4,2,1,50,0,0
142448,-66.6666666666667,4,2,1,50,0,0
142504,-200,4,2,1,50,0,0
142559,-66.6666666666667,4,2,1,50,0,0
142615,-200,4,2,1,50,0,0
142670,-100,4,2,1,50,0,1
150670,-142.857142857143,4,2,1,50,0,1
150782,-76.9230769230769,4,2,1,50,0,1
150893,-100,4,2,1,50,0,1
153004,-58.8235294117647,4,2,1,50,0,1
153059,-250,4,2,1,50,0,1
153115,-222.222222222222,4,2,1,50,0,1
153170,-153.846153846154,4,2,1,50,0,1
153226,-90.9090909090909,4,2,1,50,0,1
153282,-58.8235294117647,4,2,1,50,0,1
153337,-100,4,2,1,50,0,0
154670,-125,4,2,1,50,0,0
156004,-142.857142857143,4,2,1,50,0,0
157337,-166.666666666667,4,2,1,50,0,0
157670,-181.818181818182,4,2,1,50,0,0
158004,-200,4,2,1,50,0,0
158337,-222.222222222222,4,2,1,50,0,0

[HitObjects]
448,192,2671,128,0,3005:0:0:0:0:
64,192,2671,128,0,3005:0:0:0:0:
192,192,3005,128,0,3227:0:0:0:0:
320,192,3005,128,0,3227:0:0:0:0:
192,192,3338,128,0,3560:0:0:0:0:
320,192,3338,128,0,3560:0:0:0:0:
320,192,3671,128,0,4005:0:0:0:0:
448,192,3671,128,0,4005:0:0:0:0:
64,192,4005,128,0,4227:0:0:0:0:
192,192,4005,128,0,4227:0:0:0:0:
64,192,4338,128,0,4560:0:0:0:0:
192,192,4338,128,0,4560:0:0:0:0:
192,192,4671,128,0,5005:0:0:0:0:
448,192,4671,128,0,5005:0:0:0:0:
320,192,5005,128,0,5227:0:0:0:0:
64,192,5005,128,0,5227:0:0:0:0:
320,192,5338,128,0,5560:0:0:0:0:
64,192,5338,128,0,5560:0:0:0:0:
64,192,5671,128,0,6005:0:0:0:0:
192,192,5671,128,0,6005:0:0:0:0:
448,192,6005,128,0,6227:0:0:0:0:
320,192,6005,128,0,6227:0:0:0:0:
448,192,6338,128,0,6560:0:0:0:0:
320,192,6338,128,0,6560:0:0:0:0:
320,192,6671,128,0,7005:0:0:0:0:
192,192,6671,128,0,7005:0:0:0:0:
64,192,7005,128,0,7227:0:0:0:0:
448,192,7005,128,0,7227:0:0:0:0:
64,192,7338,128,0,7560:0:0:0:0:
448,192,7338,128,0,7560:0:0:0:0:
192,192,7671,128,0,8005:0:0:0:0:
448,192,7671,128,0,8005:0:0:0:0:
320,192,8005,128,0,8227:0:0:0:0:
64,192,8005,128,0,8227:0:0:0:0:
320,192,8338,128,0,8560:0:0:0:0:
64,192,8338,128,0,8560:0:0:0:0:
448,192,8671,128,0,9005:0:0:0:0:
64,192,8671,128,0,9005:0:0:0:0:
192,192,9005,128,0,9227:0:0:0:0:
320,192,9005,128,0,9227:0:0:0:0:
192,192,9338,128,0,9560:0:0:0:0:
320,192,9338,128,0,9560:0:0:0:0:
64,192,9671,128,0,10005:0:0:0:0:
320,192,9671,128,0,10005:0:0:0:0:
448,192,10005,128,0,10227:0:0:0:0:
192,192,10005,128,0,10227:0:0:0:0:
448,192,10338,128,0,10560:0:0:0:0:
192,192,10338,128,0,10560:0:0:0:0:
64,192,10671,128,0,11005:0:0:0:0:
192,192,10671,128,0,11005:0:0:0:0:
320,192,11005,128,0,11227:0:0:0:0:
448,192,11005,128,0,11227:0:0:0:0:
320,192,11338,128,0,11560:0:0:0:0:
448,192,11338,128,0,11560:0:0:0:0:
448,192,11671,128,0,12005:0:0:0:0:
64,192,11671,128,0,12005:0:0:0:0:
192,192,12005,128,0,12227:0:0:0:0:
320,192,12005,128,0,12227:0:0:0:0:
192,192,12338,128,0,12560:0:0:0:0:
320,192,12338,128,0,12560:0:0:0:0:
320,192,12671,128,0,13005:0:0:0:0:
448,192,12671,128,0,13005:0:0:0:0:
64,192,13005,128,0,13227:0:0:0:0:
192,192,13005,128,0,13227:0:0:0:0:
64,192,13338,128,0,13560:0:0:0:0:
192,192,13338,128,0,13560:0:0:0:0:
192,192,13671,128,0,14005:0:0:0:0:
448,192,13671,128,0,14005:0:0:0:0:
320,192,14005,128,0,14227:0:0:0:0:
64,192,14005,128,0,14227:0:0:0:0:
320,192,14338,128,0,14560:0:0:0:0:
64,192,14338,128,0,14560:0:0:0:0:
448,192,14671,128,0,18005:0:0:0:0:
64,192,14671,1,0,0:0:0:0:
192,192,14671,128,0,15671:0:0:0:0:
320,192,15671,128,0,16671:0:0:0:0:
64,192,16671,128,0,18005:0:0:0:0:
192,192,16671,1,0,0:0:0:0:
192,192,18005,128,0,18116:0:0:0:0:
320,192,18116,128,0,18227:0:0:0:0:
64,192,18227,128,0,18338:0:0:0:0:
448,192,18338,128,0,18449:0:0:0:0:
192,192,18449,128,0,18560:0:0:0:0:
320,192,18560,128,0,18671:0:0:0:0:
448,192,18671,1,2,0:0:0:0:
64,192,18671,1,4,0:0:0:0:
192,192,18671,1,0,0:0:0:0:
192,192,18782,1,0,0:0:0:0:
448,192,18893,1,0,0:0:0:0:
64,192,19004,1,2,0:0:0:0:
192,192,19004,1,4,0:0:0:0:
320,192,19004,1,0,0:0:0:0:
320,192,19115,1,0,0:0:0:0:
192,192,19226,1,0,0:0:0:0:
448,192,19337,1,2,0:0:0:0:
64,192,19337,1,4,0:0:0:0:
320,192,19337,1,0,0:0:0:0:
64,192,19448,1,0,0:0:0:0:
320,192,19559,1,0,0:0:0:0:
64,192,19671,1,2,0:0:0:0:
448,192,19671,1,4,0:0:0:0:
192,192,19671,1,0,0:0:0:0:
448,192,19782,1,0,0:0:0:0:
320,192,19893,1,0,0:0:0:0:
64,192,20004,1,4,0:0:0:0:
448,192,20004,1,2,0:0:0:0:
192,192,20004,1,0,0:0:0:0:
448,192,20115,1,2,0:0:0:0:
320,192,20115,1,0,0:0:0:0:
320,192,20226,1,2,0:0:0:0:
192,192,20226,1,0,0:0:0:0:
192,192,20337,1,4,0:0:0:0:
64,192,20337,1,2,0:0:0:0:
448,192,20337,1,0,0:0:0:0:
320,192,20448,1,2,0:0:0:0:
64,192,20448,1,0,0:0:0:0:
192,192,20559,1,2,0:0:0:0:
448,192,20559,1,0,0:0:0:0:
64,192,20670,1,4,0:0:0:0:
320,192,20670,1,2,0:0:0:0:
448,192,20670,1,0,0:0:0:0:
64,192,20782,1,2,0:0:0:0:
192,192,20782,1,0,0:0:0:0:
192,192,20893,1,2,0:0:0:0:
320,192,20893,1,0,0:0:0:0:
320,192,21004,1,4,0:0:0:0:
64,192,21004,1,2,0:0:0:0:
448,192,21004,1,0,0:0:0:0:
192,192,21115,1,2,0:0:0:0:
448,192,21115,1,0,0:0:0:0:
192,192,21226,1,2,0:0:0:0:
320,192,21226,1,0,0:0:0:0:
64,192,21337,128,0,21448:0:0:0:50:cymbal.wav
448,192,21337,128,2,21448:0:0:0:0:
320,192,21337,128,0,21448:0:0:0:0:
448,192,21559,1,2,0:0:0:0:
64,192,21559,1,0,0:0:0:50:cymbal.wav
320,192,21559,1,0,0:0:0:0:
192,192,21670,1,0,0:0:0:0:
320,192,21782,1,0,0:0:0:0:
192,192,21893,1,0,0:0:0:0:
192,192,22004,128,2,22115:0:0:0:0:
448,192,22004,128,0,22115:0:0:0:50:cymbal.wav
64,192,22004,128,0,22115:0:0:0:0:
192,192,22226,1,2,0:0:0:0:
448,192,22226,1,0,0:0:0:50:cymbal.wav
64,192,22226,1,0,0:0:0:0:
320,192,22337,1,0,0:0:0:0:
192,192,22448,1,0,0:0:0:0:
320,192,22559,1,0,0:0:0:0:
448,192,22670,128,2,22893:0:0:0:0:
320,192,22670,128,4,22893:0:0:0:0:
64,192,22670,1,0,0:0:0:0:
64,192,23004,128,4,23226:0:0:0:0:
192,192,23004,128,2,23226:0:0:0:0:
448,192,23004,1,0,0:0:0:0:
448,192,23337,128,4,23559:0:0:0:0:
320,192,23337,128,2,23559:0:0:0:0:
64,192,23337,1,0,0:0:0:0:
192,192,23670,128,0,23893:0:0:0:0:
448,192,24004,1,4,0:0:0:0:
192,192,24004,1,0,0:0:0:70:boom.wav
64,192,24004,1,0,0:0:0:0:
320,192,24226,1,0,0:0:0:0:
192,192,24337,1,0,0:0:0:0:
192,192,24559,1,0,0:0:0:0:
448,192,24670,1,0,0:0:0:0:
448,192,24893,1,0,0:0:0:0:
64,192,25004,1,0,0:0:0:0:
64,192,25226,1,0,0:0:0:0:
320,192,25337,1,0,0:0:0:0:
320,192,25559,1,0,0:0:0:0:
192,192,25670,1,0,0:0:0:0:
192,192,25893,1,0,0:0:0:0:
64,192,26004,1,0,0:0:0:0:
64,192,26226,1,0,0:0:0:0:
320,192,26337,1,0,0:0:0:0:
320,192,26559,1,0,0:0:0:0:
448,192,26670,1,0,0:0:0:0:
448,192,26893,1,0,0:0:0:0:
64,192,27004,1,0,0:0:0:0:
192,192,27115,1,0,0:0:0:0:
320,192,27226,1,0,0:0:0:0:
192,192,27337,1,0,0:0:0:0:
192,192,27559,1,0,0:0:0:0:
448,192,27670,1,0,0:0:0:0:
320,192,27782,1,0,0:0:0:0:
192,192,27893,1,0,0:0:0:0:
320,192,28004,1,0,0:0:0:0:
320,192,28226,1,0,0:0:0:0:
64,192,28337,1,0,0:0:0:0:
448,192,28559,1,0,0:0:0:0:
192,192,28670,1,0,0:0:0:0:
320,192,28893,1,0,0:0:0:0:
64,192,29004,128,2,29226:0:0:0:0:
192,192,29004,128,0,29226:0:0:0:0:
448,192,29337,1,2,0:0:0:0:
64,192,29337,1,4,0:0:0:0:
320,192,29337,1,0,0:0:0:0:
192,192,29559,1,0,0:0:0:0:
320,192,29670,1,8,0:0:0:0:
448,192,29670,1,0,0:0:0:0:
64,192,29893,1,0,0:0:0:0:
320,192,30004,1,8,0:0:0:0:
448,192,30004,1,0,0:0:0:0:
192,192,30226,1,0,0:0:0:0:
448,192,30337,1,8,0:0:0:0:
64,192,30337,1,0,0:0:0:0:
320,192,30559,1,0,0:0:0:0:
192,192,30670,1,8,0:0:0:0:
64,192,30670,1,0,0:0:0:0:
448,192,30893,1,0,0:0:0:0:
192,192,31004,1,8,0:0:0:0:
64,192,31004,1,0,0:0:0:0:
320,192,31226,1,0,0:0:0:0:
192,192,31337,1,8,0:0:0:0:
64,192,31337,1,0,0:0:0:0:
448,192,31559,1,8,0:0:0:0:
320,192,31559,1,0,0:0:0:0:
192,192,31670,1,8,0:0:0:0:
64,192,31670,1,0,0:0:0:0:
320,192,31782,1,8,0:0:0:0:
448,192,31782,1,0,0:0:0:0:
192,192,31893,1,8,0:0:0:0:
64,192,31893,1,0,0:0:0:0:
320,192,32004,1,2,0:0:0:0:
448,192,32004,1,4,0:0:0:0:
64,192,32004,1,0,0:0:0:0:
192,192,32226,1,0,0:0:0:0:
64,192,32337,1,2,0:0:0:0:
448,192,32337,1,0,0:0:0:0:
320,192,32448,1,0,0:0:0:0:
192,192,32559,1,0,0:0:0:0:
448,192,32670,1,2,0:0:0:0:
320,192,32670,1,4,0:0:0:0:
64,192,32782,1,8,0:0:0:0:
192,192,32782,1,0,0:0:0:0:
64,192,32893,1,8,0:0:0:0:
192,192,32893,1,0,0:0:0:0:
320,192,33004,1,8,0:0:0:0:
448,192,33004,1,2,0:0:0:0:
64,192,33115,1,8,0:0:0:0:
192,192,33115,1,0,0:0:0:0:
320,192,33226,1,8,0:0:0:0:
448,192,33226,1,0,0:0:0:0:
64,192,33337,1,2,0:0:0:0:
448,192,33337,1,4,0:0:0:0:
320,192,33337,1,0,0:0:0:0:
64,192,34004,1,2,0:0:0:0:
192,192,34004,1,4,0:0:0:0:
448,192,34115,1,2,0:0:0:0:
320,192,34115,1,4,0:0:0:0:
320,192,34226,1,2,0:0:0:0:
448,192,34226,1,4,0:0:0:0:
64,192,34337,1,2,0:0:0:0:
192,192,34337,1,4,0:0:0:0:
320,192,34448,1,2,0:0:0:0:
448,192,34448,1,4,0:0:0:0:
192,192,34559,1,2,0:0:0:0:
64,192,34559,1,4,0:0:0:0:
448,192,34670,1,2,0:0:0:0:
64,192,34670,1,4,0:0:0:0:
192,192,34670,1,0,0:0:0:100:push_scratch.ogg
192,192,34893,1,0,0:0:0:0:
320,192,34893,1,0,0:0:0:0:
64,192,35004,1,8,0:0:0:0:
448,192,35004,1,0,0:0:0:0:
192,192,35115,1,0,0:0:0:0:
320,192,35226,1,0,0:0:0:0:
64,192,35226,1,0,0:0:0:0:
448,192,35337,1,2,0:0:0:0:
192,192,35337,1,0,0:0:0:0:
320,192,35559,1,0,0:0:0:0:
448,192,35559,1,0,0:0:0:0:
64,192,35670,1,8,0:0:0:0:
192,192,35670,1,0,0:0:0:0:
448,192,35782,1,0,0:0:0:0:
64,192,35893,1,0,0:0:0:0:
320,192,35893,1,0,0:0:0:0:
448,192,36004,1,2,0:0:0:0:
192,192,36004,1,0,0:0:0:0:
64,192,36226,1,0,0:0:0:0:
192,192,36226,1,0,0:0:0:0:
448,192,36337,1,8,0:0:0:0:
320,192,36337,1,0,0:0:0:0:
192,192,36448,1,0,0:0:0:0:
448,192,36559,1,0,0:0:0:0:
64,192,36559,1,0,0:0:0:0:
320,192,36670,1,2,0:0:0:0:
192,192,36670,1,0,0:0:0:0:
448,192,36893,1,0,0:0:0:0:
320,192,36893,1,0,0:0:0:0:
64,192,37004,1,8,0:0:0:0:
192,192,37004,1,0,0:0:0:0:
320,192,37115,1,0,0:0:0:0:
192,192,37226,1,0,0:0:0:0:
448,192,37226,1,0,0:0:0:0:
320,192,37337,1,2,0:0:0:0:
64,192,37337,1,4,0:0:0:0:
448,192,37337,1,0,0:0:0:0:
320,192,37559,1,0,0:0:0:0:
192,192,37559,1,0,0:0:0:0:
192,192,37670,1,8,0:0:0:0:
64,192,37670,1,0,0:0:0:0:
320,192,37782,1,0,0:0:0:0:
448,192,37782,1,0,0:0:0:0:
64,192,37893,1,0,0:0:0:0:
192,192,37893,1,0,0:0:0:0:
64,192,38004,1,2,0:0:0:0:
448,192,38004,1,4,0:0:0:0:
320,192,38004,1,0,0:0:0:0:
192,192,38226,1,0,0:0:0:0:
320,192,38226,1,0,0:0:0:0:
320,192,38337,1,8,0:0:0:0:
448,192,38337,1,0,0:0:0:0:
192,192,38448,1,0,0:0:0:0:
64,192,38448,1,0,0:0:0:0:
320,192,38559,1,0,0:0:0:0:
448,192,38559,1,0,0:0:0:0:
448,192,38670,1,2,0:0:0:0:
192,192,38670,1,0,0:0:0:50:cymbal.wav
64,192,38670,1,0,0:0:0:0:
64,192,38893,1,0,0:0:0:0:
192,192,38893,1,0,0:0:0:0:
320,192,39004,1,8,0:0:0:0:
64,192,39004,1,0,0:0:0:50:cymbal.wav
448,192,39004,1,0,0:0:0:0:
320,192,39226,1,0,0:0:0:0:
448,192,39226,1,0,0:0:0:0:
192,192,39337,1,2,0:0:0:0:
64,192,39337,1,4,0:0:0:0:
448,192,39337,1,0,0:0:0:0:
64,192,39559,1,2,0:0:0:0:
320,192,39559,1,4,0:0:0:0:
448,192,39559,1,0,0:0:0:0:
448,192,39670,1,0,0:0:0:0:
320,192,39670,1,0,0:0:0:0:
192,192,39893,1,2,0:0:0:0:
64,192,39893,1,0,0:0:0:0:
192,192,40004,1,2,0:0:0:0:
64,192,40004,1,4,0:0:0:0:
448,192,40004,1,0,0:0:0:0:
448,192,40226,1,0,0:0:0:0:
320,192,40226,1,0,0:0:0:0:
192,192,40337,1,8,0:0:0:0:
64,192,40337,1,0,0:0:0:0:
448,192,40448,1,0,0:0:0:0:
64,192,40559,1,0,0:0:0:0:
320,192,40559,1,0,0:0:0:0:
448,192,40670,1,2,0:0:0:0:
192,192,40670,1,0,0:0:0:0:
192,192,40893,1,0,0:0:0:0:
320,192,40893,1,0,0:0:0:0:
448,192,41004,1,8,0:0:0:0:
64,192,41004,1,0,0:0:0:0:
192,192,41115,1,0,0:0:0:0:
320,192,41226,1,0,0:0:0:0:
448,192,41226,1,0,0:0:0:0:
64,192,41337,1,2,0:0:0:0:
192,192,41337,1,0,0:0:0:0:
448,192,41559,1,0,0:0:0:0:
192,192,41559,1,0,0:0:0:0:
320,192,41670,1,8,0:0:0:0:
64,192,41670,1,0,0:0:0:0:
192,192,41782,1,0,0:0:0:0:
64,192,41893,1,0,0:0:0:0:
448,192,41893,1,0,0:0:0:0:
320,192,42004,1,2,0:0:0:0:
192,192,42004,1,0,0:0:0:0:
64,192,42226,1,0,0:0:0:0:
192,192,42226,1,0,0:0:0:0:
448,192,42337,1,8,0:0:0:0:
320,192,42337,1,0,0:0:0:0:
320,192,42448,1,8,0:0:0:0:
448,192,42448,1,0,0:0:0:0:
192,192,42559,1,8,0:0:0:0:
64,192,42559,1,0,0:0:0:0:
448,192,42670,1,2,0:0:0:0:
64,192,42670,1,0,0:0:0:50:cymbal.wav
320,192,42670,1,0,0:0:0:0:
448,192,42893,1,2,0:0:0:0:
320,192,42893,1,0,0:0:0:50:cymbal.wav
64,192,42893,1,0,0:0:0:0:
192,192,43004,1,0,0:0:0:0:
320,192,43115,1,0,0:0:0:0:
192,192,43226,1,0,0:0:0:0:
320,192,43337,1,2,0:0:0:0:
64,192,43337,1,0,0:0:0:50:cymbal.wav
448,192,43337,1,0,0:0:0:0:
448,192,43559,1,2,0:0:0:0:
64,192,43559,1,0,0:0:0:50:cymbal.wav
320,192,43559,1,0,0:0:0:0:
192,192,43670,1,0,0:0:0:0:
320,192,43782,1,0,0:0:0:0:
192,192,43893,1,0,0:0:0:0:
64,192,44004,1,2,0:0:0:0:
448,192,44004,128,4,44337:0:0:0:0:
320,192,44004,1,0,0:0:0:0:
320,192,44337,1,2,0:0:0:0:
64,192,44337,128,4,44670:0:0:0:0:
192,192,44337,1,0,0:0:0:0:
192,192,44670,1,2,0:0:0:0:
448,192,44670,1,4,0:0:0:0:
320,192,44670,1,0,0:0:0:0:
320,192,44948,128,0,45226:0:0:0:0:
192,192,45004,128,0,45226:0:0:0:70:LR3_Snare DSW.wav
448,192,45337,5,0,0:0:0:50:kick.wav
192,192,45337,1,4,0:0:0:0:
64,192,45337,1,0,0:0:0:0:
192,192,45559,1,0,0:0:0:0:
320,192,45670,1,0,0:0:0:50:kick.wav
448,192,45670,1,0,0:0:0:0:
64,192,45670,1,0,0:0:0:0:
192,192,45782,1,0,0:0:0:0:
320,192,45893,1,0,0:0:0:0:
192,192,46004,1,0,0:0:0:50:kick.wav
64,192,46004,1,0,0:0:0:0:
448,192,46004,1,0,0:0:0:0:
320,192,46226,1,0,0:0:0:0:
448,192,46337,1,0,0:0:0:50:kick.wav
64,192,46337,1,0,0:0:0:0:
320,192,46337,1,0,0:0:0:0:
192,192,46559,1,0,0:0:0:0:
320,192,46670,1,0,0:0:0:50:kick.wav
192,192,46670,1,0,0:0:0:0:
64,192,46670,1,0,0:0:0:0:
448,192,46893,1,0,0:0:0:0:
320,192,47004,1,0,0:0:0:50:kick.wav
64,192,47004,1,0,0:0:0:0:
448,192,47004,128,0,47337:0:0:0:0:
192,192,47337,1,0,0:0:0:50:kick.wav
64,192,47337,1,0,0:0:0:0:
320,192,47337,128,0,47670:0:0:0:0:
64,192,47670,128,0,47893:0:0:0:70:LR3_Snare DSW.wav
448,192,47670,1,0,0:0:0:0:
192,192,47670,128,0,47893:0:0:0:0:
320,192,47893,1,0,0:0:0:0:
448,192,47893,1,0,0:0:0:0:
192,192,48004,1,4,0:0:0:0:
448,192,48004,1,0,0:0:0:50:kick.wav
64,192,48004,1,0,0:0:0:0:
448,192,48337,1,0,0:0:0:50:kick.wav
64,192,48337,1,0,0:0:0:0:
320,192,48337,1,0,0:0:0:0:
320,192,48559,1,0,0:0:0:0:
448,192,48670,1,0,0:0:0:50:kick.wav
64,192,48670,1,0,0:0:0:0:
320,192,48670,128,0,49004:0:0:0:0:
448,192,49004,1,0,0:0:0:50:kick.wav
192,192,49004,1,0,0:0:0:0:
64,192,49004,1,0,0:0:0:0:
64,192,49226,1,0,0:0:0:0:
64,192,49337,1,0,0:0:0:50:kick.wav
192,192,49337,1,0,0:0:0:0:
320,192,49337,1,0,0:0:0:0:
448,192,49559,1,0,0:0:0:0:
320,192,49670,1,0,0:0:0:50:kick.wav
448,192,49670,1,0,0:0:0:0:
64,192,49670,1,0,0:0:0:0:
192,192,49893,1,0,0:0:0:0:
64,192,50004,1,0,0:0:0:50:kick.wav
448,192,50004,1,0,0:0:0:0:
192,192,50004,128,0,50337:0:0:0:0:
320,192,50337,1,0,0:0:0:70:LR3_Snare DSW.wav
448,192,50337,1,0,0:0:0:0:
64,192,50337,1,0,0:0:0:0:
192,192,50448,1,0,0:0:0:0:
320,192,50559,1,0,0:0:0:0:
448,192,50670,1,4,0:0:0:0:
64,192,50670,1,0,0:0:0:50:kick.wav
192,192,50670,1,0,0:0:0:0:
320,192,50893,1,0,0:0:0:0:
64,192,51004,1,0,0:0:0:50:kick.wav
192,192,51004,1,0,0:0:0:0:
448,192,51004,1,0,0:0:0:0:
320,192,51115,1,0,0:0:0:0:
64,192,51226,1,0,0:0:0:0:
320,192,51337,1,0,0:0:0:50:kick.wav
448,192,51337,1,0,0:0:0:0:
192,192,51337,1,0,0:0:0:0:
448,192,51559,1,0,0:0:0:0:
448,192,51670,1,0,0:0:0:50:kick.wav
192,192,51670,1,0,0:0:0:0:
64,192,51670,1,0,0:0:0:0:
320,192,51893,1,0,0:0:0:0:
448,192,52004,1,0,0:0:0:50:kick.wav
192,192,52004,1,0,0:0:0:0:
320,192,52004,1,0,0:0:0:0:
64,192,52226,1,0,0:0:0:0:
448,192,52337,1,0,0:0:0:0:
192,192,52337,1,0,0:0:0:50:kick.wav
64,192,52337,128,0,52670:0:0:0:0:
448,192,52670,1,0,0:0:0:50:kick.wav
192,192,52670,1,0,0:0:0:0:
320,192,52670,128,0,53004:0:0:0:0:
64,192,53004,128,0,53226:0:0:0:70:LR3_Snare DSW.wav
448,192,53004,1,0,0:0:0:0:
192,192,53004,128,0,53226:0:0:0:0:
320,192,53226,1,0,0:0:0:0:
448,192,53226,1,0,0:0:0:0:
448,192,53337,128,0,53670:0:0:0:50:kick.wav
320,192,53337,128,0,53670:0:0:0:50:cymbal.wav
192,192,53337,1,0,0:0:0:0:
64,192,53670,1,8,0:0:0:0:
448,192,53893,1,0,0:0:0:0:
192,192,54004,128,0,54337:0:0:0:50:kick.wav
64,192,54004,128,0,54337:0:0:0:50:cymbal.wav
448,192,54004,1,0,0:0:0:0:
448,192,54337,1,8,0:0:0:0:
320,192,54559,1,0,0:0:0:0:
64,192,54670,128,0,54893:0:0:0:50:kick.wav
192,192,54670,128,4,54893:0:0:0:0:
320,192,54670,1,0,0:0:0:0:
64,192,55004,128,0,55226:0:0:0:50:kick.wav
320,192,55004,128,4,55226:0:0:0:0:
448,192,55004,1,0,0:0:0:0:
192,192,55226,1,0,0:0:0:0:
192,192,55337,1,0,0:0:0:50:kick.wav
64,192,55337,128,4,55559:0:0:0:0:
448,192,55337,128,0,55559:0:0:0:0:
64,192,55670,1,0,0:0:0:70:LR3_Snare DSW.wav
448,192,55670,1,0,0:0:0:0:
192,192,55670,1,0,0:0:0:0:
320,192,55782,1,0,0:0:0:0:
192,192,55893,1,0,0:0:0:0:
64,192,56004,1,0,0:0:0:50:kick.wav
320,192,56004,1,0,0:0:0:70:push_scratch.ogg
448,192,56004,1,4,0:0:0:0:
192,192,56226,1,0,0:0:0:0:
448,192,56337,1,0,0:0:0:50:kick.wav
64,192,56337,1,0,0:0:0:0:
320,192,56337,1,0,0:0:0:0:
192,192,56448,1,0,0:0:0:0:
320,192,56559,1,0,0:0:0:0:
64,192,56670,1,0,0:0:0:50:kick.wav
448,192,56670,1,0,0:0:0:0:
192,192,56670,1,0,0:0:0:0:
320,192,56893,1,0,0:0:0:0:
320,192,57004,1,0,0:0:0:50:kick.wav
448,192,57004,1,0,0:0:0:0:
64,192,57004,1,0,0:0:0:0:
192,192,57226,1,0,0:0:0:0:
448,192,57337,1,0,0:0:0:50:kick.wav
192,192,57337,1,0,0:0:0:0:
320,192,57337,1,0,0:0:0:0:
64,192,57559,1,0,0:0:0:0:
320,192,57670,1,0,0:0:0:50:kick.wav
448,192,57670,1,0,0:0:0:0:
64,192,57670,128,0,58004:0:0:0:0:
448,192,58004,1,0,0:0:0:50:kick.wav
320,192,58004,1,0,0:0:0:0:
192,192,58004,128,0,58337:0:0:0:0:
64,192,58337,1,0,0:0:0:70:LR3_Snare DSW.wav
448,192,58337,128,0,58559:0:0:0:0:
320,192,58337,128,0,58559:0:0:0:0:
64,192,58559,1,0,0:0:0:0:
192,192,58559,1,0,0:0:0:0:
320,192,58670,1,0,0:0:0:50:kick.wav
448,192,58670,1,4,0:0:0:0:
64,192,58670,1,0,0:0:0:0:
448,192,59004,1,0,0:0:0:0:
192,192,59004,1,0,0:0:0:0:
64,192,59004,1,0,0:0:0:50:kick.wav
448,192,59226,1,0,0:0:0:0:
64,192,59337,1,0,0:0:0:50:kick.wav
192,192,59337,1,0,0:0:0:0:
448,192,59337,128,0,59670:0:0:0:0:
64,192,59670,1,0,0:0:0:50:kick.wav
192,192,59670,1,0,0:0:0:0:
320,192,59670,1,0,0:0:0:0:
320,192,59893,1,0,0:0:0:0:
64,192,60004,1,0,0:0:0:50:kick.wav
320,192,60004,1,0,0:0:0:0:
448,192,60004,1,0,0:0:0:0:
64,192,60226,1,0,0:0:0:0:
192,192,60337,1,0,0:0:0:50:kick.wav
64,192,60337,1,0,0:0:0:0:
320,192,60337,1,0,0:0:0:0:
192,192,60559,1,0,0:0:0:0:
448,192,60670,1,0,0:0:0:0:
192,192,60670,128,0,61004:0:0:0:0:
64,192,60670,1,0,0:0:0:0:
448,192,61004,1,0,0:0:0:70:LR3_Snare DSW.wav
64,192,61004,1,0,0:0:0:50:cymbal.wav
320,192,61004,1,0,0:0:0:0:
192,192,61115,1,0,0:0:0:0:
320,192,61226,1,0,0:0:0:0:
64,192,61337,1,4,0:0:0:0:
192,192,61337,1,0,0:0:0:50:kick.wav
448,192,61337,1,0,0:0:0:0:
320,192,61559,1,0,0:0:0:0:
192,192,61670,1,0,0:0:0:50:kick.wav
448,192,61670,1,0,0:0:0:0:
64,192,61670,1,0,0:0:0:0:
320,192,61782,1,0,0:0:0:0:
192,192,61893,1,0,0:0:0:0:
64,192,62004,1,0,0:0:0:50:kick.wav
448,192,62004,1,0,0:0:0:0:
320,192,62004,1,0,0:0:0:0:
192,192,62226,1,0,0:0:0:0:
64,192,62337,1,0,0:0:0:50:kick.wav
448,192,62337,1,0,0:0:0:0:
192,192,62337,1,0,0:0:0:0:
320,192,62559,1,0,0:0:0:0:
64,192,62670,1,0,0:0:0:50:kick.wav
448,192,62670,1,0,0:0:0:0:
320,192,62670,1,0,0:0:0:0:
64,192,62893,1,0,0:0:0:0:
192,192,63004,1,0,0:0:0:50:kick.wav
448,192,63004,1,0,0:0:0:0:
64,192,63004,128,0,63337:0:0:0:0:
320,192,63337,1,0,0:0:0:50:kick.wav
448,192,63337,1,0,0:0:0:0:
192,192,63337,128,0,63670:0:0:0:0:
448,192,63670,128,0,63893:0:0:0:70:LR3_Snare DSW.wav
64,192,63670,1,0,0:0:0:0:
320,192,63670,128,0,63893:0:0:0:0:
192,192,63893,1,0,0:0:0:0:
64,192,63893,1,0,0:0:0:0:
448,192,64004,1,4,0:0:0:50:cymbal.wav
64,192,64004,128,0,64337:0:0:0:50:kick.wav
192,192,64004,128,0,64337:0:0:0:0:
320,192,64337,1,8,0:0:0:0:
64,192,64559,1,0,0:0:0:0:
448,192,64670,128,0,65004:0:0:0:50:kick.wav
320,192,64670,128,4,65004:0:0:0:50:cymbal.wav
64,192,64670,1,0,0:0:0:0:
64,192,65004,1,8,0:0:0:0:
192,192,65226,1,0,0:0:0:0:
64,192,65337,128,0,65559:0:0:0:50:kick.wav
448,192,65337,128,4,65559:0:0:0:0:
192,192,65337,1,0,0:0:0:0:
320,192,65559,1,0,0:0:0:0:
192,192,65670,128,0,65893:0:0:0:50:kick.wav
64,192,65670,128,4,65893:0:0:0:0:
320,192,65670,1,0,0:0:0:0:
448,192,65893,1,0,0:0:0:0:
192,192,66004,128,0,66226:0:0:0:50:kick.wav
320,192,66004,128,4,66226:0:0:0:0:
448,192,66004,1,0,0:0:0:0:
64,192,66337,128,0,66670:0:0:0:0:
192,192,66670,1,2,0:0:0:0:
448,192,66670,128,0,67337:0:0:0:50:LR_Great Bell LongH.wav
320,192,66670,128,0,67004:0:0:0:0:
64,192,67226,1,0,0:0:0:0:
320,192,67337,128,0,68004:0:0:0:30:hihat.wav
192,192,67337,128,0,67670:0:0:0:0:
64,192,68004,128,0,68670:0:0:0:30:hihat.wav
192,192,68004,128,0,68337:0:0:0:0:
448,192,68559,1,0,0:0:0:0:
320,192,68670,128,0,69337:0:0:0:30:hihat.wav
192,192,68670,128,0,69004:0:0:0:0:
64,192,69226,1,0,0:0:0:30:hihat.wav
448,192,69337,128,0,70004:0:0:0:30:hihat.wav
192,192,69337,128,0,69670:0:0:0:0:
320,192,69893,1,0,0:0:0:0:
64,192,70004,128,0,70559:0:0:0:30:hihat.wav
192,192,70004,1,0,0:0:0:0:
192,192,70226,1,0,0:0:0:0:
448,192,70337,1,0,0:0:0:0:
320,192,70559,1,0,0:0:0:0:
64,192,70670,1,2,0:0:0:0:
192,192,70670,1,4,0:0:0:0:
448,192,70670,1,0,0:0:0:0:
320,192,71004,1,2,0:0:0:0:
192,192,71004,1,4,0:0:0:0:
64,192,71004,1,0,0:0:0:0:
320,192,71337,1,2,0:0:0:0:
192,192,71337,1,4,0:0:0:0:
448,192,71337,1,0,0:0:0:0:
320,192,71670,1,2,0:0:0:0:
192,192,71670,1,4,0:0:0:0:
64,192,71670,1,0,0:0:0:0:
64,192,72004,1,2,0:0:0:0:
448,192,72004,1,4,0:0:0:0:
192,192,72004,1,0,0:0:0:0:
448,192,72226,1,8,0:0:0:0:
320,192,72226,128,0,72337:0:0:0:0:
320,192,72448,1,8,0:0:0:0:
448,192,72448,128,0,72559:0:0:0:0:
64,192,72670,1,2,0:0:0:0:
320,192,72670,1,4,0:0:0:0:
448,192,72670,1,0,0:0:0:0:
64,192,72893,1,8,0:0:0:0:
192,192,72893,128,0,73004:0:0:0:0:
192,192,73115,1,8,0:0:0:0:
64,192,73115,128,0,73226:0:0:0:0:
448,192,73337,1,2,0:0:0:0:
64,192,73337,1,4,0:0:0:0:
192,192,73337,1,0,0:0:0:0:
192,192,73559,1,8,0:0:0:0:
320,192,73559,128,0,73670:0:0:0:0:
320,192,73782,1,8,0:0:0:0:
192,192,73782,128,0,73893:0:0:0:0:
320,192,74004,1,2,0:0:0:0:
448,192,74004,1,4,0:0:0:0:
64,192,74004,1,0,0:0:0:0:
64,192,74226,1,8,0:0:0:0:
192,192,74226,1,0,0:0:0:0:
320,192,74448,1,8,0:0:0:0:
448,192,74448,1,0,0:0:0:0:
192,192,74559,1,0,0:0:0:0:
320,192,74615,1,0,0:0:0:0:
448,192,74670,1,0,0:0:0:0:
64,192,74670,128,0,75670:0:0:0:0:
192,192,75337,1,0,0:0:0:0:
64,192,75782,1,0,0:0:0:0:
192,192,75893,1,0,0:0:0:0:
448,192,76004,1,2,0:0:0:0:
320,192,76004,1,4,0:0:0:0:
320,192,76115,1,2,0:0:0:0:
448,192,76115,1,4,0:0:0:0:
192,192,76226,1,2,0:0:0:0:
64,192,76226,1,4,0:0:0:0:
192,192,76337,1,2,0:0:0:0:
64,192,76337,1,4,0:0:0:0:
448,192,76559,1,2,0:0:0:0:
64,192,76559,1,4,0:0:0:0:
320,192,76559,1,0,0:0:0:0:
64,192,76670,1,2,0:0:0:0:
448,192,76670,128,4,77226:0:0:0:0:
320,192,76670,1,0,0:0:0:0:
64,192,77004,128,0,77226:0:0:0:0:
192,192,77226,1,0,0:0:0:0:
448,192,77337,1,0,0:0:0:70:boom.wav
320,192,77337,1,0,0:0:0:0:
64,192,77337,1,0,0:0:0:0:
320,192,77559,1,0,0:0:0:0:
448,192,77670,1,0,0:0:0:70:clap.wav
192,192,77670,1,0,0:0:0:0:
320,192,77893,1,0,0:0:0:0:
448,192,78004,1,0,0:0:0:70:clap.wav
192,192,78004,1,0,0:0:0:0:
64,192,78226,1,0,0:0:0:0:
448,192,78337,1,0,0:0:0:70:clap.wav
320,192,78337,1,0,0:0:0:0:
64,192,78559,1,0,0:0:0:0:
192,192,78670,1,0,0:0:0:70:clap.wav
448,192,78670,1,0,0:0:0:0:
448,192,78893,1,0,0:0:0:0:
320,192,79004,1,0,0:0:0:70:clap.wav
64,192,79004,1,0,0:0:0:0:
448,192,79226,1,0,0:0:0:0:
320,192,79337,1,0,0:0:0:70:clap.wav
64,192,79337,1,0,0:0:0:0:
64,192,79559,1,0,0:0:0:0:
192,192,79670,1,0,0:0:0:70:clap.wav
448,192,79670,1,0,0:0:0:0:
192,192,79893,1,0,0:0:0:70:clap.wav
448,192,79893,1,0,0:0:0:0:
192,192,80004,1,0,0:0:0:70:clap.wav
448,192,80004,1,0,0:0:0:0:
320,192,80226,1,0,0:0:0:0:
64,192,80337,1,0,0:0:0:70:clap.wav
192,192,80337,1,0,0:0:0:0:
320,192,80559,1,0,0:0:0:0:
64,192,80670,1,0,0:0:0:70:clap.wav
192,192,80670,1,0,0:0:0:0:
192,192,80893,1,0,0:0:0:0:
320,192,81004,1,0,0:0:0:70:clap.wav
448,192,81004,1,0,0:0:0:0:
192,192,81226,1,0,0:0:0:0:
64,192,81337,1,2,0:0:0:0:
448,192,81337,1,4,0:0:0:0:
320,192,81337,1,0,0:0:0:0:
320,192,81559,1,0,0:0:0:0:
192,192,81670,1,2,0:0:0:0:
64,192,81670,1,4,0:0:0:0:
448,192,81670,1,0,0:0:0:0:
192,192,81893,1,0,0:0:0:0:
320,192,82004,1,2,0:0:0:0:
448,192,82004,1,4,0:0:0:0:
64,192,82004,1,0,0:0:0:0:
64,192,82226,1,0,0:0:0:0:
192,192,82226,1,0,0:0:0:0:
448,192,82337,1,2,0:0:0:0:
320,192,82337,1,4,0:0:0:0:
64,192,82559,1,0,0:0:0:0:
448,192,82559,1,0,0:0:0:0:
192,192,82670,1,2,0:0:0:0:
320,192,82670,1,4,0:0:0:0:
64,192,82893,1,0,0:0:0:0:
192,192,83004,1,8,0:0:0:0:
448,192,83004,1,0,0:0:0:0:
192,192,83226,1,0,0:0:0:0:
64,192,83337,1,8,0:0:0:0:
448,192,83337,1,0,0:0:0:0:
320,192,83559,1,0,0:0:0:0:
192,192,83670,1,8,0:0:0:0:
64,192,83670,1,0,0:0:0:0:
448,192,83893,1,0,0:0:0:0:
320,192,84004,1,8,0:0:0:0:
64,192,84004,1,0,0:0:0:0:
320,192,84226,5,0,0:0:0:0:
448,192,84337,1,8,0:0:0:0:
192,192,84337,1,0,0:0:0:0:
64,192,84559,1,0,0:0:0:0:
192,192,84670,1,8,0:0:0:0:
448,192,84670,1,0,0:0:0:0:
320,192,84893,1,8,0:0:0:0:
192,192,85004,5,2,0:0:0:0:
64,192,85004,1,4,0:0:0:0:
448,192,85004,1,0,0:0:0:0:
320,192,85115,1,8,0:0:0:0:
64,192,85115,1,0,0:0:0:0:
192,192,85226,1,8,0:0:0:0:
448,192,85226,1,0,0:0:0:0:
448,192,85337,1,2,0:0:0:0:
320,192,85337,1,4,0:0:0:0:
64,192,85337,1,0,0:0:0:0:
192,192,85448,1,0,0:0:0:0:
192,192,85559,1,0,0:0:0:0:
64,192,85670,1,8,0:0:0:0:
448,192,85670,1,0,0:0:0:0:
320,192,85782,1,0,0:0:0:0:
320,192,85893,1,0,0:0:0:0:
192,192,86004,1,2,0:0:0:0:
64,192,86004,1,4,0:0:0:0:
448,192,86004,1,0,0:0:0:0:
192,192,86115,1,8,0:0:0:0:
64,192,86115,1,0,0:0:0:0:
320,192,86226,1,8,0:0:0:0:
448,192,86226,1,0,0:0:0:0:
192,192,86337,1,8,0:0:0:0:
64,192,86337,1,0,0:0:0:0:
448,192,86448,1,8,0:0:0:0:
320,192,86448,1,0,0:0:0:0:
192,192,86559,1,8,0:0:0:0:
448,192,86670,1,2,0:0:0:0:
320,192,86670,1,4,0:0:0:0:
64,192,86670,1,0,0:0:0:0:
64,192,86837,1,0,0:0:0:0:
192,192,87004,1,2,0:0:0:0:
320,192,87004,1,4,0:0:0:0:
448,192,87004,1,0,0:0:0:0:
448,192,87170,1,0,0:0:0:0:
64,192,87337,1,2,0:0:0:0:
320,192,87337,1,4,0:0:0:0:
192,192,87337,1,0,0:0:0:0:
192,192,87504,1,0,0:0:0:0:
320,192,87670,1,0,0:0:0:0:
448,192,87670,1,0,0:0:0:0:
192,192,87893,1,0,0:0:0:0:
64,192,88004,1,0,0:0:0:100:push_scratch.ogg
448,192,88004,1,2,0:0:0:0:
320,192,88004,1,4,0:0:0:0:
192,192,88059,1,0,0:0:0:0:
320,192,88115,1,0,0:0:0:0:
64,192,88226,1,0,0:0:0:0:
448,192,88226,1,0,0:0:0:0:
192,192,88337,1,8,0:0:0:0:
320,192,88337,1,0,0:0:0:0:
64,192,88448,1,0,0:0:0:0:
448,192,88559,1,0,0:0:0:0:
320,192,88559,1,0,0:0:0:0:
192,192,88670,1,2,0:0:0:0:
64,192,88670,1,0,0:0:0:0:
64,192,88893,1,0,0:0:0:0:
320,192,88893,1,0,0:0:0:0:
448,192,89004,1,8,0:0:0:0:
192,192,89004,1,0,0:0:0:0:
448,192,89226,1,0,0:0:0:0:
64,192,89226,1,0,0:0:0:0:
320,192,89337,1,2,0:0:0:0:
192,192,89337,1,0,0:0:0:0:
192,192,89559,1,0,0:0:0:0:
64,192,89559,1,0,0:0:0:0:
448,192,89670,1,8,0:0:0:0:
320,192,89670,1,0,0:0:0:0:
192,192,89782,1,0,0:0:0:0:
64,192,89893,1,0,0:0:0:0:
448,192,89893,1,0,0:0:0:0:
320,192,90004,1,2,0:0:0:0:
192,192,90004,1,0,0:0:0:0:
192,192,90226,1,0,0:0:0:0:
448,192,90226,1,0,0:0:0:0:
64,192,90337,1,8,0:0:0:0:
320,192,90337,1,0,0:0:0:0:
192,192,90559,1,0,0:0:0:0:
64,192,90559,1,0,0:0:0:0:
320,192,90670,1,2,0:0:0:0:
64,192,90670,1,4,0:0:0:0:
448,192,90670,1,0,0:0:0:0:
192,192,90893,1,0,0:0:0:0:
64,192,90893,1,0,0:0:0:0:
448,192,91004,1,8,0:0:0:0:
320,192,91004,1,0,0:0:0:0:
192,192,91115,1,0,0:0:0:0:
64,192,91226,1,0,0:0:0:0:
448,192,91226,1,0,0:0:0:0:
192,192,91337,1,2,0:0:0:0:
320,192,91337,1,0,0:0:0:0:
448,192,91559,1,0,0:0:0:0:
192,192,91559,1,0,0:0:0:0:
64,192,91670,1,8,0:0:0:0:
320,192,91670,1,0,0:0:0:0:
320,192,91893,1,0,0:0:0:0:
448,192,91893,1,0,0:0:0:0:
64,192,92004,1,2,0:0:0:0:
448,192,92004,1,4,0:0:0:0:
192,192,92004,1,0,0:0:0:0:
320,192,92115,1,0,0:0:0:0:
64,192,92226,1,0,0:0:0:0:
192,192,92226,1,0,0:0:0:0:
320,192,92337,1,8,0:0:0:0:
448,192,92337,1,4,0:0:0:0:
64,192,92337,1,0,0:0:0:0:
192,192,92448,1,0,0:0:0:0:
320,192,92559,1,0,0:0:0:0:
448,192,92559,1,0,0:0:0:0:
64,192,92670,1,2,0:0:0:0:
192,192,92670,1,4,0:0:0:0:
448,192,92670,1,0,0:0:0:0:
192,192,92893,1,4,0:0:0:0:
64,192,92893,1,2,0:0:0:0:
320,192,93004,1,0,0:0:0:0:
448,192,93004,1,0,0:0:0:0:
192,192,93115,1,0,0:0:0:0:
448,192,93226,1,2,0:0:0:0:
64,192,93226,1,0,0:0:0:0:
192,192,93337,1,2,0:0:0:0:
448,192,93337,1,4,0:0:0:0:
320,192,93337,1,0,0:0:0:0:
64,192,93559,1,0,0:0:0:0:
320,192,93559,1,0,0:0:0:0:
192,192,93670,1,8,0:0:0:0:
448,192,93670,1,0,0:0:0:0:
320,192,93782,1,0,0:0:0:0:
192,192,93893,1,0,0:0:0:0:
64,192,93893,1,0,0:0:0:0:
448,192,94004,1,2,0:0:0:0:
320,192,94004,1,0,0:0:0:0:
64,192,94226,1,0,0:0:0:0:
448,192,94226,1,0,0:0:0:0:
320,192,94337,1,8,0:0:0:0:
192,192,94337,1,0,0:0:0:0:
64,192,94448,1,0,0:0:0:0:
320,192,94559,1,0,0:0:0:0:
448,192,94559,1,0,0:0:0:0:
192,192,94670,1,2,0:0:0:0:
448,192,94670,1,4,0:0:0:0:
64,192,94670,1,0,0:0:0:0:
320,192,94893,1,0,0:0:0:0:
192,192,94893,1,0,0:0:0:0:
64,192,95004,1,8,0:0:0:0:
448,192,95004,1,0,0:0:0:0:
192,192,95115,1,0,0:0:0:0:
320,192,95226,1,0,0:0:0:0:
448,192,95226,1,0,0:0:0:0:
192,192,95337,1,2,0:0:0:0:
64,192,95337,1,0,0:0:0:0:
64,192,95559,1,8,0:0:0:0:
320,192,95559,1,0,0:0:0:0:
192,192,95670,1,8,0:0:0:0:
448,192,95670,1,0,0:0:0:0:
192,192,95782,1,8,0:0:0:0:
448,192,95782,1,0,0:0:0:0:
320,192,95893,1,8,0:0:0:0:
64,192,95893,1,0,0:0:0:0:
448,192,96004,5,2,0:0:0:0:
192,192,96004,1,4,0:0:0:0:
64,192,96004,1,0,0:0:0:0:
320,192,96115,1,0,0:0:0:0:
64,192,96226,1,8,0:0:0:0:
192,192,96226,1,0,0:0:0:0:
448,192,96337,1,2,0:0:0:0:
64,192,96337,1,0,0:0:0:0:
320,192,96448,1,0,0:0:0:0:
192,192,96559,1,8,0:0:0:0:
64,192,96559,1,0,0:0:0:0:
448,192,96670,1,2,0:0:0:0:
320,192,96670,1,4,0:0:0:0:
64,192,96670,1,0,0:0:0:0:
192,192,96782,1,0,0:0:0:0:
320,192,96893,1,8,0:0:0:0:
448,192,96893,1,0,0:0:0:0:
448,192,97004,1,8,0:0:0:0:
64,192,97004,1,2,0:0:0:0:
64,192,97115,1,8,0:0:0:0:
192,192,97115,1,0,0:0:0:0:
448,192,97226,1,8,0:0:0:0:
320,192,97226,1,0,0:0:0:0:
192,192,97337,1,2,0:0:0:0:
64,192,97337,1,0,0:0:0:50:cymbal.wav
448,192,97337,128,0,97670:0:0:0:0:
192,192,97670,1,2,0:0:0:0:
320,192,97670,1,0,0:0:0:50:cymbal.wav
64,192,97670,128,0,98004:0:0:0:0:
320,192,98004,1,2,0:0:0:0:
192,192,98004,1,0,0:0:0:50:cymbal.wav
448,192,98004,128,0,98337:0:0:0:0:
192,192,98337,1,0,0:0:0:0:
448,192,98670,5,2,0:0:0:0:
320,192,98670,1,4,0:0:0:0:
64,192,98670,128,0,99337:0:0:0:100:push_scratch.ogg
192,192,98893,1,0,0:0:0:0:
192,192,99004,1,8,0:0:0:0:
448,192,99004,1,0,0:0:0:0:
320,192,99226,1,0,0:0:0:0:
320,192,99337,1,2,0:0:0:0:
192,192,99337,128,0,100004:0:0:0:0:
448,192,99559,1,0,0:0:0:0:
448,192,99670,1,8,0:0:0:0:
320,192,99670,1,0,0:0:0:0:
64,192,99893,1,0,0:0:0:0:
64,192,100004,1,2,0:0:0:0:
320,192,100004,128,0,100670:0:0:0:0:
448,192,100226,1,0,0:0:0:0:
448,192,100337,1,8,0:0:0:0:
64,192,100337,1,0,0:0:0:0:
192,192,100559,1,0,0:0:0:0:
192,192,100670,1,2,0:0:0:0:
448,192,100670,128,0,101337:0:0:0:0:
320,192,100893,1,0,0:0:0:0:
320,192,101004,1,8,0:0:0:0:
192,192,101004,1,0,0:0:0:0:
64,192,101226,1,0,0:0:0:0:
320,192,101337,1,2,0:0:0:0:
64,192,101337,1,4,0:0:0:0:
192,192,101337,128,0,102004:0:0:0:0:
448,192,101559,1,0,0:0:0:0:
448,192,101670,1,8,0:0:0:0:
320,192,101670,1,0,0:0:0:0:
64,192,101893,1,0,0:0:0:0:
64,192,102004,1,2,0:0:0:0:
448,192,102004,128,0,102670:0:0:0:0:
320,192,102226,1,0,0:0:0:0:
320,192,102337,1,8,0:0:0:0:
64,192,102337,1,0,0:0:0:0:
192,192,102559,1,0,0:0:0:0:
192,192,102670,1,2,0:0:0:0:
320,192,102670,1,4,0:0:0:0:
64,192,102670,1,0,0:0:0:0:
320,192,102893,1,0,0:0:0:0:
192,192,102893,1,0,0:0:0:0:
320,192,103004,1,8,0:0:0:0:
64,192,103004,1,4,0:0:0:0:
448,192,103004,1,0,0:0:0:0:
64,192,103226,1,0,0:0:0:0:
448,192,103226,1,0,0:0:0:0:
192,192,103337,1,2,0:0:0:0:
448,192,103337,1,4,0:0:0:0:
64,192,103337,1,0,0:0:0:0:
192,192,103559,1,0,0:0:0:0:
320,192,103670,1,8,0:0:0:0:
448,192,103670,1,4,0:0:0:0:
64,192,103782,1,0,0:0:0:0:
192,192,103782,1,0,0:0:0:0:
320,192,103893,1,0,0:0:0:0:
448,192,103893,1,0,0:0:0:0:
192,192,104004,1,2,0:0:0:0:
448,192,104004,1,4,0:0:0:0:
64,192,104004,128,0,104670:0:0:0:0:
320,192,104226,1,0,0:0:0:0:
320,192,104337,1,8,0:0:0:0:
448,192,104337,1,0,0:0:0:0:
192,192,104559,1,0,0:0:0:0:
192,192,104670,1,2,0:0:0:0:
448,192,104670,128,0,105337:0:0:0:0:
320,192,104893,1,0,0:0:0:0:
320,192,105004,1,8,0:0:0:0:
64,192,105004,1,0,0:0:0:0:
192,192,105226,1,0,0:0:0:0:
64,192,105337,1,2,0:0:0:0:
192,192,105337,1,4,0:0:0:0:
320,192,105337,128,0,106004:0:0:0:0:
64,192,105559,1,0,0:0:0:0:
64,192,105670,1,8,0:0:0:0:
192,192,105670,1,0,0:0:0:0:
448,192,105893,1,0,0:0:0:0:
448,192,106004,1,2,0:0:0:0:
192,192,106004,128,0,106670:0:0:0:0:
64,192,106226,1,0,0:0:0:0:
64,192,106337,1,8,0:0:0:0:
448,192,106337,1,0,0:0:0:0:
448,192,106448,1,8,0:0:0:0:
320,192,106559,1,8,0:0:0:0:
448,192,106670,1,2,0:0:0:0:
64,192,106670,128,4,107337:0:0:0:0:
320,192,106670,1,0,0:0:0:0:
192,192,106893,1,0,0:0:0:0:
192,192,107004,1,8,0:0:0:0:
448,192,107004,1,0,0:0:0:0:
320,192,107226,1,0,0:0:0:0:
448,192,107337,128,8,108004:0:0:0:0:
320,192,107337,1,4,0:0:0:0:
192,192,107337,1,0,0:0:0:0:
64,192,107559,1,0,0:0:0:0:
64,192,107670,1,8,0:0:0:0:
192,192,107670,1,0,0:0:0:0:
192,192,107782,1,8,0:0:0:0:
320,192,107893,1,8,0:0:0:0:
64,192,108004,1,2,0:0:0:0:
320,192,108004,1,4,0:0:0:0:
64,192,108337,1,2,0:0:0:0:
320,192,108337,1,4,0:0:0:0:
320,192,108670,1,2,0:0:0:0:
64,192,108670,1,4,0:0:0:0:
192,192,108893,1,0,0:0:0:0:
320,192,109004,1,0,0:0:0:70:LR3_Snare DSW.wav
64,192,109004,1,0,0:0:0:0:
448,192,109004,1,0,0:0:0:0:
192,192,109115,1,0,0:0:0:0:
320,192,109226,1,0,0:0:0:0:
192,192,109337,1,0,0:0:0:50:kick.wav
64,192,109337,1,0,0:0:0:100:push_scratch.ogg
448,192,109337,1,0,0:0:0:0:
320,192,109393,1,0,0:0:0:50:kick.wav
192,192,109448,1,0,0:0:0:50:kick.wav
64,192,109559,1,0,0:0:0:50:kick.wav
448,192,109559,1,0,0:0:0:0:
64,192,109670,1,0,0:0:0:50:kick.wav
320,192,109670,1,0,0:0:0:0:
192,192,109782,1,0,0:0:0:0:
448,192,109893,1,0,0:0:0:0:
320,192,109893,1,0,0:0:0:0:
64,192,110004,1,0,0:0:0:50:kick.wav
192,192,110004,1,0,0:0:0:0:
192,192,110226,1,0,0:0:0:0:
448,192,110226,1,0,0:0:0:0:
64,192,110337,1,0,0:0:0:50:kick.wav
320,192,110337,1,0,0:0:0:0:
192,192,110559,1,0,0:0:0:50:kick.wav
448,192,110559,1,0,0:0:0:0:
64,192,110670,1,0,0:0:0:50:kick.wav
448,192,110670,1,0,0:0:0:0:
320,192,110782,1,0,0:0:0:0:
64,192,110893,1,0,0:0:0:0:
192,192,110893,1,0,0:0:0:0:
448,192,111004,1,0,0:0:0:50:kick.wav
320,192,111004,1,0,0:0:0:0:
192,192,111115,1,0,0:0:0:0:
64,192,111226,1,0,0:0:0:0:
320,192,111226,1,0,0:0:0:0:
192,192,111337,1,0,0:0:0:50:kick.wav
448,192,111337,1,0,0:0:0:0:
192,192,111559,1,0,0:0:0:50:kick.wav
64,192,111559,1,0,0:0:0:0:
320,192,111670,1,0,0:0:0:70:LR3_Snare DSW.wav
448,192,111670,1,0,0:0:0:0:
64,192,111782,1,0,0:0:0:0:
192,192,111893,1,0,0:0:0:0:
320,192,111893,1,0,0:0:0:0:
64,192,112004,1,0,0:0:0:50:kick.wav
448,192,112004,1,4,0:0:0:0:
320,192,112059,1,0,0:0:0:50:kick.wav
192,192,112115,1,0,0:0:0:50:kick.wav
448,192,112226,1,0,0:0:0:50:kick.wav
320,192,112226,1,0,0:0:0:0:
448,192,112337,1,0,0:0:0:50:kick.wav
64,192,112337,1,0,0:0:0:0:
192,192,112448,1,0,0:0:0:0:
320,192,112559,1,0,0:0:0:50:kick.wav
64,192,112559,1,0,0:0:0:0:
64,192,112670,1,0,0:0:0:50:kick.wav
448,192,112670,1,0,0:0:0:0:
448,192,112893,1,0,0:0:0:0:
320,192,112893,1,0,0:0:0:0:
192,192,113004,1,0,0:0:0:50:kick.wav
64,192,113004,1,0,0:0:0:0:
320,192,113115,1,0,0:0:0:0:
192,192,113226,1,0,0:0:0:0:
320,192,113337,5,2,0:0:0:0:
448,192,113337,1,4,0:0:0:0:
64,192,113337,1,0,0:0:0:0:
192,192,113448,1,2,0:0:0:0:
64,192,113448,1,4,0:0:0:0:
320,192,113559,1,2,0:0:0:0:
448,192,113559,1,4,0:0:0:0:
192,192,113670,1,2,0:0:0:0:
64,192,113670,1,4,0:0:0:0:
448,192,113670,1,0,0:0:0:0:
320,192,113782,1,2,0:0:0:0:
448,192,113782,1,4,0:0:0:0:
192,192,113893,1,2,0:0:0:0:
64,192,113893,1,4,0:0:0:0:
320,192,114004,1,2,0:0:0:0:
448,192,114004,1,4,0:0:0:0:
64,192,114004,1,0,0:0:0:0:
192,192,114115,1,2,0:0:0:0:
64,192,114115,1,4,0:0:0:0:
320,192,114226,1,2,0:0:0:0:
448,192,114226,1,4,0:0:0:0:
192,192,114337,1,2,0:0:0:0:
64,192,114337,1,4,0:0:0:0:
448,192,114337,1,0,0:0:0:0:
320,192,114448,1,2,0:0:0:0:
448,192,114448,1,4,0:0:0:0:
192,192,114559,1,2,0:0:0:0:
64,192,114559,1,4,0:0:0:0:
320,192,114670,1,2,0:0:0:0:
448,192,114670,1,4,0:0:0:0:
64,192,114670,1,0,0:0:0:70:push_scratch.ogg
192,192,114893,1,0,0:0:0:0:
64,192,114893,1,0,0:0:0:0:
320,192,115004,1,8,0:0:0:0:
448,192,115004,1,0,0:0:0:0:
64,192,115115,1,0,0:0:0:0:
320,192,115226,1,0,0:0:0:0:
192,192,115226,1,0,0:0:0:0:
448,192,115337,1,2,0:0:0:0:
64,192,115337,1,0,0:0:0:0:
320,192,115559,1,0,0:0:0:0:
448,192,115559,1,0,0:0:0:0:
192,192,115670,1,8,0:0:0:0:
64,192,115670,1,0,0:0:0:0:
320,192,115782,1,0,0:0:0:0:
64,192,115893,1,0,0:0:0:0:
448,192,115893,1,0,0:0:0:0:
192,192,116004,1,2,0:0:0:0:
320,192,116004,1,4,0:0:0:0:
64,192,116004,1,0,0:0:0:0:
448,192,116226,1,0,0:0:0:0:
192,192,116226,1,0,0:0:0:0:
320,192,116337,1,8,0:0:0:0:
64,192,116337,1,0,0:0:0:0:
192,192,116448,1,0,0:0:0:0:
448,192,116559,1,0,0:0:0:0:
320,192,116559,1,0,0:0:0:0:
192,192,116670,1,2,0:0:0:0:
64,192,116670,1,0,0:0:0:0:
448,192,116893,1,8,0:0:0:0:
192,192,116893,1,0,0:0:0:0:
320,192,117004,1,8,0:0:0:0:
64,192,117004,1,0,0:0:0:0:
64,192,117115,1,8,0:0:0:0:
320,192,117115,1,0,0:0:0:0:
192,192,117226,1,8,0:0:0:0:
448,192,117226,1,0,0:0:0:0:
320,192,117337,5,2,0:0:0:0:
448,192,117337,1,4,0:0:0:0:
64,192,117337,1,0,0:0:0:0:
192,192,117448,1,0,0:0:0:0:
320,192,117559,1,8,0:0:0:0:
448,192,117559,1,0,0:0:0:0:
448,192,117670,1,2,0:0:0:0:
64,192,117670,1,0,0:0:0:0:
192,192,117782,1,0,0:0:0:0:
320,192,117893,1,8,0:0:0:0:
448,192,117893,1,0,0:0:0:0:
64,192,118004,1,2,0:0:0:0:
192,192,118004,1,4,0:0:0:0:
448,192,118004,1,0,0:0:0:0:
320,192,118115,1,0,0:0:0:0:
64,192,118226,1,8,0:0:0:0:
192,192,118226,1,0,0:0:0:0:
448,192,118337,1,8,0:0:0:0:
64,192,118337,1,2,0:0:0:0:
320,192,118448,1,8,0:0:0:0:
192,192,118448,1,0,0:0:0:0:
448,192,118559,1,8,0:0:0:0:
64,192,118559,1,0,0:0:0:0:
320,192,118670,1,2,0:0:0:0:
192,192,118670,1,0,0:0:0:50:cymbal.wav
448,192,118670,128,0,119004:0:0:0:0:
320,192,119004,1,2,0:0:0:0:
192,192,119004,1,0,0:0:0:50:cymbal.wav
64,192,119004,128,0,119337:0:0:0:0:
192,192,119337,1,2,0:0:0:0:
320,192,119337,1,0,0:0:0:50:cymbal.wav
448,192,119337,128,0,119670:0:0:0:0:
192,192,119670,1,0,0:0:0:0:
64,192,120004,5,0,0:0:0:70:clap.wav
448,192,120004,1,0,0:0:0:0:
192,192,120115,1,0,0:0:0:0:
192,192,120226,1,0,0:0:0:0:
64,192,120337,1,0,0:0:0:70:clap.wav
448,192,120337,1,0,0:0:0:0:
320,192,120448,1,0,0:0:0:0:
320,192,120559,1,0,0:0:0:0:
192,192,120670,1,0,0:0:0:70:clap.wav
64,192,120670,1,0,0:0:0:0:
320,192,120782,1,0,0:0:0:0:
64,192,120893,1,0,0:0:0:0:
448,192,121004,1,0,0:0:0:70:clap.wav
320,192,121004,1,0,0:0:0:0:
192,192,121115,1,0,0:0:0:0:
448,192,121226,1,0,0:0:0:0:
320,192,121337,1,2,0:0:0:0:
448,192,121337,1,4,0:0:0:0:
64,192,121448,1,2,0:0:0:0:
192,192,121448,1,4,0:0:0:0:
192,192,121559,1,2,0:0:0:0:
64,192,121559,1,4,0:0:0:0:
448,192,121670,1,2,0:0:0:0:
320,192,121670,1,4,0:0:0:0:
192,192,121782,1,2,0:0:0:0:
64,192,121782,1,4,0:0:0:0:
320,192,121893,1,2,0:0:0:0:
448,192,121893,1,4,0:0:0:0:
448,192,122004,1,2,0:0:0:0:
320,192,122004,1,4,0:0:0:0:
192,192,122337,1,0,0:0:0:0:
64,192,122670,1,2,0:0:0:0:
448,192,122670,1,4,0:0:0:0:
320,192,122670,1,0,0:0:0:100:push_scratch.ogg
64,192,122782,1,0,0:0:0:0:
320,192,122893,1,2,0:0:0:0:
192,192,122893,1,0,0:0:0:0:
448,192,123004,1,8,0:0:0:0:
64,192,123004,1,0,0:0:0:0:
448,192,123115,1,0,0:0:0:0:
64,192,123226,1,8,0:0:0:0:
320,192,123226,1,0,0:0:0:0:
448,192,123337,1,2,0:0:0:0:
192,192,123337,1,4,0:0:0:0:
192,192,123448,1,0,0:0:0:0:
448,192,123559,1,2,0:0:0:0:
320,192,123559,1,0,0:0:0:0:
192,192,123670,1,8,0:0:0:0:
64,192,123670,1,0,0:0:0:0:
320,192,123782,1,8,0:0:0:0:
448,192,123782,1,0,0:0:0:0:
64,192,123893,1,8,0:0:0:0:
192,192,123893,1,0,0:0:0:0:
320,192,124004,1,2,0:0:0:0:
448,192,124004,1,4,0:0:0:0:
448,192,124115,1,0,0:0:0:0:
192,192,124226,1,2,0:0:0:0:
320,192,124226,1,0,0:0:0:0:
448,192,124337,1,0,0:0:0:50:kick.wav
64,192,124337,1,8,0:0:0:0:
64,192,124448,1,0,0:0:0:0:
448,192,124559,1,8,0:0:0:0:
192,192,124559,1,0,0:0:0:0:
320,192,124670,1,2,0:0:0:0:
64,192,124670,1,4,0:0:0:0:
320,192,124782,1,0,0:0:0:0:
64,192,124893,1,2,0:0:0:0:
448,192,124893,1,0,0:0:0:0:
320,192,125004,1,8,0:0:0:0:
192,192,125004,1,0,0:0:0:0:
448,192,125115,1,8,0:0:0:0:
64,192,125115,1,0,0:0:0:0:
192,192,125226,1,8,0:0:0:0:
320,192,125226,1,0,0:0:0:0:
448,192,125337,1,2,0:0:0:0:
64,192,125337,1,4,0:0:0:0:
64,192,125448,1,8,0:0:0:0:
320,192,125448,1,0,0:0:0:0:
320,192,125559,1,8,0:0:0:0:
192,192,125559,1,0,0:0:0:0:
192,192,125670,1,2,0:0:0:0:
448,192,125670,1,4,0:0:0:0:
64,192,125782,1,8,0:0:0:0:
448,192,125782,1,0,0:0:0:0:
320,192,125893,1,8,0:0:0:0:
64,192,125893,1,0,0:0:0:0:
320,192,126004,1,2,0:0:0:0:
448,192,126004,1,4,0:0:0:0:
448,192,126115,1,8,0:0:0:0:
192,192,126115,1,0,0:0:0:0:
64,192,126226,1,8,0:0:0:0:
192,192,126226,1,0,0:0:0:0:
448,192,126337,1,2,0:0:0:0:
64,192,126337,1,4,0:0:0:0:
448,192,126448,1,8,0:0:0:0:
192,192,126448,1,0,0:0:0:0:
192,192,126559,1,8,0:0:0:0:
64,192,126559,1,0,0:0:0:0:
320,192,126670,1,2,0:0:0:0:
448,192,126670,1,4,0:0:0:0:
448,192,126782,1,2,0:0:0:0:
320,192,126782,1,4,0:0:0:0:
320,192,126893,1,2,0:0:0:0:
448,192,126893,1,4,0:0:0:0:
64,192,127004,1,2,0:0:0:0:
192,192,127004,1,4,0:0:0:0:
64,192,127115,1,2,0:0:0:0:
192,192,127115,1,4,0:0:0:0:
192,192,127226,1,2,0:0:0:0:
64,192,127226,1,4,0:0:0:0:
320,192,127337,1,2,0:0:0:0:
448,192,127337,1,4,0:0:0:0:
448,192,127448,1,2,0:0:0:0:
320,192,127448,1,4,0:0:0:0:
448,192,127559,1,2,0:0:0:0:
320,192,127559,1,4,0:0:0:0:
64,192,127670,1,2,0:0:0:0:
192,192,127670,1,4,0:0:0:0:
192,192,127782,1,2,0:0:0:0:
64,192,127782,1,4,0:0:0:0:
192,192,127893,1,2,0:0:0:0:
64,192,127893,1,4,0:0:0:0:
448,192,128004,1,2,0:0:0:0:
64,192,128004,1,4,0:0:0:0:
64,192,128115,1,2,0:0:0:0:
448,192,128115,1,4,0:0:0:0:
448,192,128226,1,2,0:0:0:0:
64,192,128226,1,4,0:0:0:0:
192,192,128337,1,2,0:0:0:0:
320,192,128337,1,4,0:0:0:0:
192,192,128448,1,2,0:0:0:0:
320,192,128448,1,4,0:0:0:0:
192,192,128559,1,2,0:0:0:0:
320,192,128559,1,4,0:0:0:0:
448,192,128670,1,2,0:0:0:0:
64,192,128670,1,4,0:0:0:0:
64,192,128782,1,2,0:0:0:0:
448,192,128782,1,4,0:0:0:0:
64,192,128893,1,2,0:0:0:0:
448,192,128893,1,4,0:0:0:0:
320,192,129004,1,2,0:0:0:0:
192,192,129004,1,4,0:0:0:0:
192,192,129115,1,2,0:0:0:0:
320,192,129115,1,4,0:0:0:0:
320,192,129226,1,2,0:0:0:0:
192,192,129226,1,4,0:0:0:0:
64,192,129337,1,2,0:0:0:0:
320,192,129337,1,4,0:0:0:0:
320,192,129448,1,2,0:0:0:0:
64,192,129448,1,4,0:0:0:0:
64,192,129559,1,2,0:0:0:0:
320,192,129559,1,4,0:0:0:0:
448,192,129670,1,2,0:0:0:0:
192,192,129670,1,4,0:0:0:0:
448,192,129782,1,2,0:0:0:0:
192,192,129782,1,4,0:0:0:0:
448,192,129893,1,2,0:0:0:0:
192,192,129893,1,4,0:0:0:0:
64,192,130004,1,2,0:0:0:0:
320,192,130004,1,4,0:0:0:0:
64,192,130115,1,2,0:0:0:0:
320,192,130115,1,4,0:0:0:0:
320,192,130226,1,2,0:0:0:0:
64,192,130226,1,4,0:0:0:0:
448,192,130337,1,2,0:0:0:0:
192,192,130337,1,4,0:0:0:0:
192,192,130448,1,2,0:0:0:0:
448,192,130448,1,4,0:0:0:0:
448,192,130559,1,2,0:0:0:0:
192,192,130559,1,4,0:0:0:0:
64,192,130670,1,2,0:0:0:0:
192,192,130670,1,4,0:0:0:0:
448,192,130670,1,0,0:0:0:0:
448,192,131004,1,2,0:0:0:0:
320,192,131004,1,4,0:0:0:0:
64,192,131004,1,0,0:0:0:0:
64,192,131337,1,2,0:0:0:0:
320,192,131337,1,4,0:0:0:0:
448,192,131337,1,0,0:0:0:0:
448,192,131670,128,0,132004:0:0:0:70:LR3_Snare DSW.wav
320,192,131670,128,0,132004:0:0:0:0:
192,192,132004,1,2,0:0:0:0:
64,192,132004,1,4,0:0:0:0:
192,192,132226,1,0,0:0:0:0:
64,192,132226,1,0,0:0:0:0:
448,192,132337,1,8,0:0:0:0:
320,192,132337,1,0,0:0:0:0:
192,192,132448,1,0,0:0:0:0:
64,192,132559,1,0,0:0:0:0:
448,192,132559,1,0,0:0:0:0:
192,192,132670,1,2,0:0:0:0:
320,192,132670,1,0,0:0:0:0:
320,192,132893,1,0,0:0:0:0:
64,192,132893,1,0,0:0:0:0:
192,192,133004,1,8,0:0:0:0:
448,192,133004,1,0,0:0:0:0:
320,192,133115,1,0,0:0:0:0:
192,192,133226,1,0,0:0:0:0:
64,192,133226,1,0,0:0:0:0:
320,192,133337,1,2,0:0:0:0:
448,192,133337,1,0,0:0:0:0:
320,192,133559,1,0,0:0:0:0:
64,192,133559,1,0,0:0:0:0:
192,192,133670,1,8,0:0:0:0:
448,192,133670,1,0,0:0:0:0:
64,192,133782,1,0,0:0:0:0:
192,192,133893,1,0,0:0:0:0:
320,192,133893,1,0,0:0:0:0:
448,192,134004,1,2,0:0:0:0:
64,192,134004,1,0,0:0:0:0:
320,192,134226,1,0,0:0:0:0:
448,192,134226,1,0,0:0:0:0:
192,192,134337,1,8,0:0:0:0:
64,192,134337,1,0,0:0:0:0:
320,192,134448,1,0,0:0:0:0:
192,192,134559,1,0,0:0:0:0:
448,192,134559,1,0,0:0:0:0:
64,192,134670,1,2,0:0:0:0:
448,192,134670,1,4,0:0:0:0:
320,192,134670,1,0,0:0:0:0:
192,192,134893,1,0,0:0:0:0:
320,192,134893,1,0,0:0:0:0:
192,192,135004,1,8,0:0:0:0:
64,192,135004,1,0,0:0:0:0:
448,192,135115,1,0,0:0:0:0:
320,192,135115,1,0,0:0:0:0:
64,192,135226,1,0,0:0:0:0:
192,192,135226,1,0,0:0:0:0:
64,192,135337,1,2,0:0:0:0:
320,192,135337,1,4,0:0:0:0:
448,192,135337,1,0,0:0:0:0:
192,192,135559,1,0,0:0:0:0:
320,192,135559,1,0,0:0:0:0:
448,192,135670,1,8,0:0:0:0:
320,192,135670,1,0,0:0:0:0:
64,192,135782,1,0,0:0:0:0:
192,192,135782,1,0,0:0:0:0:
448,192,135893,1,0,0:0:0:0:
320,192,135893,1,0,0:0:0:0:
192,192,136004,1,2,0:0:0:0:
448,192,136004,1,4,0:0:0:50:cymbal.wav
64,192,136004,1,0,0:0:0:0:
64,192,136226,1,0,0:0:0:0:
192,192,136226,1,0,0:0:0:0:
192,192,136337,1,8,0:0:0:0:
64,192,136337,1,4,0:0:0:50:cymbal.wav
448,192,136337,1,0,0:0:0:0:
448,192,136559,1,0,0:0:0:0:
320,192,136559,1,0,0:0:0:0:
448,192,136670,1,2,0:0:0:0:
64,192,136670,1,4,0:0:0:0:
320,192,136670,1,0,0:0:0:0:
320,192,136893,1,2,0:0:0:0:
192,192,136893,1,4,0:0:0:0:
64,192,136893,1,0,0:0:0:0:
192,192,137004,1,0,0:0:0:0:
320,192,137004,1,0,0:0:0:0:
64,192,137226,1,2,0:0:0:0:
448,192,137226,1,0,0:0:0:0:
64,192,137337,1,2,0:0:0:0:
320,192,137337,1,4,0:0:0:0:
448,192,137337,1,0,0:0:0:0:
448,192,137559,1,0,0:0:0:0:
320,192,137559,1,0,0:0:0:0:
64,192,137670,1,8,0:0:0:0:
192,192,137670,1,0,0:0:0:0:
320,192,137782,1,0,0:0:0:0:
64,192,137893,1,0,0:0:0:0:
448,192,137893,1,0,0:0:0:0:
320,192,138004,1,2,0:0:0:0:
192,192,138004,1,0,0:0:0:0:
320,192,138226,1,0,0:0:0:0:
64,192,138226,1,0,0:0:0:0:
192,192,138337,1,8,0:0:0:0:
448,192,138337,1,0,0:0:0:0:
64,192,138448,1,0,0:0:0:0:
448,192,138559,1,0,0:0:0:0:
320,192,138559,1,0,0:0:0:0:
64,192,138670,1,2,0:0:0:0:
192,192,138670,1,0,0:0:0:0:
192,192,138893,1,0,0:0:0:0:
320,192,138893,1,0,0:0:0:0:
448,192,139004,1,8,0:0:0:0:
64,192,139004,1,0,0:0:0:0:
192,192,139115,1,0,0:0:0:0:
64,192,139226,1,0,0:0:0:0:
320,192,139226,1,0,0:0:0:0:
448,192,139337,1,2,0:0:0:0:
192,192,139337,1,0,0:0:0:0:
192,192,139559,1,0,0:0:0:0:
64,192,139559,1,0,0:0:0:0:
448,192,139670,1,8,0:0:0:0:
320,192,139670,1,0,0:0:0:0:
320,192,139782,1,8,0:0:0:0:
448,192,139782,1,0,0:0:0:0:
192,192,139893,1,8,0:0:0:0:
64,192,139893,1,0,0:0:0:0:
64,192,140004,1,2,0:0:0:0:
320,192,140004,1,4,0:0:0:0:
448,192,140004,1,0,0:0:0:0:
192,192,140226,1,0,0:0:0:0:
448,192,140226,1,0,0:0:0:0:
448,192,140337,1,2,0:0:0:0:
320,192,140337,1,0,0:0:0:0:
64,192,140448,1,8,0:0:0:0:
192,192,140448,1,0,0:0:0:0:
320,192,140559,1,2,0:0:0:0:
448,192,140559,1,0,0:0:0:0:
192,192,140670,1,8,0:0:0:0:
320,192,140670,1,4,0:0:0:0:
64,192,140670,1,0,0:0:0:0:
64,192,140893,1,0,0:0:0:0:
448,192,140893,1,0,0:0:0:0:
192,192,141004,1,2,0:0:0:0:
64,192,141004,1,8,0:0:0:0:
448,192,141115,1,8,0:0:0:0:
320,192,141115,1,0,0:0:0:0:
64,192,141226,1,8,0:0:0:0:
192,192,141226,1,0,0:0:0:0:
448,192,141337,5,2,0:0:0:0:
192,192,141337,1,4,0:0:0:0:
320,192,141337,1,0,0:0:0:0:
320,192,142004,1,8,0:0:0:0:
448,192,142004,1,4,0:0:0:0:
448,192,142115,1,8,0:0:0:0:
320,192,142115,1,4,0:0:0:0:
448,192,142226,1,8,0:0:0:0:
320,192,142226,1,4,0:0:0:0:
192,192,142337,1,8,0:0:0:0:
64,192,142337,1,2,0:0:0:0:
64,192,142448,1,8,0:0:0:0:
192,192,142448,1,4,0:0:0:0:
192,192,142559,1,8,0:0:0:0:
64,192,142559,1,4,0:0:0:0:
320,192,142670,1,2,0:0:0:0:
448,192,142670,1,0,0:0:0:100:push_scratch.ogg
64,192,142670,1,0,0:0:0:70:cheer.ogg
192,192,142893,1,0,0:0:0:0:
64,192,142893,1,0,0:0:0:0:
448,192,143004,1,8,0:0:0:0:
320,192,143004,1,0,0:0:0:0:
192,192,143115,1,2,0:0:0:0:
64,192,143226,1,2,0:0:0:0:
448,192,143226,1,0,0:0:0:0:
320,192,143337,1,8,0:0:0:0:
192,192,143337,1,0,0:0:0:0:
448,192,143448,1,0,0:0:0:0:
64,192,143559,1,0,0:0:0:0:
320,192,143559,1,0,0:0:0:0:
448,192,143670,1,8,0:0:0:0:
192,192,143670,1,0,0:0:0:0:
64,192,143782,1,0,0:0:0:0:
320,192,143893,1,0,0:0:0:0:
192,192,143893,1,0,0:0:0:0:
64,192,144004,1,8,0:0:0:0:
448,192,144004,1,0,0:0:0:0:
192,192,144115,1,0,0:0:0:0:
320,192,144226,1,0,0:0:0:0:
448,192,144226,1,0,0:0:0:0:
64,192,144337,1,8,0:0:0:0:
192,192,144337,1,0,0:0:0:0:
320,192,144448,1,0,0:0:0:0:
448,192,144448,1,0,0:0:0:0:
64,192,144559,1,0,0:0:0:0:
448,192,144559,1,0,0:0:0:0:
320,192,144670,1,8,0:0:0:0:
192,192,144670,1,0,0:0:0:0:
448,192,144782,1,0,0:0:0:0:
64,192,144782,1,0,0:0:0:0:
320,192,144893,1,0,0:0:0:0:
192,192,144893,1,0,0:0:0:0:
192,192,145004,1,2,0:0:0:0:
448,192,145004,1,4,0:0:0:0:
64,192,145004,1,0,0:0:0:0:
320,192,145115,1,0,0:0:0:0:
192,192,145226,1,8,0:0:0:0:
64,192,145226,1,0,0:0:0:0:
320,192,145337,1,2,0:0:0:0:
448,192,145337,1,4,0:0:0:0:
64,192,145337,1,0,0:0:0:0:
64,192,145559,1,8,0:0:0:0:
448,192,145559,1,0,0:0:0:0:
192,192,145670,1,8,0:0:0:0:
320,192,145670,1,0,0:0:0:0:
64,192,145782,1,8,0:0:0:0:
448,192,145782,1,0,0:0:0:0:
192,192,145893,1,8,0:0:0:0:
320,192,145893,1,0,0:0:0:0:
64,192,146004,1,4,0:0:0:0:
320,192,146004,1,2,0:0:0:0:
448,192,146004,1,0,0:0:0:0:
64,192,146226,1,8,0:0:0:0:
192,192,146226,1,0,0:0:0:0:
448,192,146337,1,8,0:0:0:0:
320,192,146337,1,0,0:0:0:0:
64,192,146448,1,8,0:0:0:0:
192,192,146448,1,0,0:0:0:0:
320,192,146559,1,8,0:0:0:0:
448,192,146559,1,0,0:0:0:0:
64,192,146670,1,2,0:0:0:0:
448,192,146670,1,0,0:0:0:50:cymbal.wav
192,192,146670,1,0,0:0:0:0:
320,192,146782,1,8,0:0:0:0:
192,192,146782,1,0,0:0:0:0:
64,192,146893,1,0,0:0:0:0:
448,192,146893,1,0,0:0:0:0:
192,192,147004,1,2,0:0:0:0:
448,192,147004,1,0,0:0:0:50:cymbal.wav
320,192,147004,1,0,0:0:0:0:
64,192,147115,1,8,0:0:0:0:
192,192,147115,1,0,0:0:0:0:
320,192,147226,1,8,0:0:0:0:
448,192,147226,1,0,0:0:0:0:
64,192,147337,1,0,0:0:0:50:cymbal.wav
320,192,147337,1,2,0:0:0:0:
192,192,147337,1,0,0:0:0:0:
192,192,147448,1,8,0:0:0:0:
448,192,147448,1,0,0:0:0:0:
64,192,147559,1,8,0:0:0:0:
320,192,147559,1,0,0:0:0:0:
320,192,147670,1,0,0:0:0:50:cymbal.wav
192,192,147670,1,2,0:0:0:0:
448,192,147670,1,0,0:0:0:0:
192,192,147782,1,8,0:0:0:0:
64,192,147782,1,0,0:0:0:0:
320,192,147893,1,8,0:0:0:0:
448,192,147893,1,0,0:0:0:0:
192,192,148004,1,2,0:0:0:0:
64,192,148004,1,4,0:0:0:0:
448,192,148004,1,0,0:0:0:0:
448,192,148226,1,8,0:0:0:0:
320,192,148226,1,0,0:0:0:0:
64,192,148337,1,2,0:0:0:0:
448,192,148337,1,0,0:0:0:0:
192,192,148337,1,0,0:0:0:0:
320,192,148448,1,8,0:0:0:0:
64,192,148559,1,8,0:0:0:0:
192,192,148559,1,0,0:0:0:0:
64,192,148670,1,2,0:0:0:0:
320,192,148670,1,0,0:0:0:0:
448,192,148670,1,0,0:0:0:0:
192,192,148782,1,0,0:0:0:0:
448,192,148893,1,8,0:0:0:0:
320,192,148893,1,0,0:0:0:0:
64,192,149004,1,2,0:0:0:0:
192,192,149004,1,0,0:0:0:0:
448,192,149004,1,0,0:0:0:0:
320,192,149115,1,8,0:0:0:0:
448,192,149226,1,8,0:0:0:0:
192,192,149226,1,0,0:0:0:0:
64,192,149337,1,2,0:0:0:0:
320,192,149337,1,0,0:0:0:0:
192,192,149337,1,0,0:0:0:0:
192,192,149559,1,8,0:0:0:0:
320,192,149559,1,0,0:0:0:0:
64,192,149670,1,2,0:0:0:0:
448,192,149670,1,0,0:0:0:0:
320,192,149670,1,0,0:0:0:0:
192,192,149782,1,8,0:0:0:0:
64,192,149893,1,8,0:0:0:0:
320,192,149893,1,0,0:0:0:0:
64,192,150004,1,2,0:0:0:0:
192,192,150004,1,0,0:0:0:0:
448,192,150004,1,0,0:0:0:0:
320,192,150115,1,8,0:0:0:0:
64,192,150226,1,8,0:0:0:0:
192,192,150226,1,0,0:0:0:0:
448,192,150337,1,2,0:0:0:0:
192,192,150337,1,8,0:0:0:0:
320,192,150448,1,8,0:0:0:0:
64,192,150448,1,0,0:0:0:0:
192,192,150559,1,8,0:0:0:0:
448,192,150559,1,0,0:0:0:0:
320,192,150670,1,2,0:0:0:0:
64,192,150670,1,4,0:0:0:0:
448,192,150670,1,0,0:0:0:0:
64,192,150893,1,8,0:0:0:0:
320,192,150893,1,0,0:0:0:50:cymbal.wav
448,192,150893,1,0,0:0:0:0:
192,192,151004,1,0,0:0:0:0:
64,192,151004,1,0,0:0:0:0:
320,192,151115,1,0,0:0:0:0:
448,192,151115,1,0,0:0:0:0:
192,192,151226,1,8,0:0:0:0:
64,192,151226,1,0,0:0:0:0:
448,192,151337,1,2,0:0:0:0:
64,192,151337,1,4,0:0:0:0:
320,192,151337,1,0,0:0:0:0:
192,192,151448,1,8,0:0:0:0:
320,192,151448,1,0,0:0:0:0:
64,192,151559,1,8,0:0:0:0:
192,192,151559,1,0,0:0:0:50:cymbal.wav
448,192,151559,1,0,0:0:0:0:
448,192,151670,1,0,0:0:0:0:
320,192,151670,1,0,0:0:0:0:
192,192,151782,1,0,0:0:0:0:
64,192,151782,1,0,0:0:0:0:
448,192,151893,1,8,0:0:0:0:
320,192,151893,1,0,0:0:0:0:
64,192,152004,1,2,0:0:0:0:
192,192,152004,1,4,0:0:0:0:
448,192,152004,1,0,0:0:0:0:
320,192,152115,1,8,0:0:0:0:
192,192,152115,1,0,0:0:0:0:
192,192,152226,1,8,0:0:0:0:
320,192,152226,1,0,0:0:0:0:
64,192,152337,1,2,0:0:0:0:
320,192,152337,1,4,0:0:0:0:
448,192,152337,1,0,0:0:0:0:
192,192,152393,1,0,0:0:0:0:
448,192,152448,1,8,0:0:0:0:
64,192,152504,1,0,0:0:0:0:
320,192,152559,1,8,0:0:0:0:
192,192,152615,1,0,0:0:0:0:
64,192,152670,5,2,0:0:0:0:
448,192,152670,1,4,0:0:0:0:
320,192,152670,1,0,0:0:0:0:
320,192,153004,128,0,153337:0:0:0:70:LR3_Snare DSW.wav
192,192,153004,128,0,153337:0:0:0:0:
448,192,153337,128,2,158670:0:0:0:0:
64,192,153337,128,4,158670:0:0:0:0:
