osu file format v14

[General]
AudioFilename: sweet witch girl.mp3
AudioLeadIn: 0
PreviewTime: 34670
Countdown: 0
SampleSet: Soft
StackLeniency: 0.7
Mode: 3
LetterboxInBreaks: 0
SpecialStyle: 0
WidescreenStoryboard: 0

[Editor]
Bookmarks: 66670,74670
DistanceSpacing: 1.8
BeatDivisor: 3
GridSize: 4
TimelineZoom: 1.3

[Metadata]
Title:Sweet* Witch* Girl*
TitleUnicode:Sweet* Witch* Girl*
Artist:Morimori Atsushi vs. uma
ArtistUnicode:モリモリあつし vs. uma
Creator:Syadow-
Version:Insane Vampire
Source:Muse Dash
Tags:happy halloween RTTF Records Triplet Hardcore FAMoss PeroPeroGames video game instrumental
BeatmapID:2208429
BeatmapSetID:636160

[Difficulty]
HPDrainRate:8.5
CircleSize:4
OverallDifficulty:8.5
ApproachRate:5
SliderMultiplier:1.4
SliderTickRate:1

[Events]
//Background and Video events
0,0,"BG sweet.jpg",0,0
//Break Periods
//Storyboard Layer 0 (Background)
//Storyboard Layer 1 (Fail)
//Storyboard Layer 2 (Pass)
//Storyboard Layer 3 (Foreground)
//Storyboard Layer 4 (Overlay)
//Storyboard Sound Samples
Sample,34670,0,"cheer.ogg",70
Sample,34670,0,"push_scratch.ogg",100
Sample,56004,0,"push_scratch.ogg",70
Sample,88004,0,"cheer.ogg",70
Sample,98670,0,"push_scratch.ogg",100
Sample,114670,0,"cheer.ogg",70
Sample,122670,0,"push_scratch.ogg",100
Sample,132004,0,"push_scratch.ogg",100
Sample,132004,0,"cheer.ogg",70
Sample,153337,0,"push_scratch.ogg",100

[TimingPoints]
2672,333.333333333333,3,2,2,50,1,0
18671,333.333333333333,4,2,1,50,1,0
34670,-100,4,2,1,50,0,1
45337,-100,4,2,1,50,0,0
88004,-100,4,2,1,50,0,1
98670,-100,4,2,1,50,0,0
109337,-100,4,2,1,50,0,1
120004,-100,4,2,1,50,0,0
132004,-100,4,2,1,50,0,1
141337,-100,4,2,1,50,0,0
142670,-100,4,2,1,50,0,1
153337,-100,4,2,1,50,0,0

[HitObjects]
192,192,2671,128,0,3005:0:0:0:0:
64,192,2671,1,0,0:0:0:0:
320,192,3005,1,0,0:0:0:0:
448,192,3005,1,0,0:0:0:0:
320,192,3338,1,0,0:0:0:0:
448,192,3338,1,0,0:0:0:0:
192,192,3671,1,0,0:0:0:0:
320,192,3671,128,0,4005:0:0:0:0:
64,192,4005,1,0,0:0:0:0:
448,192,4005,1,0,0:0:0:0:
64,192,4338,1,0,0:0:0:0:
448,192,4338,1,0,0:0:0:0:
320,192,4671,1,0,0:0:0:0:
448,192,4671,128,0,5005:0:0:0:0:
64,192,5005,1,0,0:0:0:0:
192,192,5005,1,0,0:0:0:0:
64,192,5338,1,0,0:0:0:0:
192,192,5338,1,0,0:0:0:0:
64,192,5671,128,0,6005:0:0:0:0:
448,192,5671,1,0,0:0:0:0:
320,192,6005,1,0,0:0:0:0:
192,192,6005,1,0,0:0:0:0:
192,192,6338,1,0,0:0:0:0:
320,192,6338,1,0,0:0:0:0:
64,192,6671,1,0,0:0:0:0:
192,192,6671,128,0,7005:0:0:0:0:
448,192,7005,1,0,0:0:0:0:
320,192,7005,1,0,0:0:0:0:
448,192,7338,1,0,0:0:0:0:
320,192,7338,1,0,0:0:0:0:
192,192,7671,1,0,0:0:0:0:
448,192,7671,128,0,8005:0:0:0:0:
320,192,8005,1,0,0:0:0:0:
64,192,8005,1,0,0:0:0:0:
320,192,8338,1,0,0:0:0:0:
64,192,8338,1,0,0:0:0:0:
192,192,8671,1,0,0:0:0:0:
320,192,8671,128,0,9005:0:0:0:0:
64,192,9005,1,0,0:0:0:0:
448,192,9005,1,0,0:0:0:0:
64,192,9338,1,0,0:0:0:0:
448,192,9338,1,0,0:0:0:0:
320,192,9671,1,0,0:0:0:0:
64,192,9671,128,0,10005:0:0:0:0:
192,192,10005,1,0,0:0:0:0:
448,192,10005,1,0,0:0:0:0:
448,192,10338,1,0,0:0:0:0:
192,192,10338,1,0,0:0:0:0:
192,192,10671,128,0,11005:0:0:0:0:
320,192,10671,1,0,0:0:0:0:
448,192,11005,1,0,0:0:0:0:
64,192,11005,1,0,0:0:0:0:
448,192,11338,1,0,0:0:0:0:
64,192,11338,1,0,0:0:0:0:
448,192,11671,128,0,12005:0:0:0:0:
320,192,11671,1,0,0:0:0:0:
64,192,12005,1,0,0:0:0:0:
192,192,12005,1,0,0:0:0:0:
64,192,12338,1,0,0:0:0:0:
192,192,12338,1,0,0:0:0:0:
192,192,12671,128,0,13005:0:0:0:0:
448,192,12671,1,0,0:0:0:0:
320,192,13005,1,0,0:0:0:0:
64,192,13005,1,0,0:0:0:0:
64,192,13338,1,0,0:0:0:0:
320,192,13338,1,0,0:0:0:0:
320,192,13671,128,0,14005:0:0:0:0:
192,192,13671,1,0,0:0:0:0:
448,192,14005,1,0,0:0:0:0:
64,192,14005,1,0,0:0:0:0:
448,192,14338,1,0,0:0:0:0:
64,192,14338,1,0,0:0:0:0:
448,192,14671,128,0,18005:0:0:0:0:
64,192,14671,1,0,0:0:0:0:
192,192,14671,1,0,0:0:0:0:
320,192,15671,128,0,16671:0:0:0:0:
192,192,16671,128,0,18005:0:0:0:0:
64,192,18005,1,0,0:0:0:0:
192,192,18116,1,0,0:0:0:0:
320,192,18227,1,0,0:0:0:0:
448,192,18338,1,0,0:0:0:0:
320,192,18449,1,0,0:0:0:0:
192,192,18560,1,0,0:0:0:0:
448,192,18671,1,2,0:0:0:0:
64,192,18671,128,4,19004:0:0:0:0:
320,192,18782,1,0,0:0:0:0:
192,192,18893,1,0,0:0:0:0:
320,192,19004,1,2,0:0:0:0:
448,192,19004,128,4,19337:0:0:0:0:
192,192,19115,1,0,0:0:0:0:
64,192,19226,1,0,0:0:0:0:
192,192,19337,128,4,19671:0:0:0:0:
320,192,19337,1,2,0:0:0:0:
448,192,19448,1,0,0:0:0:0:
64,192,19559,1,0,0:0:0:0:
448,192,19671,1,2,0:0:0:0:
320,192,19671,128,4,20004:0:0:0:0:
64,192,19782,1,0,0:0:0:0:
448,192,19893,1,0,0:0:0:0:
192,192,20004,1,4,0:0:0:0:
64,192,20004,1,2,0:0:0:0:
448,192,20115,1,2,0:0:0:0:
320,192,20115,1,0,0:0:0:0:
192,192,20226,1,2,0:0:0:0:
448,192,20337,1,4,0:0:0:0:
64,192,20337,1,2,0:0:0:0:
320,192,20448,1,2,0:0:0:0:
192,192,20448,1,0,0:0:0:0:
64,192,20559,1,2,0:0:0:0:
320,192,20670,1,4,0:0:0:0:
448,192,20670,1,2,0:0:0:0:
192,192,20782,1,2,0:0:0:0:
64,192,20782,1,0,0:0:0:0:
448,192,20893,1,2,0:0:0:0:
64,192,21004,1,4,0:0:0:0:
320,192,21004,1,2,0:0:0:0:
192,192,21115,1,2,0:0:0:0:
448,192,21115,1,0,0:0:0:0:
64,192,21226,1,2,0:0:0:0:
320,192,21337,1,0,0:0:0:50:cymbal.wav
448,192,21337,1,2,0:0:0:0:
320,192,21559,1,2,0:0:0:0:
448,192,21559,1,0,0:0:0:50:cymbal.wav
64,192,21670,1,0,0:0:0:0:
192,192,21782,1,0,0:0:0:0:
320,192,21893,1,0,0:0:0:0:
448,192,22004,1,2,0:0:0:0:
64,192,22004,1,0,0:0:0:50:cymbal.wav
448,192,22226,1,2,0:0:0:0:
64,192,22226,1,0,0:0:0:50:cymbal.wav
320,192,22337,1,0,0:0:0:0:
192,192,22448,1,0,0:0:0:0:
64,192,22559,1,0,0:0:0:0:
320,192,22670,1,2,0:0:0:0:
448,192,22670,1,4,0:0:0:0:
320,192,23004,1,4,0:0:0:0:
192,192,23004,1,2,0:0:0:0:
192,192,23337,1,2,0:0:0:0:
64,192,23337,1,4,0:0:0:0:
320,192,23670,128,0,24004:0:0:0:0:
448,192,24004,1,4,0:0:0:0:
64,192,24004,1,0,0:0:0:70:boom.wav
192,192,24004,1,0,0:0:0:0:
320,192,24226,1,0,0:0:0:0:
192,192,24337,1,0,0:0:0:0:
64,192,24559,1,0,0:0:0:0:
192,192,24670,1,0,0:0:0:0:
448,192,24893,1,0,0:0:0:0:
320,192,25004,1,0,0:0:0:0:
192,192,25226,1,0,0:0:0:0:
64,192,25337,1,0,0:0:0:0:
320,192,25559,1,0,0:0:0:0:
192,192,25670,1,0,0:0:0:0:
192,192,25893,1,0,0:0:0:0:
320,192,26004,1,0,0:0:0:0:
448,192,26226,1,0,0:0:0:0:
64,192,26337,1,0,0:0:0:0:
64,192,26559,1,0,0:0:0:0:
320,192,26670,1,0,0:0:0:0:
320,192,26893,1,0,0:0:0:0:
192,192,27004,1,0,0:0:0:0:
448,192,27115,1,0,0:0:0:0:
320,192,27226,1,0,0:0:0:0:
192,192,27337,1,0,0:0:0:0:
192,192,27559,1,0,0:0:0:0:
320,192,27670,1,0,0:0:0:0:
64,192,27782,1,0,0:0:0:0:
192,192,27893,1,0,0:0:0:0:
320,192,28004,1,0,0:0:0:0:
448,192,28226,1,0,0:0:0:0:
320,192,28337,1,0,0:0:0:0:
448,192,28559,1,0,0:0:0:0:
64,192,28670,1,0,0:0:0:0:
192,192,28893,1,0,0:0:0:0:
448,192,29004,128,2,29337:0:0:0:0:
320,192,29004,1,0,0:0:0:0:
192,192,29337,1,2,0:0:0:0:
64,192,29337,1,4,0:0:0:0:
448,192,29559,1,0,0:0:0:0:
64,192,29670,1,8,0:0:0:0:
320,192,29670,1,0,0:0:0:0:
192,192,29893,1,0,0:0:0:0:
448,192,30004,1,8,0:0:0:0:
320,192,30004,1,0,0:0:0:0:
320,192,30226,1,0,0:0:0:0:
192,192,30337,1,8,0:0:0:0:
64,192,30337,1,0,0:0:0:0:
64,192,30559,1,0,0:0:0:0:
192,192,30670,1,8,0:0:0:0:
448,192,30670,1,0,0:0:0:0:
320,192,30893,1,0,0:0:0:0:
448,192,31004,1,8,0:0:0:0:
64,192,31004,1,0,0:0:0:0:
192,192,31226,1,0,0:0:0:0:
320,192,31337,1,8,0:0:0:0:
448,192,31337,1,0,0:0:0:0:
64,192,31559,1,8,0:0:0:0:
192,192,31559,1,0,0:0:0:0:
320,192,31670,1,8,0:0:0:0:
448,192,31670,1,0,0:0:0:0:
192,192,31782,1,8,0:0:0:0:
64,192,31782,1,0,0:0:0:0:
320,192,31893,1,8,0:0:0:0:
448,192,31893,1,0,0:0:0:0:
64,192,32004,1,2,0:0:0:0:
448,192,32004,1,4,0:0:0:0:
192,192,32004,1,0,0:0:0:0:
320,192,32226,1,0,0:0:0:0:
64,192,32337,1,2,0:0:0:0:
192,192,32337,1,0,0:0:0:0:
320,192,32448,1,0,0:0:0:0:
192,192,32559,1,0,0:0:0:0:
448,192,32670,1,2,0:0:0:0:
64,192,32670,1,4,0:0:0:0:
320,192,32782,1,8,0:0:0:0:
192,192,32782,1,0,0:0:0:0:
448,192,32893,1,8,0:0:0:0:
64,192,32893,1,0,0:0:0:0:
320,192,33004,1,10,0:0:0:0:
64,192,33115,1,8,0:0:0:0:
192,192,33115,1,0,0:0:0:0:
320,192,33226,1,8,0:0:0:0:
448,192,33226,1,0,0:0:0:0:
192,192,33337,1,2,0:0:0:0:
64,192,33337,1,4,0:0:0:0:
448,192,33337,1,0,0:0:0:0:
64,192,34004,1,2,0:0:0:0:
448,192,34004,1,4,0:0:0:0:
192,192,34115,1,4,0:0:0:0:
320,192,34115,1,2,0:0:0:0:
64,192,34226,1,4,0:0:0:0:
448,192,34226,1,2,0:0:0:0:
192,192,34337,1,6,0:0:0:0:
320,192,34448,1,4,0:0:0:0:
448,192,34448,1,2,0:0:0:0:
64,192,34559,1,2,0:0:0:0:
192,192,34559,1,4,0:0:0:0:
448,192,34670,1,2,0:0:0:0:
64,192,34670,1,4,0:0:0:0:
320,192,34670,1,0,0:0:0:0:
192,192,34893,1,0,0:0:0:0:
64,192,35004,1,8,0:0:0:0:
448,192,35004,1,0,0:0:0:0:
320,192,35115,1,0,0:0:0:0:
192,192,35226,1,0,0:0:0:0:
320,192,35337,1,2,0:0:0:0:
448,192,35337,1,0,0:0:0:0:
64,192,35559,1,0,0:0:0:0:
192,192,35670,1,8,0:0:0:0:
448,192,35670,1,0,0:0:0:0:
320,192,35782,1,0,0:0:0:0:
192,192,35893,1,0,0:0:0:0:
64,192,36004,1,2,0:0:0:0:
448,192,36004,1,0,0:0:0:0:
320,192,36226,1,0,0:0:0:0:
192,192,36337,1,8,0:0:0:0:
64,192,36337,1,0,0:0:0:0:
448,192,36448,1,0,0:0:0:0:
64,192,36559,1,0,0:0:0:0:
448,192,36670,1,2,0:0:0:0:
192,192,36670,1,0,0:0:0:0:
320,192,36893,1,0,0:0:0:0:
64,192,37004,1,8,0:0:0:0:
448,192,37004,1,0,0:0:0:0:
192,192,37115,1,0,0:0:0:0:
320,192,37226,1,0,0:0:0:0:
192,192,37337,1,2,0:0:0:0:
64,192,37337,1,4,0:0:0:0:
448,192,37337,1,0,0:0:0:0:
320,192,37559,1,0,0:0:0:0:
64,192,37670,1,8,0:0:0:0:
448,192,37670,1,0,0:0:0:0:
320,192,37782,1,0,0:0:0:0:
192,192,37893,1,0,0:0:0:0:
64,192,37893,1,0,0:0:0:0:
320,192,38004,1,2,0:0:0:0:
448,192,38004,1,4,0:0:0:0:
64,192,38226,1,0,0:0:0:0:
192,192,38337,1,8,0:0:0:0:
448,192,38337,1,0,0:0:0:0:
320,192,38448,1,0,0:0:0:0:
64,192,38559,1,0,0:0:0:0:
448,192,38559,1,0,0:0:0:0:
320,192,38670,1,2,0:0:0:0:
192,192,38670,1,0,0:0:0:50:cymbal.wav
192,192,38893,1,0,0:0:0:0:
448,192,38893,1,0,0:0:0:0:
320,192,39004,1,8,0:0:0:0:
64,192,39004,1,0,0:0:0:50:cymbal.wav
448,192,39226,1,0,0:0:0:0:
320,192,39226,1,0,0:0:0:0:
192,192,39337,1,2,0:0:0:0:
64,192,39337,1,4,0:0:0:0:
192,192,39559,1,2,0:0:0:0:
64,192,39559,1,4,0:0:0:0:
448,192,39670,1,0,0:0:0:0:
320,192,39670,1,0,0:0:0:0:
64,192,39893,1,2,0:0:0:0:
320,192,39893,1,0,0:0:0:0:
448,192,40004,1,2,0:0:0:0:
192,192,40004,1,4,0:0:0:0:
64,192,40226,1,0,0:0:0:0:
192,192,40337,1,8,0:0:0:0:
448,192,40337,1,0,0:0:0:0:
320,192,40448,1,0,0:0:0:0:
192,192,40559,1,0,0:0:0:0:
448,192,40670,1,2,0:0:0:0:
320,192,40670,1,0,0:0:0:0:
192,192,40893,1,0,0:0:0:0:
448,192,41004,1,8,0:0:0:0:
64,192,41004,1,0,0:0:0:0:
320,192,41115,1,0,0:0:0:0:
192,192,41226,1,0,0:0:0:0:
320,192,41337,1,2,0:0:0:0:
448,192,41337,1,0,0:0:0:0:
64,192,41559,1,0,0:0:0:0:
192,192,41670,1,8,0:0:0:0:
448,192,41670,1,0,0:0:0:0:
320,192,41782,1,0,0:0:0:0:
192,192,41893,1,0,0:0:0:0:
320,192,42004,1,2,0:0:0:0:
64,192,42004,1,0,0:0:0:0:
448,192,42226,1,0,0:0:0:0:
64,192,42337,1,8,0:0:0:0:
192,192,42337,1,0,0:0:0:0:
320,192,42448,1,8,0:0:0:0:
448,192,42448,1,0,0:0:0:0:
192,192,42559,1,8,0:0:0:0:
64,192,42559,1,0,0:0:0:0:
64,192,42670,1,2,0:0:0:0:
448,192,42670,1,0,0:0:0:50:cymbal.wav
448,192,42893,1,2,0:0:0:0:
64,192,42893,1,0,0:0:0:50:cymbal.wav
320,192,43004,1,0,0:0:0:0:
192,192,43115,1,0,0:0:0:0:
320,192,43226,1,0,0:0:0:0:
64,192,43337,1,2,0:0:0:0:
448,192,43337,1,0,0:0:0:50:cymbal.wav
448,192,43559,1,2,0:0:0:0:
64,192,43559,1,0,0:0:0:50:cymbal.wav
192,192,43670,1,0,0:0:0:0:
320,192,43782,1,0,0:0:0:0:
192,192,43893,1,0,0:0:0:0:
64,192,44004,1,2,0:0:0:0:
448,192,44004,1,4,0:0:0:0:
320,192,44337,1,2,0:0:0:0:
448,192,44337,1,4,0:0:0:0:
192,192,44670,1,2,0:0:0:0:
64,192,44670,1,4,0:0:0:0:
64,192,45004,128,0,45337:0:0:0:70:LR3_Snare DSW.wav
448,192,45004,1,0,0:0:0:0:
448,192,45337,1,0,0:0:0:50:kick.wav
320,192,45337,1,4,0:0:0:0:
192,192,45559,1,0,0:0:0:0:
64,192,45670,1,0,0:0:0:50:kick.wav
448,192,45670,1,0,0:0:0:0:
320,192,45782,1,0,0:0:0:0:
192,192,45893,1,0,0:0:0:0:
448,192,46004,1,0,0:0:0:50:kick.wav
320,192,46004,1,0,0:0:0:0:
64,192,46226,1,0,0:0:0:0:
448,192,46337,1,0,0:0:0:50:kick.wav
192,192,46337,1,0,0:0:0:0:
320,192,46559,1,0,0:0:0:0:
192,192,46670,1,0,0:0:0:50:kick.wav
448,192,46670,1,0,0:0:0:0:
64,192,46893,1,0,0:0:0:0:
448,192,47004,1,0,0:0:0:50:kick.wav
192,192,47004,1,0,0:0:0:0:
192,192,47337,1,0,0:0:0:50:kick.wav
448,192,47337,1,0,0:0:0:0:
64,192,47670,128,0,47893:0:0:0:70:LR3_Snare DSW.wav
320,192,47670,1,0,0:0:0:0:
448,192,47893,1,0,0:0:0:0:
64,192,48004,1,4,0:0:0:0:
192,192,48004,1,0,0:0:0:50:kick.wav
64,192,48337,1,0,0:0:0:50:kick.wav
448,192,48337,1,0,0:0:0:0:
192,192,48559,1,0,0:0:0:0:
320,192,48670,1,0,0:0:0:50:kick.wav
448,192,48670,1,0,0:0:0:0:
64,192,49004,1,0,0:0:0:50:kick.wav
192,192,49004,1,0,0:0:0:0:
320,192,49226,1,0,0:0:0:0:
448,192,49337,1,0,0:0:0:50:kick.wav
64,192,49337,1,0,0:0:0:0:
192,192,49559,1,0,0:0:0:0:
64,192,49670,1,0,0:0:0:50:kick.wav
448,192,49670,1,0,0:0:0:0:
320,192,49893,1,0,0:0:0:0:
64,192,50004,1,0,0:0:0:50:kick.wav
448,192,50004,1,0,0:0:0:0:
320,192,50337,1,0,0:0:0:0:
448,192,50337,1,0,0:0:0:70:LR3_Snare DSW.wav
192,192,50448,1,0,0:0:0:0:
320,192,50559,1,0,0:0:0:0:
64,192,50670,1,4,0:0:0:0:
192,192,50670,1,0,0:0:0:50:kick.wav
448,192,50893,1,0,0:0:0:0:
64,192,51004,1,0,0:0:0:50:kick.wav
320,192,51004,1,0,0:0:0:0:
192,192,51115,1,0,0:0:0:0:
320,192,51226,1,0,0:0:0:0:
64,192,51337,1,0,0:0:0:50:kick.wav
192,192,51337,1,0,0:0:0:0:
448,192,51559,1,0,0:0:0:0:
64,192,51670,1,0,0:0:0:50:kick.wav
320,192,51670,1,0,0:0:0:0:
192,192,51893,1,0,0:0:0:0:
64,192,52004,1,0,0:0:0:50:kick.wav
320,192,52004,1,0,0:0:0:0:
448,192,52226,1,0,0:0:0:0:
64,192,52337,1,0,0:0:0:50:kick.wav
320,192,52337,1,0,0:0:0:0:
64,192,52670,1,0,0:0:0:50:kick.wav
320,192,52670,1,0,0:0:0:0:
192,192,53004,128,0,53226:0:0:0:70:LR3_Snare DSW.wav
448,192,53004,1,0,0:0:0:0:
320,192,53226,1,0,0:0:0:0:
64,192,53337,128,0,53670:0:0:0:50:kick.wav
448,192,53337,128,0,53670:0:0:0:50:cymbal.wav
192,192,53670,1,8,0:0:0:0:
320,192,53893,1,0,0:0:0:0:
64,192,54004,128,0,54337:0:0:0:50:kick.wav
192,192,54004,128,0,54337:0:0:0:50:cymbal.wav
448,192,54337,1,8,0:0:0:0:
320,192,54559,1,0,0:0:0:0:
192,192,54670,1,0,0:0:0:50:kick.wav
64,192,54670,1,4,0:0:0:0:
192,192,55004,1,0,0:0:0:50:kick.wav
448,192,55004,1,4,0:0:0:0:
320,192,55226,1,0,0:0:0:0:
64,192,55337,1,0,0:0:0:50:kick.wav
448,192,55337,1,4,0:0:0:0:
320,192,55670,1,0,0:0:0:0:
448,192,55670,1,0,0:0:0:70:LR3_Snare DSW.wav
192,192,55782,1,0,0:0:0:0:
320,192,55893,1,0,0:0:0:0:
192,192,56004,5,0,0:0:0:50:kick.wav
64,192,56004,1,4,0:0:0:0:
320,192,56226,1,0,0:0:0:0:
64,192,56337,1,0,0:0:0:50:kick.wav
448,192,56337,1,0,0:0:0:0:
192,192,56448,1,0,0:0:0:0:
320,192,56559,1,0,0:0:0:0:
448,192,56670,1,0,0:0:0:50:kick.wav
192,192,56670,1,0,0:0:0:0:
320,192,56893,1,0,0:0:0:0:
64,192,57004,1,0,0:0:0:50:kick.wav
448,192,57004,1,0,0:0:0:0:
192,192,57226,1,0,0:0:0:0:
448,192,57337,1,0,0:0:0:50:kick.wav
64,192,57337,1,0,0:0:0:0:
320,192,57559,1,0,0:0:0:0:
64,192,57670,1,0,0:0:0:50:kick.wav
448,192,57670,1,0,0:0:0:0:
64,192,58004,1,0,0:0:0:50:kick.wav
448,192,58004,1,0,0:0:0:0:
64,192,58337,1,0,0:0:0:70:LR3_Snare DSW.wav
192,192,58337,128,0,58559:0:0:0:0:
448,192,58559,1,0,0:0:0:0:
64,192,58670,1,0,0:0:0:50:kick.wav
320,192,58670,1,4,0:0:0:0:
448,192,59004,1,0,0:0:0:50:kick.wav
192,192,59004,1,0,0:0:0:0:
320,192,59226,1,0,0:0:0:0:
64,192,59337,1,0,0:0:0:50:kick.wav
192,192,59337,1,0,0:0:0:0:
448,192,59670,1,0,0:0:0:50:kick.wav
320,192,59670,1,0,0:0:0:0:
64,192,59893,1,0,0:0:0:0:
192,192,60004,1,0,0:0:0:50:kick.wav
448,192,60004,1,0,0:0:0:0:
320,192,60226,1,0,0:0:0:0:
448,192,60337,1,0,0:0:0:50:kick.wav
192,192,60337,1,0,0:0:0:0:
64,192,60559,1,0,0:0:0:0:
448,192,60670,1,0,0:0:0:0:
192,192,60670,128,0,61004:0:0:0:0:
448,192,61004,1,0,0:0:0:50:cymbal.wav
320,192,61004,1,0,0:0:0:70:LR3_Snare DSW.wav
192,192,61115,1,0,0:0:0:0:
320,192,61226,1,0,0:0:0:0:
192,192,61337,1,4,0:0:0:0:
64,192,61337,1,0,0:0:0:50:kick.wav
320,192,61559,1,0,0:0:0:0:
448,192,61670,1,0,0:0:0:50:kick.wav
64,192,61670,1,0,0:0:0:0:
192,192,61782,1,0,0:0:0:0:
320,192,61893,1,0,0:0:0:0:
64,192,62004,1,0,0:0:0:50:kick.wav
192,192,62004,1,0,0:0:0:0:
448,192,62226,1,0,0:0:0:0:
320,192,62337,1,0,0:0:0:50:kick.wav
64,192,62337,1,0,0:0:0:0:
192,192,62559,1,0,0:0:0:0:
64,192,62670,1,0,0:0:0:50:kick.wav
320,192,62670,1,0,0:0:0:0:
448,192,62893,1,0,0:0:0:0:
64,192,63004,1,0,0:0:0:50:kick.wav
320,192,63004,1,0,0:0:0:0:
64,192,63337,1,0,0:0:0:50:kick.wav
320,192,63337,1,0,0:0:0:0:
448,192,63670,128,0,63893:0:0:0:70:LR3_Snare DSW.wav
192,192,63670,1,0,0:0:0:0:
320,192,63893,1,0,0:0:0:0:
64,192,64004,128,4,64337:0:0:0:50:cymbal.wav
192,192,64004,128,0,64337:0:0:0:50:kick.wav
320,192,64337,1,8,0:0:0:0:
192,192,64559,1,0,0:0:0:0:
448,192,64670,128,0,65004:0:0:0:50:kick.wav
64,192,64670,128,4,65004:0:0:0:50:cymbal.wav
320,192,65004,1,8,0:0:0:0:
192,192,65226,1,0,0:0:0:0:
320,192,65337,1,0,0:0:0:50:kick.wav
448,192,65337,1,4,0:0:0:0:
192,192,65559,1,0,0:0:0:0:
64,192,65670,1,0,0:0:0:50:kick.wav
320,192,65670,1,4,0:0:0:0:
448,192,65893,1,0,0:0:0:0:
192,192,66004,1,0,0:0:0:50:kick.wav
64,192,66004,1,4,0:0:0:0:
64,192,66337,128,0,66670:0:0:0:0:
192,192,66670,1,2,0:0:0:0:
448,192,66670,1,0,0:0:0:50:LR_Great Bell LongH.wav
320,192,67226,1,0,0:0:0:0:
64,192,67337,1,0,0:0:0:30:hihat.wav
192,192,67337,1,0,0:0:0:0:
192,192,68004,1,0,0:0:0:30:hihat.wav
448,192,68004,1,0,0:0:0:0:
64,192,68559,1,0,0:0:0:0:
320,192,68670,1,0,0:0:0:30:hihat.wav
192,192,68670,1,0,0:0:0:0:
448,192,69226,1,0,0:0:0:30:hihat.wav
64,192,69337,1,0,0:0:0:30:hihat.wav
320,192,69337,1,0,0:0:0:0:
192,192,69893,1,0,0:0:0:0:
320,192,70004,1,0,0:0:0:30:hihat.wav
448,192,70004,1,0,0:0:0:0:
64,192,70226,1,0,0:0:0:0:
192,192,70337,1,0,0:0:0:0:
320,192,70559,1,0,0:0:0:0:
64,192,70670,1,2,0:0:0:0:
192,192,70670,1,4,0:0:0:0:
320,192,71004,1,2,0:0:0:0:
192,192,71004,1,4,0:0:0:0:
320,192,71337,1,2,0:0:0:0:
448,192,71337,1,4,0:0:0:0:
64,192,71670,1,2,0:0:0:0:
448,192,71670,1,4,0:0:0:0:
64,192,72004,1,2,0:0:0:0:
192,192,72004,1,4,0:0:0:0:
320,192,72226,1,8,0:0:0:0:
448,192,72226,1,0,0:0:0:0:
320,192,72448,1,8,0:0:0:0:
448,192,72448,1,0,0:0:0:0:
448,192,72670,1,2,0:0:0:0:
192,192,72670,1,4,0:0:0:0:
320,192,72893,1,8,0:0:0:0:
64,192,72893,1,0,0:0:0:0:
320,192,73115,1,8,0:0:0:0:
64,192,73115,1,0,0:0:0:0:
320,192,73337,1,2,0:0:0:0:
448,192,73337,1,4,0:0:0:0:
192,192,73559,1,8,0:0:0:0:
64,192,73559,1,0,0:0:0:0:
192,192,73782,1,8,0:0:0:0:
64,192,73782,1,0,0:0:0:0:
320,192,74004,1,2,0:0:0:0:
192,192,74004,1,4,0:0:0:0:
448,192,74226,1,8,0:0:0:0:
64,192,74226,1,0,0:0:0:0:
448,192,74448,1,8,0:0:0:0:
64,192,74448,1,0,0:0:0:0:
320,192,74559,1,0,0:0:0:0:
192,192,74615,1,0,0:0:0:0:
64,192,74670,128,0,76004:0:0:0:0:
448,192,74670,1,0,0:0:0:0:
192,192,75337,1,0,0:0:0:0:
448,192,75782,128,0,76004:0:0:0:0:
320,192,76004,1,2,0:0:0:0:
192,192,76004,1,4,0:0:0:0:
448,192,76115,1,2,0:0:0:0:
64,192,76115,1,4,0:0:0:0:
192,192,76226,1,2,0:0:0:0:
320,192,76226,1,4,0:0:0:0:
64,192,76337,1,2,0:0:0:0:
448,192,76337,1,4,0:0:0:0:
192,192,76559,1,2,0:0:0:0:
64,192,76559,1,4,0:0:0:0:
448,192,76670,128,2,77337:0:0:0:0:
320,192,76670,1,4,0:0:0:0:
64,192,77004,1,0,0:0:0:0:
320,192,77226,1,0,0:0:0:0:
64,192,77337,1,0,0:0:0:70:boom.wav
192,192,77337,1,0,0:0:0:0:
320,192,77559,1,0,0:0:0:0:
448,192,77670,1,0,0:0:0:70:clap.wav
192,192,77893,1,0,0:0:0:0:
320,192,78004,1,0,0:0:0:70:clap.wav
448,192,78226,1,0,0:0:0:0:
320,192,78337,1,0,0:0:0:70:clap.wav
64,192,78559,1,0,0:0:0:0:
192,192,78670,1,0,0:0:0:70:clap.wav
320,192,78893,1,0,0:0:0:0:
192,192,79004,1,0,0:0:0:70:clap.wav
64,192,79226,1,0,0:0:0:0:
192,192,79337,1,0,0:0:0:70:clap.wav
320,192,79559,1,0,0:0:0:0:
448,192,79670,1,0,0:0:0:70:clap.wav
64,192,79893,1,0,0:0:0:70:clap.wav
64,192,80004,1,0,0:0:0:70:clap.wav
320,192,80226,1,0,0:0:0:0:
192,192,80337,1,0,0:0:0:70:clap.wav
320,192,80559,1,0,0:0:0:0:
448,192,80670,1,0,0:0:0:70:clap.wav
64,192,80893,1,0,0:0:0:0:
192,192,81004,1,0,0:0:0:70:clap.wav
320,192,81226,1,0,0:0:0:0:
448,192,81337,1,2,0:0:0:0:
64,192,81337,1,4,0:0:0:0:
192,192,81559,1,0,0:0:0:0:
320,192,81670,1,2,0:0:0:0:
448,192,81670,1,4,0:0:0:0:
64,192,81893,1,0,0:0:0:0:
192,192,82004,1,2,0:0:0:0:
320,192,82004,1,4,0:0:0:0:
448,192,82226,1,0,0:0:0:0:
64,192,82337,1,2,0:0:0:0:
320,192,82337,1,4,0:0:0:0:
192,192,82559,1,0,0:0:0:0:
448,192,82670,1,2,0:0:0:0:
64,192,82670,1,4,0:0:0:0:
320,192,82893,1,0,0:0:0:0:
192,192,83004,1,8,0:0:0:0:
64,192,83004,1,0,0:0:0:0:
448,192,83226,1,0,0:0:0:0:
64,192,83337,1,8,0:0:0:0:
192,192,83337,1,0,0:0:0:0:
320,192,83559,1,0,0:0:0:0:
192,192,83670,1,8,0:0:0:0:
64,192,83670,1,0,0:0:0:0:
448,192,83893,1,0,0:0:0:0:
320,192,84004,1,8,0:0:0:0:
192,192,84004,1,0,0:0:0:0:
64,192,84226,1,0,0:0:0:0:
320,192,84337,1,8,0:0:0:0:
448,192,84337,1,0,0:0:0:0:
192,192,84559,1,0,0:0:0:0:
320,192,84670,1,8,0:0:0:0:
448,192,84670,1,0,0:0:0:0:
64,192,84893,1,8,0:0:0:0:
192,192,84893,1,0,0:0:0:0:
320,192,85004,1,2,0:0:0:0:
448,192,85004,1,4,0:0:0:0:
192,192,85115,1,8,0:0:0:0:
64,192,85115,1,0,0:0:0:0:
320,192,85226,1,8,0:0:0:0:
448,192,85226,1,0,0:0:0:0:
64,192,85337,1,2,0:0:0:0:
448,192,85337,1,4,0:0:0:0:
192,192,85448,1,0,0:0:0:0:
320,192,85559,1,0,0:0:0:0:
64,192,85670,1,8,0:0:0:0:
192,192,85670,1,0,0:0:0:0:
448,192,85782,1,0,0:0:0:0:
320,192,85893,1,0,0:0:0:0:
192,192,86004,1,2,0:0:0:0:
64,192,86004,1,4,0:0:0:0:
320,192,86115,1,8,0:0:0:0:
448,192,86115,1,0,0:0:0:0:
192,192,86226,1,8,0:0:0:0:
64,192,86226,1,0,0:0:0:0:
320,192,86337,1,8,0:0:0:0:
448,192,86448,1,8,0:0:0:0:
64,192,86448,1,0,0:0:0:0:
320,192,86559,1,8,0:0:0:0:
192,192,86559,1,0,0:0:0:0:
448,192,86670,1,2,0:0:0:0:
64,192,86670,1,4,0:0:0:0:
64,192,86837,1,0,0:0:0:0:
320,192,87004,1,2,0:0:0:0:
448,192,87004,1,4,0:0:0:0:
448,192,87170,1,0,0:0:0:0:
192,192,87337,1,2,0:0:0:0:
64,192,87337,1,4,0:0:0:0:
192,192,87504,1,0,0:0:0:0:
448,192,87670,1,0,0:0:0:0:
320,192,87670,1,0,0:0:0:0:
192,192,87893,1,0,0:0:0:0:
64,192,88004,1,6,0:0:0:0:
448,192,88004,1,0,0:0:0:100:push_scratch.ogg
320,192,88004,1,0,0:0:0:0:
192,192,88115,1,0,0:0:0:0:
320,192,88226,1,0,0:0:0:0:
448,192,88337,1,8,0:0:0:0:
192,192,88337,1,0,0:0:0:0:
64,192,88448,1,0,0:0:0:0:
448,192,88559,1,0,0:0:0:0:
320,192,88670,1,2,0:0:0:0:
64,192,88670,1,0,0:0:0:0:
192,192,88893,1,0,0:0:0:0:
448,192,89004,1,8,0:0:0:0:
64,192,89004,1,0,0:0:0:0:
320,192,89226,1,0,0:0:0:0:
448,192,89337,1,2,0:0:0:0:
192,192,89337,1,0,0:0:0:0:
320,192,89559,1,0,0:0:0:0:
448,192,89670,1,8,0:0:0:0:
64,192,89670,1,0,0:0:0:0:
192,192,89782,1,0,0:0:0:0:
320,192,89893,1,0,0:0:0:0:
64,192,90004,1,2,0:0:0:0:
192,192,90004,1,0,0:0:0:0:
448,192,90226,1,0,0:0:0:0:
192,192,90337,1,8,0:0:0:0:
320,192,90337,1,0,0:0:0:0:
64,192,90559,1,0,0:0:0:0:
320,192,90670,1,2,0:0:0:0:
448,192,90670,1,4,0:0:0:0:
192,192,90670,1,0,0:0:0:0:
64,192,90893,1,0,0:0:0:0:
192,192,91004,1,8,0:0:0:0:
320,192,91004,1,0,0:0:0:0:
448,192,91115,1,0,0:0:0:0:
64,192,91226,1,0,0:0:0:0:
192,192,91337,1,2,0:0:0:0:
448,192,91337,1,0,0:0:0:0:
320,192,91559,1,0,0:0:0:0:
64,192,91670,1,8,0:0:0:0:
192,192,91670,1,0,0:0:0:0:
320,192,91893,1,0,0:0:0:0:
448,192,92004,1,2,0:0:0:0:
64,192,92004,1,4,0:0:0:0:
192,192,92115,1,0,0:0:0:0:
320,192,92226,1,0,0:0:0:0:
448,192,92226,1,0,0:0:0:0:
192,192,92337,1,8,0:0:0:0:
64,192,92337,1,4,0:0:0:0:
320,192,92448,1,0,0:0:0:0:
192,192,92559,1,0,0:0:0:0:
448,192,92559,1,0,0:0:0:0:
320,192,92670,1,2,0:0:0:0:
64,192,92670,1,4,0:0:0:0:
448,192,92893,1,4,0:0:0:0:
64,192,92893,1,2,0:0:0:0:
320,192,93004,1,0,0:0:0:0:
192,192,93115,1,0,0:0:0:0:
320,192,93226,1,2,0:0:0:0:
448,192,93226,1,0,0:0:0:0:
192,192,93337,1,2,0:0:0:0:
64,192,93337,1,4,0:0:0:0:
320,192,93559,1,0,0:0:0:0:
448,192,93670,1,8,0:0:0:0:
64,192,93670,1,0,0:0:0:0:
192,192,93782,1,0,0:0:0:0:
320,192,93893,1,0,0:0:0:0:
64,192,94004,1,2,0:0:0:0:
192,192,94004,1,0,0:0:0:0:
448,192,94226,1,0,0:0:0:0:
320,192,94337,1,8,0:0:0:0:
64,192,94337,1,0,0:0:0:0:
192,192,94559,1,0,0:0:0:0:
448,192,94670,1,2,0:0:0:0:
320,192,94670,1,4,0:0:0:0:
64,192,94670,1,0,0:0:0:0:
448,192,94893,1,0,0:0:0:0:
64,192,95004,1,8,0:0:0:0:
320,192,95004,1,0,0:0:0:0:
192,192,95115,1,0,0:0:0:0:
320,192,95226,1,0,0:0:0:0:
448,192,95337,1,2,0:0:0:0:
64,192,95337,1,0,0:0:0:0:
64,192,95559,1,8,0:0:0:0:
192,192,95559,1,0,0:0:0:0:
448,192,95670,1,8,0:0:0:0:
320,192,95670,1,0,0:0:0:0:
192,192,95782,1,8,0:0:0:0:
64,192,95782,1,0,0:0:0:0:
320,192,95893,1,8,0:0:0:0:
448,192,95893,1,0,0:0:0:0:
448,192,96004,1,2,0:0:0:0:
64,192,96004,1,4,0:0:0:0:
192,192,96115,1,0,0:0:0:0:
320,192,96226,1,8,0:0:0:0:
448,192,96226,1,0,0:0:0:0:
192,192,96337,1,2,0:0:0:0:
64,192,96337,1,0,0:0:0:0:
320,192,96448,1,0,0:0:0:0:
448,192,96559,1,8,0:0:0:0:
192,192,96559,1,0,0:0:0:0:
320,192,96670,1,2,0:0:0:0:
64,192,96670,1,4,0:0:0:0:
192,192,96782,1,0,0:0:0:0:
320,192,96893,1,8,0:0:0:0:
448,192,96893,1,0,0:0:0:0:
64,192,97004,1,8,0:0:0:0:
192,192,97004,1,2,0:0:0:0:
320,192,97115,1,8,0:0:0:0:
448,192,97115,1,0,0:0:0:0:
192,192,97226,1,8,0:0:0:0:
64,192,97226,1,0,0:0:0:0:
320,192,97337,1,0,0:0:0:50:cymbal.wav
448,192,97337,128,2,97670:0:0:0:0:
64,192,97670,1,0,0:0:0:50:cymbal.wav
192,192,97670,128,2,98004:0:0:0:0:
448,192,98004,128,2,98337:0:0:0:0:
320,192,98004,128,0,98337:0:0:0:50:cymbal.wav
64,192,98337,1,0,0:0:0:0:
64,192,98670,5,2,0:0:0:0:
448,192,98670,1,4,0:0:0:0:
192,192,98893,1,0,0:0:0:0:
192,192,99004,1,8,0:0:0:0:
448,192,99004,1,0,0:0:0:0:
320,192,99226,1,0,0:0:0:0:
320,192,99337,1,2,0:0:0:0:
64,192,99337,1,0,0:0:0:0:
448,192,99559,1,0,0:0:0:0:
192,192,99670,1,8,0:0:0:0:
448,192,99670,1,0,0:0:0:0:
64,192,99893,1,0,0:0:0:0:
448,192,100004,1,2,0:0:0:0:
64,192,100004,1,0,0:0:0:0:
320,192,100226,1,0,0:0:0:0:
320,192,100337,1,8,0:0:0:0:
64,192,100337,1,0,0:0:0:0:
192,192,100559,1,0,0:0:0:0:
192,192,100670,1,2,0:0:0:0:
320,192,100670,1,0,0:0:0:0:
448,192,100893,1,0,0:0:0:0:
320,192,101004,1,8,0:0:0:0:
448,192,101004,1,0,0:0:0:0:
64,192,101226,1,0,0:0:0:0:
64,192,101337,1,2,0:0:0:0:
448,192,101337,1,4,0:0:0:0:
192,192,101337,1,0,0:0:0:0:
320,192,101559,1,0,0:0:0:0:
64,192,101670,1,8,0:0:0:0:
320,192,101670,1,0,0:0:0:0:
192,192,101893,1,0,0:0:0:0:
192,192,102004,1,2,0:0:0:0:
448,192,102004,1,0,0:0:0:0:
64,192,102226,1,0,0:0:0:0:
64,192,102337,1,8,0:0:0:0:
320,192,102337,1,0,0:0:0:0:
448,192,102559,1,0,0:0:0:0:
320,192,102670,1,2,0:0:0:0:
64,192,102670,1,4,0:0:0:0:
448,192,102670,1,0,0:0:0:0:
192,192,102893,1,0,0:0:0:0:
64,192,103004,1,8,0:0:0:0:
448,192,103004,1,4,0:0:0:0:
192,192,103004,1,0,0:0:0:0:
320,192,103226,1,0,0:0:0:0:
448,192,103337,1,2,0:0:0:0:
64,192,103337,1,4,0:0:0:0:
320,192,103337,1,0,0:0:0:0:
192,192,103559,1,0,0:0:0:0:
448,192,103670,1,8,0:0:0:0:
64,192,103670,1,4,0:0:0:0:
320,192,103782,1,0,0:0:0:0:
192,192,103893,1,0,0:0:0:0:
64,192,103893,1,0,0:0:0:0:
320,192,104004,1,2,0:0:0:0:
448,192,104004,1,4,0:0:0:0:
192,192,104226,1,0,0:0:0:0:
448,192,104337,1,8,0:0:0:0:
192,192,104337,1,0,0:0:0:0:
320,192,104559,1,0,0:0:0:0:
192,192,104670,1,2,0:0:0:0:
320,192,104670,1,0,0:0:0:0:
64,192,104893,1,0,0:0:0:0:
64,192,105004,1,8,0:0:0:0:
320,192,105004,1,0,0:0:0:0:
448,192,105226,1,0,0:0:0:0:
192,192,105337,1,2,0:0:0:0:
448,192,105337,1,4,0:0:0:0:
64,192,105337,1,0,0:0:0:0:
320,192,105559,1,0,0:0:0:0:
192,192,105670,1,8,0:0:0:0:
320,192,105670,1,0,0:0:0:0:
64,192,105893,1,0,0:0:0:0:
448,192,106004,1,2,0:0:0:0:
64,192,106004,1,0,0:0:0:0:
320,192,106226,1,0,0:0:0:0:
192,192,106337,1,8,0:0:0:0:
64,192,106337,1,0,0:0:0:0:
320,192,106448,1,8,0:0:0:0:
448,192,106448,1,0,0:0:0:0:
192,192,106559,1,8,0:0:0:0:
64,192,106559,1,0,0:0:0:0:
320,192,106670,1,2,0:0:0:0:
448,192,106670,1,4,0:0:0:0:
192,192,106893,1,0,0:0:0:0:
448,192,107004,1,8,0:0:0:0:
192,192,107004,1,0,0:0:0:0:
320,192,107226,1,0,0:0:0:0:
64,192,107337,1,8,0:0:0:0:
320,192,107337,1,4,0:0:0:0:
192,192,107559,1,0,0:0:0:0:
320,192,107670,1,8,0:0:0:0:
448,192,107670,1,0,0:0:0:0:
192,192,107782,1,8,0:0:0:0:
64,192,107782,1,0,0:0:0:0:
320,192,107893,1,8,0:0:0:0:
448,192,107893,1,0,0:0:0:0:
192,192,108004,1,2,0:0:0:0:
64,192,108004,1,4,0:0:0:0:
64,192,108337,1,2,0:0:0:0:
192,192,108337,1,4,0:0:0:0:
64,192,108670,1,2,0:0:0:0:
192,192,108670,1,4,0:0:0:0:
448,192,108893,1,0,0:0:0:0:
320,192,109004,1,0,0:0:0:70:LR3_Snare DSW.wav
64,192,109004,1,0,0:0:0:0:
192,192,109115,1,0,0:0:0:0:
320,192,109226,1,0,0:0:0:0:
448,192,109337,1,0,0:0:0:50:kick.wav
64,192,109337,1,0,0:0:0:100:push_scratch.ogg
320,192,109448,1,0,0:0:0:50:kick.wav
192,192,109559,1,0,0:0:0:50:kick.wav
64,192,109559,1,0,0:0:0:0:
320,192,109670,1,0,0:0:0:50:kick.wav
448,192,109670,1,0,0:0:0:0:
192,192,109782,1,0,0:0:0:0:
448,192,109893,1,0,0:0:0:0:
64,192,110004,1,0,0:0:0:50:kick.wav
320,192,110004,1,0,0:0:0:0:
192,192,110226,1,0,0:0:0:0:
448,192,110337,1,0,0:0:0:50:kick.wav
320,192,110337,1,0,0:0:0:0:
320,192,110559,1,0,0:0:0:50:kick.wav
64,192,110559,1,0,0:0:0:0:
448,192,110670,1,0,0:0:0:50:kick.wav
192,192,110670,1,0,0:0:0:0:
64,192,110893,1,0,0:0:0:0:
448,192,111004,1,0,0:0:0:50:kick.wav
192,192,111004,1,0,0:0:0:0:
320,192,111115,1,0,0:0:0:0:
192,192,111226,1,0,0:0:0:0:
64,192,111337,1,0,0:0:0:50:kick.wav
448,192,111337,1,0,0:0:0:0:
192,192,111559,1,0,0:0:0:50:kick.wav
64,192,111559,1,0,0:0:0:0:
448,192,111670,1,0,0:0:0:70:LR3_Snare DSW.wav
320,192,111670,1,0,0:0:0:0:
192,192,111782,1,0,0:0:0:0:
448,192,111893,1,0,0:0:0:0:
64,192,112004,1,0,0:0:0:50:kick.wav
320,192,112004,1,4,0:0:0:0:
192,192,112115,1,0,0:0:0:50:kick.wav
448,192,112226,1,0,0:0:0:50:kick.wav
320,192,112226,1,0,0:0:0:0:
192,192,112337,1,0,0:0:0:50:kick.wav
64,192,112337,1,0,0:0:0:0:
448,192,112448,1,0,0:0:0:0:
320,192,112559,1,0,0:0:0:50:kick.wav
64,192,112559,1,0,0:0:0:0:
192,192,112670,1,0,0:0:0:50:kick.wav
448,192,112670,1,0,0:0:0:0:
320,192,112893,1,0,0:0:0:0:
192,192,113004,1,0,0:0:0:50:kick.wav
64,192,113004,1,0,0:0:0:0:
448,192,113115,1,0,0:0:0:0:
320,192,113226,1,0,0:0:0:0:
192,192,113337,1,2,0:0:0:0:
64,192,113337,1,4,0:0:0:0:
320,192,113448,1,2,0:0:0:0:
448,192,113448,1,4,0:0:0:0:
192,192,113559,1,6,0:0:0:0:
448,192,113670,1,2,0:0:0:0:
64,192,113670,1,4,0:0:0:0:
320,192,113782,1,2,0:0:0:0:
192,192,113782,1,4,0:0:0:0:
64,192,113893,1,6,0:0:0:0:
448,192,114004,1,2,0:0:0:0:
320,192,114004,1,4,0:0:0:0:
64,192,114115,1,4,0:0:0:0:
192,192,114115,1,2,0:0:0:0:
320,192,114226,1,4,0:0:0:0:
448,192,114226,1,2,0:0:0:0:
192,192,114337,1,4,0:0:0:0:
64,192,114337,1,2,0:0:0:0:
320,192,114448,1,4,0:0:0:0:
448,192,114448,1,2,0:0:0:0:
192,192,114559,1,6,0:0:0:0:
320,192,114670,1,2,0:0:0:0:
448,192,114670,1,4,0:0:0:0:
64,192,114670,1,0,0:0:0:70:push_scratch.ogg
192,192,114893,1,0,0:0:0:0:
64,192,115004,1,8,0:0:0:0:
448,192,115004,1,0,0:0:0:0:
320,192,115115,1,0,0:0:0:0:
192,192,115226,1,0,0:0:0:0:
448,192,115337,1,2,0:0:0:0:
320,192,115337,1,0,0:0:0:0:
448,192,115559,1,0,0:0:0:0:
64,192,115670,1,8,0:0:0:0:
320,192,115670,1,0,0:0:0:0:
192,192,115782,1,0,0:0:0:0:
320,192,115893,1,0,0:0:0:0:
192,192,116004,1,2,0:0:0:0:
448,192,116004,1,4,0:0:0:0:
64,192,116226,1,0,0:0:0:0:
192,192,116337,1,8,0:0:0:0:
448,192,116337,1,0,0:0:0:0:
320,192,116448,1,0,0:0:0:0:
192,192,116559,1,0,0:0:0:0:
320,192,116670,1,2,0:0:0:0:
64,192,116670,1,0,0:0:0:0:
192,192,116893,1,8,0:0:0:0:
64,192,116893,1,0,0:0:0:0:
320,192,117004,1,8,0:0:0:0:
448,192,117004,1,0,0:0:0:0:
64,192,117115,1,8,0:0:0:0:
192,192,117115,1,0,0:0:0:0:
320,192,117226,1,8,0:0:0:0:
448,192,117226,1,0,0:0:0:0:
448,192,117337,1,2,0:0:0:0:
192,192,117337,1,4,0:0:0:0:
64,192,117448,1,0,0:0:0:0:
192,192,117559,1,8,0:0:0:0:
320,192,117559,1,0,0:0:0:0:
64,192,117670,1,2,0:0:0:0:
448,192,117670,1,0,0:0:0:0:
320,192,117782,1,0,0:0:0:0:
448,192,117893,1,8,0:0:0:0:
192,192,117893,1,0,0:0:0:0:
320,192,118004,1,2,0:0:0:0:
64,192,118004,1,4,0:0:0:0:
192,192,118115,1,0,0:0:0:0:
320,192,118226,1,8,0:0:0:0:
448,192,118226,1,0,0:0:0:0:
192,192,118337,1,8,0:0:0:0:
64,192,118337,1,2,0:0:0:0:
320,192,118448,1,8,0:0:0:0:
448,192,118448,1,0,0:0:0:0:
192,192,118559,1,8,0:0:0:0:
64,192,118559,1,0,0:0:0:0:
320,192,118670,1,0,0:0:0:50:cymbal.wav
448,192,118670,128,2,119004:0:0:0:0:
192,192,119004,1,0,0:0:0:50:cymbal.wav
320,192,119004,128,2,119337:0:0:0:0:
192,192,119337,128,2,119670:0:0:0:0:
64,192,119337,128,0,119670:0:0:0:50:cymbal.wav
448,192,119670,1,0,0:0:0:0:
64,192,120004,1,0,0:0:0:70:clap.wav
448,192,120004,1,0,0:0:0:0:
192,192,120115,1,0,0:0:0:0:
320,192,120226,1,0,0:0:0:0:
448,192,120337,1,0,0:0:0:70:clap.wav
64,192,120337,1,0,0:0:0:0:
192,192,120448,1,0,0:0:0:0:
320,192,120559,1,0,0:0:0:0:
448,192,120670,1,0,0:0:0:70:clap.wav
64,192,120670,1,0,0:0:0:0:
320,192,120782,1,0,0:0:0:0:
192,192,120893,1,0,0:0:0:0:
64,192,121004,1,0,0:0:0:70:clap.wav
448,192,121004,1,0,0:0:0:0:
192,192,121115,1,0,0:0:0:0:
320,192,121226,1,0,0:0:0:0:
64,192,121337,1,2,0:0:0:0:
192,192,121337,1,4,0:0:0:0:
320,192,121448,1,2,0:0:0:0:
448,192,121448,1,4,0:0:0:0:
64,192,121559,1,4,0:0:0:0:
192,192,121559,1,2,0:0:0:0:
320,192,121670,1,2,0:0:0:0:
448,192,121670,1,4,0:0:0:0:
192,192,121782,1,2,0:0:0:0:
64,192,121782,1,4,0:0:0:0:
448,192,121893,1,4,0:0:0:0:
320,192,121893,1,2,0:0:0:0:
64,192,122004,1,2,0:0:0:0:
192,192,122004,1,4,0:0:0:0:
448,192,122337,1,0,0:0:0:0:
64,192,122670,1,4,0:0:0:0:
192,192,122670,1,2,0:0:0:0:
320,192,122782,1,0,0:0:0:0:
448,192,122893,1,2,0:0:0:0:
192,192,122893,1,0,0:0:0:0:
64,192,123004,1,0,0:0:0:0:
320,192,123004,1,8,0:0:0:0:
448,192,123115,1,0,0:0:0:0:
192,192,123226,1,8,0:0:0:0:
64,192,123226,1,0,0:0:0:0:
448,192,123337,1,4,0:0:0:0:
320,192,123337,1,2,0:0:0:0:
64,192,123448,1,0,0:0:0:0:
448,192,123559,1,2,0:0:0:0:
192,192,123559,1,0,0:0:0:0:
320,192,123670,1,8,0:0:0:0:
64,192,123670,1,0,0:0:0:0:
448,192,123782,1,8,0:0:0:0:
192,192,123893,1,8,0:0:0:0:
64,192,123893,1,0,0:0:0:0:
448,192,124004,1,4,0:0:0:0:
320,192,124004,1,2,0:0:0:0:
192,192,124115,1,0,0:0:0:0:
64,192,124226,1,2,0:0:0:0:
448,192,124226,1,0,0:0:0:0:
320,192,124337,1,8,0:0:0:0:
192,192,124337,1,0,0:0:0:50:kick.wav
64,192,124448,1,0,0:0:0:0:
320,192,124559,1,8,0:0:0:0:
448,192,124559,1,0,0:0:0:0:
64,192,124670,1,4,0:0:0:0:
192,192,124670,1,2,0:0:0:0:
320,192,124782,1,0,0:0:0:0:
64,192,124893,1,2,0:0:0:0:
448,192,124893,1,0,0:0:0:0:
192,192,125004,1,8,0:0:0:0:
320,192,125004,1,0,0:0:0:0:
64,192,125115,1,8,0:0:0:0:
320,192,125226,1,8,0:0:0:0:
448,192,125226,1,0,0:0:0:0:
64,192,125337,1,2,0:0:0:0:
192,192,125337,1,4,0:0:0:0:
320,192,125448,1,8,0:0:0:0:
448,192,125559,1,8,0:0:0:0:
192,192,125559,1,0,0:0:0:0:
64,192,125670,1,4,0:0:0:0:
320,192,125670,1,2,0:0:0:0:
448,192,125782,1,8,0:0:0:0:
192,192,125893,1,8,0:0:0:0:
64,192,125893,1,0,0:0:0:0:
448,192,126004,1,4,0:0:0:0:
320,192,126004,1,2,0:0:0:0:
192,192,126115,1,8,0:0:0:0:
320,192,126226,1,8,0:0:0:0:
64,192,126226,1,0,0:0:0:0:
448,192,126337,1,2,0:0:0:0:
192,192,126337,1,4,0:0:0:0:
320,192,126448,1,8,0:0:0:0:
192,192,126559,1,8,0:0:0:0:
64,192,126559,1,0,0:0:0:0:
320,192,126670,1,2,0:0:0:0:
448,192,126670,1,4,0:0:0:0:
192,192,126782,1,4,0:0:0:0:
64,192,126782,1,2,0:0:0:0:
448,192,126893,1,4,0:0:0:0:
320,192,126893,1,2,0:0:0:0:
64,192,127004,1,2,0:0:0:0:
192,192,127004,1,4,0:0:0:0:
320,192,127115,1,4,0:0:0:0:
448,192,127115,1,2,0:0:0:0:
192,192,127226,1,4,0:0:0:0:
64,192,127226,1,2,0:0:0:0:
448,192,127337,1,2,0:0:0:0:
320,192,127337,1,4,0:0:0:0:
192,192,127448,1,4,0:0:0:0:
64,192,127448,1,2,0:0:0:0:
320,192,127559,1,4,0:0:0:0:
448,192,127559,1,2,0:0:0:0:
64,192,127670,1,2,0:0:0:0:
192,192,127670,1,4,0:0:0:0:
320,192,127782,1,4,0:0:0:0:
448,192,127782,1,2,0:0:0:0:
192,192,127893,1,6,0:0:0:0:
64,192,128004,1,2,0:0:0:0:
448,192,128004,1,4,0:0:0:0:
320,192,128115,1,4,0:0:0:0:
192,192,128115,1,2,0:0:0:0:
64,192,128226,1,4,0:0:0:0:
448,192,128226,1,2,0:0:0:0:
320,192,128337,1,2,0:0:0:0:
192,192,128337,1,4,0:0:0:0:
448,192,128448,1,4,0:0:0:0:
64,192,128448,1,2,0:0:0:0:
192,192,128559,1,4,0:0:0:0:
320,192,128559,1,2,0:0:0:0:
64,192,128670,1,2,0:0:0:0:
448,192,128670,1,4,0:0:0:0:
192,192,128782,1,2,0:0:0:0:
320,192,128782,1,4,0:0:0:0:
448,192,128893,1,4,0:0:0:0:
64,192,128893,1,2,0:0:0:0:
320,192,129004,1,4,0:0:0:0:
192,192,129004,1,2,0:0:0:0:
448,192,129115,1,4,0:0:0:0:
64,192,129115,1,2,0:0:0:0:
320,192,129226,1,6,0:0:0:0:
64,192,129337,1,2,0:0:0:0:
192,192,129337,1,4,0:0:0:0:
320,192,129448,1,4,0:0:0:0:
448,192,129448,1,2,0:0:0:0:
64,192,129559,1,4,0:0:0:0:
192,192,129559,1,2,0:0:0:0:
448,192,129670,1,2,0:0:0:0:
320,192,129670,1,4,0:0:0:0:
192,192,129782,1,4,0:0:0:0:
64,192,129782,1,2,0:0:0:0:
320,192,129893,1,4,0:0:0:0:
448,192,129893,1,2,0:0:0:0:
64,192,130004,1,2,0:0:0:0:
192,192,130004,1,4,0:0:0:0:
320,192,130115,1,4,0:0:0:0:
448,192,130115,1,2,0:0:0:0:
192,192,130226,1,4,0:0:0:0:
64,192,130226,1,2,0:0:0:0:
448,192,130337,1,2,0:0:0:0:
320,192,130337,1,4,0:0:0:0:
192,192,130448,1,4,0:0:0:0:
64,192,130448,1,2,0:0:0:0:
448,192,130559,1,6,0:0:0:0:
320,192,130670,1,2,0:0:0:0:
64,192,130670,1,4,0:0:0:0:
192,192,131004,1,4,0:0:0:0:
320,192,131004,1,2,0:0:0:0:
192,192,131337,1,2,0:0:0:0:
448,192,131337,1,4,0:0:0:0:
448,192,131670,128,0,132004:0:0:0:70:LR3_Snare DSW.wav
320,192,131670,128,0,132004:0:0:0:0:
192,192,132004,1,2,0:0:0:0:
64,192,132004,1,4,0:0:0:0:
448,192,132226,1,0,0:0:0:0:
320,192,132337,1,8,0:0:0:0:
64,192,132337,1,0,0:0:0:0:
192,192,132448,1,0,0:0:0:0:
320,192,132559,1,0,0:0:0:0:
448,192,132670,1,2,0:0:0:0:
64,192,132670,1,0,0:0:0:0:
192,192,132893,1,0,0:0:0:0:
320,192,133004,1,8,0:0:0:0:
448,192,133004,1,0,0:0:0:0:
64,192,133115,1,0,0:0:0:0:
320,192,133226,1,0,0:0:0:0:
64,192,133337,1,2,0:0:0:0:
192,192,133337,1,0,0:0:0:0:
192,192,133559,1,0,0:0:0:0:
320,192,133670,1,8,0:0:0:0:
448,192,133670,1,0,0:0:0:0:
64,192,133782,1,0,0:0:0:0:
448,192,133893,1,0,0:0:0:0:
320,192,134004,1,2,0:0:0:0:
64,192,134004,1,0,0:0:0:0:
192,192,134226,1,0,0:0:0:0:
64,192,134337,1,8,0:0:0:0:
448,192,134337,1,0,0:0:0:0:
192,192,134448,1,0,0:0:0:0:
320,192,134559,1,0,0:0:0:0:
64,192,134670,1,2,0:0:0:0:
192,192,134670,1,4,0:0:0:0:
448,192,134670,1,0,0:0:0:0:
448,192,134893,1,0,0:0:0:0:
320,192,135004,1,8,0:0:0:0:
64,192,135004,1,0,0:0:0:0:
192,192,135115,1,0,0:0:0:0:
320,192,135226,1,0,0:0:0:0:
448,192,135226,1,0,0:0:0:0:
64,192,135337,1,2,0:0:0:0:
192,192,135337,1,4,0:0:0:0:
448,192,135559,1,0,0:0:0:0:
64,192,135670,1,8,0:0:0:0:
320,192,135670,1,0,0:0:0:0:
192,192,135782,1,0,0:0:0:0:
448,192,135893,1,0,0:0:0:0:
64,192,135893,1,0,0:0:0:0:
320,192,136004,1,2,0:0:0:0:
192,192,136004,1,4,0:0:0:50:cymbal.wav
320,192,136226,1,0,0:0:0:0:
64,192,136226,1,0,0:0:0:0:
448,192,136337,1,8,0:0:0:0:
192,192,136337,1,4,0:0:0:50:cymbal.wav
448,192,136559,1,0,0:0:0:0:
320,192,136559,1,0,0:0:0:0:
64,192,136670,1,2,0:0:0:0:
192,192,136670,1,4,0:0:0:0:
64,192,136893,1,2,0:0:0:0:
192,192,136893,1,4,0:0:0:0:
320,192,137004,1,0,0:0:0:0:
448,192,137004,1,0,0:0:0:0:
64,192,137226,1,2,0:0:0:0:
448,192,137226,1,0,0:0:0:0:
192,192,137337,1,2,0:0:0:0:
320,192,137337,1,4,0:0:0:0:
448,192,137559,1,0,0:0:0:0:
320,192,137670,1,8,0:0:0:0:
64,192,137670,1,0,0:0:0:0:
192,192,137782,1,0,0:0:0:0:
320,192,137893,1,0,0:0:0:0:
448,192,138004,1,2,0:0:0:0:
64,192,138004,1,0,0:0:0:0:
320,192,138226,1,0,0:0:0:0:
64,192,138337,1,8,0:0:0:0:
192,192,138337,1,0,0:0:0:0:
320,192,138448,1,0,0:0:0:0:
192,192,138559,1,0,0:0:0:0:
64,192,138670,1,2,0:0:0:0:
448,192,138670,1,0,0:0:0:0:
192,192,138893,1,0,0:0:0:0:
448,192,139004,1,8,0:0:0:0:
320,192,139004,1,0,0:0:0:0:
192,192,139115,1,0,0:0:0:0:
64,192,139226,1,0,0:0:0:0:
192,192,139337,1,2,0:0:0:0:
448,192,139337,1,0,0:0:0:0:
320,192,139559,1,0,0:0:0:0:
64,192,139670,1,8,0:0:0:0:
192,192,139670,1,0,0:0:0:0:
320,192,139782,1,8,0:0:0:0:
448,192,139782,1,0,0:0:0:0:
192,192,139893,1,8,0:0:0:0:
64,192,139893,1,0,0:0:0:0:
448,192,140004,1,2,0:0:0:0:
64,192,140004,1,4,0:0:0:0:
192,192,140226,1,0,0:0:0:0:
320,192,140337,1,2,0:0:0:0:
448,192,140337,1,0,0:0:0:0:
192,192,140448,1,8,0:0:0:0:
64,192,140448,1,0,0:0:0:0:
320,192,140559,1,2,0:0:0:0:
448,192,140559,1,0,0:0:0:0:
64,192,140670,1,8,0:0:0:0:
448,192,140670,1,4,0:0:0:0:
320,192,140893,1,0,0:0:0:0:
64,192,141004,1,2,0:0:0:0:
192,192,141004,1,8,0:0:0:0:
448,192,141115,1,8,0:0:0:0:
320,192,141115,1,0,0:0:0:0:
192,192,141226,1,8,0:0:0:0:
64,192,141226,1,0,0:0:0:0:
64,192,141337,1,2,0:0:0:0:
448,192,141337,1,4,0:0:0:0:
448,192,142004,5,8,0:0:0:0:
320,192,142004,1,4,0:0:0:0:
192,192,142115,1,8,0:0:0:0:
64,192,142115,1,4,0:0:0:0:
320,192,142226,1,8,0:0:0:0:
448,192,142226,1,4,0:0:0:0:
192,192,142337,1,10,0:0:0:0:
448,192,142448,1,8,0:0:0:0:
64,192,142448,1,4,0:0:0:0:
192,192,142559,1,8,0:0:0:0:
320,192,142559,1,4,0:0:0:0:
448,192,142670,1,2,0:0:0:0:
320,192,142670,1,0,0:0:0:100:push_scratch.ogg
64,192,142670,1,0,0:0:0:70:cheer.ogg
192,192,142893,1,0,0:0:0:0:
448,192,143004,1,8,0:0:0:0:
64,192,143004,1,0,0:0:0:0:
192,192,143115,1,2,0:0:0:0:
320,192,143226,1,2,0:0:0:0:
448,192,143226,1,0,0:0:0:0:
192,192,143337,1,8,0:0:0:0:
64,192,143337,1,0,0:0:0:0:
448,192,143448,1,0,0:0:0:0:
320,192,143559,1,0,0:0:0:0:
64,192,143670,1,8,0:0:0:0:
192,192,143670,1,0,0:0:0:0:
320,192,143782,1,0,0:0:0:0:
448,192,143893,1,0,0:0:0:0:
192,192,144004,1,8,0:0:0:0:
64,192,144004,1,0,0:0:0:0:
320,192,144115,1,0,0:0:0:0:
64,192,144226,1,0,0:0:0:0:
448,192,144337,1,8,0:0:0:0:
192,192,144337,1,0,0:0:0:0:
320,192,144448,1,0,0:0:0:0:
192,192,144559,1,0,0:0:0:0:
64,192,144670,1,8,0:0:0:0:
448,192,144670,1,0,0:0:0:0:
320,192,144782,1,0,0:0:0:0:
192,192,144893,1,0,0:0:0:0:
448,192,145004,1,2,0:0:0:0:
64,192,145004,1,4,0:0:0:0:
192,192,145115,1,0,0:0:0:0:
320,192,145226,1,8,0:0:0:0:
192,192,145337,1,2,0:0:0:0:
64,192,145337,1,4,0:0:0:0:
448,192,145337,1,0,0:0:0:0:
320,192,145559,1,8,0:0:0:0:
448,192,145559,1,0,0:0:0:0:
192,192,145670,1,8,0:0:0:0:
64,192,145670,1,0,0:0:0:0:
320,192,145782,1,8,0:0:0:0:
448,192,145782,1,0,0:0:0:0:
192,192,145893,1,8,0:0:0:0:
64,192,145893,1,0,0:0:0:0:
448,192,146004,1,4,0:0:0:0:
320,192,146004,1,2,0:0:0:0:
64,192,146004,1,0,0:0:0:0:
64,192,146226,1,8,0:0:0:0:
320,192,146226,1,0,0:0:0:0:
192,192,146337,1,8,0:0:0:0:
448,192,146337,1,0,0:0:0:0:
320,192,146448,1,8,0:0:0:0:
64,192,146448,1,0,0:0:0:0:
192,192,146559,1,8,0:0:0:0:
64,192,146670,1,2,0:0:0:0:
448,192,146670,1,0,0:0:0:50:cymbal.wav
320,192,146782,1,8,0:0:0:0:
192,192,146893,1,0,0:0:0:0:
64,192,146893,1,0,0:0:0:0:
320,192,147004,1,2,0:0:0:0:
448,192,147004,1,0,0:0:0:50:cymbal.wav
64,192,147115,1,8,0:0:0:0:
192,192,147226,1,8,0:0:0:0:
320,192,147226,1,0,0:0:0:0:
448,192,147337,1,0,0:0:0:50:cymbal.wav
64,192,147337,1,2,0:0:0:0:
320,192,147448,1,8,0:0:0:0:
64,192,147559,1,8,0:0:0:0:
192,192,147559,1,0,0:0:0:0:
448,192,147670,1,0,0:0:0:50:cymbal.wav
320,192,147670,1,2,0:0:0:0:
192,192,147782,1,8,0:0:0:0:
64,192,147782,1,0,0:0:0:0:
320,192,147893,1,8,0:0:0:0:
448,192,147893,1,0,0:0:0:0:
64,192,148004,1,2,0:0:0:0:
192,192,148004,1,4,0:0:0:0:
448,192,148004,1,0,0:0:0:0:
320,192,148226,1,8,0:0:0:0:
64,192,148226,1,0,0:0:0:0:
192,192,148337,1,2,0:0:0:0:
448,192,148337,1,0,0:0:0:0:
320,192,148448,1,8,0:0:0:0:
64,192,148559,1,8,0:0:0:0:
448,192,148559,1,0,0:0:0:0:
192,192,148670,1,2,0:0:0:0:
320,192,148670,1,0,0:0:0:0:
448,192,148782,1,0,0:0:0:0:
192,192,148893,1,8,0:0:0:0:
64,192,148893,1,0,0:0:0:0:
320,192,149004,1,2,0:0:0:0:
448,192,149004,1,0,0:0:0:0:
64,192,149115,1,8,0:0:0:0:
448,192,149226,1,8,0:0:0:0:
192,192,149226,1,0,0:0:0:0:
64,192,149337,1,2,0:0:0:0:
320,192,149337,1,0,0:0:0:0:
192,192,149448,1,0,0:0:0:0:
320,192,149559,1,8,0:0:0:0:
448,192,149559,1,0,0:0:0:0:
192,192,149670,1,2,0:0:0:0:
64,192,149670,1,0,0:0:0:0:
320,192,149782,1,8,0:0:0:0:
64,192,149893,1,8,0:0:0:0:
448,192,149893,1,0,0:0:0:0:
192,192,150004,1,2,0:0:0:0:
320,192,150004,1,0,0:0:0:0:
448,192,150115,1,8,0:0:0:0:
192,192,150226,1,8,0:0:0:0:
64,192,150226,1,0,0:0:0:0:
320,192,150337,1,2,0:0:0:0:
448,192,150337,1,8,0:0:0:0:
192,192,150448,1,8,0:0:0:0:
64,192,150448,1,0,0:0:0:0:
320,192,150559,1,8,0:0:0:0:
192,192,150670,1,2,0:0:0:0:
64,192,150670,1,4,0:0:0:0:
448,192,150670,1,0,0:0:0:0:
64,192,150893,1,8,0:0:0:0:
448,192,150893,1,0,0:0:0:50:cymbal.wav
192,192,151004,1,0,0:0:0:0:
320,192,151115,1,0,0:0:0:0:
192,192,151226,1,8,0:0:0:0:
64,192,151226,1,0,0:0:0:0:
448,192,151337,1,2,0:0:0:0:
320,192,151337,1,4,0:0:0:0:
192,192,151448,1,8,0:0:0:0:
64,192,151448,1,0,0:0:0:0:
448,192,151559,1,8,0:0:0:0:
320,192,151559,1,0,0:0:0:50:cymbal.wav
64,192,151670,1,0,0:0:0:0:
192,192,151782,1,0,0:0:0:0:
320,192,151893,1,8,0:0:0:0:
64,192,152004,1,2,0:0:0:0:
192,192,152004,1,4,0:0:0:0:
448,192,152004,1,0,0:0:0:0:
320,192,152115,1,8,0:0:0:0:
192,192,152226,1,8,0:0:0:0:
320,192,152337,1,2,0:0:0:0:
448,192,152337,1,4,0:0:0:0:
192,192,152448,1,8,0:0:0:0:
64,192,152448,1,0,0:0:0:0:
320,192,152559,1,8,0:0:0:0:
64,192,152670,1,2,0:0:0:0:
192,192,152670,1,4,0:0:0:0:
448,192,152670,1,0,0:0:0:0:
320,192,153004,128,0,153337:0:0:0:70:LR3_Snare DSW.wav
448,192,153004,128,0,153337:0:0:0:0:
64,192,153337,128,2,158670:0:0:0:0:
192,192,153337,128,4,158670:0:0:0:0:
