osu file format v14

[General]
AudioFilename: audio.mp3
AudioLeadIn: 0
PreviewTime: 85981
Countdown: 0
SampleSet: Soft
StackLeniency: 0.7
Mode: 3
LetterboxInBreaks: 0
SpecialStyle: 0
WidescreenStoryboard: 1

[Editor]
Bookmarks: 22315,43648,64981,75648,96981,118315,130315
DistanceSpacing: 0.8
BeatDivisor: 3
GridSize: 4
TimelineZoom: 1.4

[Metadata]
Title:Sweet* Witch* Girl*
TitleUnicode:Sweet* Witch* Girl*
Artist:Morimori Atsushi vs. uma
ArtistUnicode:モリモリあつし vs. uma
Creator:McEndu
Version:Hyper
Source:Muse Dash
Tags:featured artist fa electronic instrumental peroperogames rttf records RTTF-0023 Happy Halloween m3-38 m3-2016秋 triplet hardcore famoss video game
BeatmapID:2891114
BeatmapSetID:1401516

[Difficulty]
HPDrainRate:8
CircleSize:7
OverallDifficulty:8
ApproachRate:5
SliderMultiplier:1.4
SliderTickRate:1

[Events]
//Background and Video events
0,0,"xxxxxx2800.jpg",0,0
//Break Periods
//Storyboard Layer 0 (Background)
//Storyboard Layer 1 (Fail)
//Storyboard Layer 2 (Pass)
//Storyboard Layer 3 (Foreground)
//Storyboard Layer 4 (Overlay)
//Storyboard Sound Samples
Sample,16982,0,"wind.wav",70

[TimingPoints]
982,333.333333333333,3,2,1,70,1,0
16982,333.333333333333,4,2,2,70,1,0
86315,-100,4,2,2,70,0,1
96981,-100,4,2,2,70,0,0
112981,-100,4,2,2,70,0,1
118315,-100,4,2,2,70,0,0
119648,-100,4,2,2,70,0,1
130315,-100,4,2,2,70,0,0

[HitObjects]
36,192,981,5,0,0:0:0:70:C6S.wav
182,192,981,1,0,0:0:0:50:C3S.wav
329,192,1315,1,0,0:0:0:70:G6S.wav
329,192,1648,1,0,0:0:0:70:G6S.wav
36,192,1981,1,0,0:0:0:70:C6S.wav
182,192,1981,1,0,0:0:0:50:C3S.wav
329,192,2315,1,0,0:0:0:70:G6S.wav
329,192,2648,1,0,0:0:0:70:G6S.wav
182,192,2981,1,0,0:0:0:70:G#6S_Ab6S.wav
475,192,2981,1,0,0:0:0:50:C3S.wav
329,192,3315,1,0,0:0:0:70:G6S.wav
256,192,3648,1,0,0:0:0:70:F#6S_Gb6S.wav
109,192,3981,1,0,0:0:0:70:G6S.wav
402,192,3981,1,0,0:0:0:50:C3S.wav
182,192,4648,1,0,0:0:0:70:D#6S_Eb6S.wav
36,192,4981,1,0,0:0:0:70:F6S.wav
329,192,4981,1,0,0:0:0:50:C3S.wav
182,192,5315,1,0,0:0:0:70:D#6S_Eb6S.wav
329,192,5648,1,0,0:0:0:70:F6S.wav
109,192,5981,1,0,0:0:0:70:G6S.wav
475,192,5981,1,0,0:0:0:50:C3S.wav
329,192,6315,1,0,0:0:0:70:F6S.wav
182,192,6648,1,0,0:0:0:70:D#6S_Eb6S.wav
36,192,6981,1,0,0:0:0:70:C6S.wav
402,192,6981,1,0,0:0:0:50:C3S.wav
475,192,7648,1,0,0:0:0:70:D#6S_Eb6S.wav
36,192,7981,1,0,0:0:0:70:D6S.wav
402,192,7981,1,0,0:0:0:50:C3S.wav
329,192,8315,1,0,0:0:0:70:C6S.wav
256,192,8648,1,0,0:0:0:70:B5S.wav
36,192,8981,1,0,0:0:0:70:C6S.wav
182,192,8981,1,0,0:0:0:50:C3S.wav
329,192,9315,1,0,0:0:0:70:G6S.wav
329,192,9648,1,0,0:0:0:70:G6S.wav
109,192,9981,1,0,0:0:0:70:C6S.wav
256,192,9981,1,0,0:0:0:50:B2S.wav
402,192,10315,1,0,0:0:0:70:G6S.wav
402,192,10648,1,0,0:0:0:70:G6S.wav
182,192,10981,1,0,0:0:0:70:G#6S_Ab6S.wav
475,192,10981,1,0,0:0:0:50:A#2S_Bb2S.wav
402,192,11315,1,0,0:0:0:70:G6S.wav
256,192,11648,1,0,0:0:0:70:F#6S_Gb6S.wav
36,192,11981,1,0,0:0:0:70:G6S.wav
329,192,11981,1,0,0:0:0:50:A2S.wav
256,192,12648,1,0,0:0:0:70:D#6S_Eb6S.wav
109,192,12981,1,0,0:0:0:70:C#6S_Db6S.wav
182,192,12981,1,0,0:0:0:50:C#3S_Db3S.wav
329,192,13981,1,0,0:0:0:70:F6S.wav
36,192,14981,1,0,0:0:0:70:C7S.wav
475,192,14981,1,0,0:0:0:0:
256,192,16315,1,0,0:0:0:0:
402,192,16426,1,0,0:0:0:0:
256,192,16537,1,0,0:0:0:0:
475,192,16648,1,0,0:0:0:0:
329,192,16759,1,0,0:0:0:0:
182,192,16870,1,0,0:0:0:0:
36,192,16982,1,6,0:0:0:0:
256,192,16982,1,0,0:0:0:40:push_scratch.wav
402,192,17093,1,0,0:0:0:0:
475,192,17204,1,0,0:0:0:0:
36,192,17315,1,4,0:0:0:0:
182,192,17315,1,2,0:0:0:0:
256,192,17426,1,0,0:0:0:0:
402,192,17537,1,0,0:0:0:0:
109,192,17648,1,4,0:0:0:0:
475,192,17648,1,2,0:0:0:0:
256,192,17759,1,0,0:0:0:0:
329,192,17870,1,0,0:0:0:0:
36,192,17982,1,4,0:0:0:0:
475,192,17982,1,2,0:0:0:0:
109,192,18093,1,0,0:0:0:0:
256,192,18204,1,0,0:0:0:0:
182,192,18315,1,2,0:0:0:0:
475,192,18315,1,4,0:0:0:0:
329,192,18426,1,10,0:0:0:0:
475,192,18537,1,10,0:0:0:0:
109,192,18648,1,2,0:0:0:0:
402,192,18648,1,4,0:0:0:0:
256,192,18759,1,10,0:0:0:0:
402,192,18870,1,10,0:0:0:0:
36,192,18981,1,2,0:0:0:0:
329,192,18981,1,4,0:0:0:0:
182,192,19093,1,10,0:0:0:0:
329,192,19204,1,10,0:0:0:0:
256,192,19315,1,2,0:0:0:0:
475,192,19315,1,4,0:0:0:0:
109,192,19426,1,10,0:0:0:0:
256,192,19537,1,10,0:0:0:0:
36,192,19648,1,2,0:0:0:0:
402,192,19648,1,0,0:0:0:50:cymbal.wav
36,192,19870,1,2,0:0:0:0:
402,192,19870,1,0,0:0:0:50:cymbal.wav
182,192,19981,1,0,0:0:0:0:
329,192,20093,1,0,0:0:0:0:
475,192,20204,1,0,0:0:0:0:
256,192,20315,1,2,0:0:0:0:
402,192,20315,1,0,0:0:0:50:cymbal.wav
256,192,20537,1,2,0:0:0:0:
402,192,20537,1,0,0:0:0:50:cymbal.wav
109,192,20648,1,0,0:0:0:0:
256,192,20759,1,0,0:0:0:0:
402,192,20870,1,0,0:0:0:0:
36,192,20981,1,4,0:0:0:0:
475,192,20981,1,2,0:0:0:0:
182,192,21315,1,2,0:0:0:0:
329,192,21315,1,4,0:0:0:0:
329,192,21648,1,4,0:0:0:0:
475,192,21648,1,2,0:0:0:0:
36,192,21981,1,0,0:0:0:0:
182,192,22315,1,2,0:0:0:0:
256,192,22315,1,0,0:0:0:70:boom.wav
402,192,22315,1,0,0:0:0:0:
109,192,22537,1,0,0:0:0:0:
256,192,22648,1,0,0:0:0:0:
329,192,22870,1,0,0:0:0:0:
475,192,22981,1,0,0:0:0:0:
402,192,23204,1,0,0:0:0:0:
256,192,23315,1,0,0:0:0:0:
329,192,23537,1,0,0:0:0:0:
182,192,23648,1,0,0:0:0:0:
36,192,23870,1,0,0:0:0:0:
182,192,23981,1,0,0:0:0:0:
402,192,24204,1,0,0:0:0:0:
256,192,24315,1,0,0:0:0:0:
109,192,24537,1,0,0:0:0:0:
475,192,24648,1,0,0:0:0:0:
329,192,24870,1,0,0:0:0:0:
182,192,24981,1,0,0:0:0:0:
109,192,25315,1,0,0:0:0:0:
256,192,25426,1,0,0:0:0:0:
402,192,25537,1,0,0:0:0:0:
256,192,25648,1,0,0:0:0:0:
36,192,25981,1,0,0:0:0:0:
182,192,26093,1,0,0:0:0:0:
329,192,26204,1,0,0:0:0:0:
182,192,26315,1,0,0:0:0:0:
329,192,26648,1,0,0:0:0:0:
475,192,26870,1,0,0:0:0:0:
402,192,26981,1,0,0:0:0:0:
256,192,27204,1,0,0:0:0:0:
36,192,27315,1,2,0:0:0:0:
329,192,27315,1,0,0:0:0:50:cymbal.wav
182,192,27537,1,0,0:0:0:0:
36,192,27648,1,4,0:0:0:0:
402,192,27648,1,2,0:0:0:0:
182,192,27870,1,0,0:0:0:0:
36,192,27981,1,8,0:0:0:0:
329,192,27981,1,0,0:0:0:0:
256,192,28204,1,0,0:0:0:0:
36,192,28315,1,8,0:0:0:0:
475,192,28315,1,0,0:0:0:0:
402,192,28537,1,0,0:0:0:0:
36,192,28648,1,8,0:0:0:0:
329,192,28648,1,0,0:0:0:0:
256,192,28870,1,0,0:0:0:0:
36,192,28981,1,8,0:0:0:0:
182,192,28981,1,0,0:0:0:0:
329,192,29204,1,0,0:0:0:0:
36,192,29315,1,8,0:0:0:0:
182,192,29315,1,0,0:0:0:0:
402,192,29537,1,0,0:0:0:0:
36,192,29648,1,8,0:0:0:0:
256,192,29648,1,0,0:0:0:0:
329,192,29870,1,8,0:0:0:0:
36,192,29981,1,8,0:0:0:0:
475,192,29981,1,0,0:0:0:0:
182,192,30093,1,8,0:0:0:0:
329,192,30204,1,8,0:0:0:0:
109,192,30315,1,4,0:0:0:0:
256,192,30315,1,2,0:0:0:0:
36,192,30648,1,2,0:0:0:0:
182,192,30648,1,0,0:0:0:0:
329,192,30759,1,0,0:0:0:0:
475,192,30870,1,0,0:0:0:0:
109,192,30981,1,4,0:0:0:0:
256,192,30981,1,2,0:0:0:0:
402,192,31093,1,8,0:0:0:0:
109,192,31204,1,8,0:0:0:0:
36,192,31315,1,2,0:0:0:0:
329,192,31315,1,8,0:0:0:0:
182,192,31426,1,8,0:0:0:0:
329,192,31537,1,8,0:0:0:0:
109,192,31648,1,4,0:0:0:0:
475,192,31648,1,2,0:0:0:0:
36,192,32315,1,2,0:0:0:0:
182,192,32315,1,0,0:0:0:50:cymbal.wav
329,192,32426,1,2,0:0:0:0:
475,192,32426,1,0,0:0:0:50:cymbal.wav
36,192,32537,1,2,0:0:0:0:
182,192,32537,1,0,0:0:0:50:cymbal.wav
329,192,32648,1,2,0:0:0:0:
475,192,32648,1,0,0:0:0:50:cymbal.wav
36,192,32759,1,2,0:0:0:0:
182,192,32759,1,0,0:0:0:50:cymbal.wav
329,192,32870,1,2,0:0:0:0:
475,192,32870,1,0,0:0:0:50:cymbal.wav
36,192,32981,1,6,0:0:0:0:
109,192,32981,1,0,0:0:0:70:cheer.ogg
256,192,32981,1,0,0:0:0:70:push_scratch.wav
182,192,33204,1,0,0:0:0:0:
36,192,33315,1,8,0:0:0:0:
329,192,33315,1,2,0:0:0:0:
402,192,33537,1,0,0:0:0:0:
36,192,33648,1,2,0:0:0:0:
475,192,33648,1,0,0:0:0:0:
402,192,33870,1,0,0:0:0:0:
36,192,33981,1,8,0:0:0:0:
329,192,33981,1,2,0:0:0:0:
256,192,34204,1,0,0:0:0:0:
36,192,34315,1,2,0:0:0:0:
182,192,34315,1,0,0:0:0:0:
109,192,34537,1,0,0:0:0:0:
36,192,34648,1,2,0:0:0:0:
256,192,34648,1,8,0:0:0:0:
329,192,34870,1,0,0:0:0:0:
36,192,34981,1,2,0:0:0:0:
182,192,34981,1,0,0:0:0:0:
109,192,35204,1,0,0:0:0:0:
36,192,35315,1,8,0:0:0:0:
475,192,35315,1,2,0:0:0:0:
402,192,35537,1,0,0:0:0:0:
36,192,35648,1,4,0:0:0:0:
256,192,35648,1,2,0:0:0:0:
36,192,35981,1,8,0:0:0:0:
182,192,35981,1,2,0:0:0:0:
329,192,36093,1,0,0:0:0:0:
475,192,36204,1,0,0:0:0:0:
36,192,36315,1,4,0:0:0:0:
182,192,36315,1,2,0:0:0:0:
36,192,36648,1,8,0:0:0:0:
109,192,36648,1,2,0:0:0:0:
256,192,36759,1,0,0:0:0:0:
402,192,36870,1,0,0:0:0:0:
36,192,36981,1,4,0:0:0:0:
329,192,36981,1,2,0:0:0:0:
182,192,37204,1,0,0:0:0:0:
36,192,37315,1,10,0:0:0:0:
329,192,37315,1,4,0:0:0:0:
475,192,37537,1,0,0:0:0:0:
36,192,37648,1,4,0:0:0:0:
402,192,37648,1,2,0:0:0:0:
109,192,37870,1,2,0:0:0:0:
256,192,37870,1,0,0:0:0:0:
36,192,37981,1,0,0:0:0:0:
329,192,37981,1,0,0:0:0:0:
182,192,38204,1,2,0:0:0:0:
256,192,38315,1,2,0:0:0:0:
402,192,38315,1,4,0:0:0:0:
475,192,38315,1,0,0:0:0:0:
36,192,38537,1,0,0:0:0:0:
182,192,38648,1,2,0:0:0:0:
475,192,38648,1,8,0:0:0:0:
256,192,38870,1,0,0:0:0:0:
402,192,38981,1,2,0:0:0:0:
475,192,38981,1,0,0:0:0:0:
329,192,39204,1,0,0:0:0:0:
256,192,39315,1,8,0:0:0:0:
475,192,39315,1,2,0:0:0:0:
182,192,39537,1,0,0:0:0:0:
109,192,39648,1,2,0:0:0:0:
475,192,39648,1,0,0:0:0:0:
182,192,39870,1,0,0:0:0:0:
36,192,39981,1,8,0:0:0:0:
475,192,39981,1,2,0:0:0:0:
256,192,40204,1,0,0:0:0:0:
109,192,40315,1,2,0:0:0:0:
475,192,40315,1,0,0:0:0:0:
36,192,40537,1,0,0:0:0:0:
329,192,40648,1,8,0:0:0:0:
475,192,40648,1,2,0:0:0:0:
182,192,40870,1,8,0:0:0:0:
36,192,40981,1,2,0:0:0:0:
329,192,40981,1,0,0:0:0:50:cymbal.wav
36,192,41204,1,2,0:0:0:0:
329,192,41204,1,0,0:0:0:50:cymbal.wav
182,192,41315,1,0,0:0:0:0:
329,192,41426,1,0,0:0:0:0:
475,192,41537,1,0,0:0:0:0:
109,192,41648,1,2,0:0:0:0:
402,192,41648,1,0,0:0:0:50:cymbal.wav
109,192,41870,1,2,0:0:0:0:
402,192,41870,1,0,0:0:0:50:cymbal.wav
36,192,41981,1,8,0:0:0:0:
182,192,42093,1,8,0:0:0:0:
329,192,42204,1,8,0:0:0:0:
36,192,42315,1,4,0:0:0:0:
182,192,42315,1,2,0:0:0:0:
329,192,42648,1,2,0:0:0:0:
475,192,42648,1,4,0:0:0:0:
36,192,42981,1,4,0:0:0:0:
182,192,42981,1,2,0:0:0:0:
109,192,43315,1,0,0:0:0:70:LR3_Snare DSW.wav
402,192,43315,1,0,0:0:0:0:
36,192,43648,1,14,0:0:0:0:
182,192,43648,1,4,0:0:0:70:push_scratch.wav
402,192,43870,1,0,0:0:0:0:
36,192,43981,1,8,0:0:0:0:
182,192,43981,1,2,0:0:0:0:
402,192,44204,1,0,0:0:0:0:
36,192,44315,1,2,0:0:0:0:
182,192,44315,1,8,0:0:0:0:
402,192,44537,1,0,0:0:0:0:
36,192,44648,1,2,0:0:0:0:
182,192,44648,1,8,0:0:0:0:
402,192,44870,1,0,0:0:0:0:
36,192,44981,1,2,0:0:0:0:
182,192,44981,1,8,0:0:0:0:
475,192,44981,1,0,0:0:0:0:
329,192,45204,1,0,0:0:0:0:
36,192,45315,1,2,0:0:0:0:
182,192,45315,1,8,0:0:0:0:
256,192,45315,1,0,0:0:0:0:
36,192,45648,1,2,0:0:0:0:
182,192,45648,1,8,0:0:0:0:
402,192,45648,1,0,0:0:0:0:
256,192,45981,1,0,0:0:0:70:LR3_Snare DSW.wav
402,192,45981,1,0,0:0:0:0:
36,192,46204,1,0,0:0:0:0:
182,192,46204,1,0,0:0:0:0:
109,192,46315,1,4,0:0:0:0:
329,192,46315,1,2,0:0:0:0:
475,192,46315,1,8,0:0:0:0:
36,192,46648,1,2,0:0:0:0:
329,192,46648,1,8,0:0:0:0:
475,192,46648,1,0,0:0:0:0:
182,192,46870,1,0,0:0:0:0:
256,192,46981,1,2,0:0:0:0:
329,192,46981,1,8,0:0:0:0:
475,192,46981,1,0,0:0:0:0:
182,192,47315,1,2,0:0:0:0:
329,192,47315,1,8,0:0:0:0:
475,192,47315,1,0,0:0:0:0:
109,192,47537,1,0,0:0:0:0:
36,192,47648,1,2,0:0:0:0:
329,192,47648,1,8,0:0:0:0:
475,192,47648,1,0,0:0:0:0:
36,192,47870,1,0,0:0:0:0:
182,192,47981,1,8,0:0:0:0:
329,192,47981,1,2,0:0:0:0:
475,192,47981,1,0,0:0:0:0:
182,192,48204,1,0,0:0:0:0:
109,192,48315,1,8,0:0:0:0:
329,192,48315,1,2,0:0:0:0:
475,192,48315,1,0,0:0:0:0:
36,192,48648,1,0,0:0:0:70:LR3_Snare DSW.wav
329,192,48648,1,0,0:0:0:0:
402,192,48759,1,0,0:0:0:0:
256,192,48870,1,0,0:0:0:0:
36,192,48981,1,2,0:0:0:0:
182,192,48981,1,4,0:0:0:0:
329,192,48981,1,8,0:0:0:0:
402,192,49204,1,0,0:0:0:0:
36,192,49315,1,2,0:0:0:0:
182,192,49315,1,8,0:0:0:0:
402,192,49537,1,0,0:0:0:0:
36,192,49648,1,2,0:0:0:0:
182,192,49648,1,8,0:0:0:0:
402,192,49870,1,0,0:0:0:0:
36,192,49981,1,2,0:0:0:0:
182,192,49981,1,8,0:0:0:0:
402,192,50204,1,0,0:0:0:0:
36,192,50315,1,8,0:0:0:0:
182,192,50315,1,2,0:0:0:0:
475,192,50315,1,0,0:0:0:0:
329,192,50537,1,0,0:0:0:0:
36,192,50648,1,2,0:0:0:0:
182,192,50648,1,8,0:0:0:0:
256,192,50648,1,0,0:0:0:0:
36,192,50981,1,2,0:0:0:0:
182,192,50981,1,8,0:0:0:0:
402,192,50981,1,0,0:0:0:0:
329,192,51315,1,0,0:0:0:70:LR3_Snare DSW.wav
475,192,51315,1,0,0:0:0:0:
109,192,51537,1,0,0:0:0:0:
256,192,51537,1,0,0:0:0:0:
36,192,51648,1,2,0:0:0:0:
329,192,51648,1,4,0:0:0:0:
475,192,51648,1,0,0:0:0:0:
36,192,51981,1,8,0:0:0:0:
329,192,52204,1,0,0:0:0:0:
109,192,52315,1,2,0:0:0:0:
256,192,52315,1,4,0:0:0:0:
402,192,52315,1,0,0:0:0:0:
475,192,52648,1,8,0:0:0:0:
256,192,52870,1,0,0:0:0:0:
36,192,52981,1,4,0:0:0:0:
182,192,52981,1,2,0:0:0:0:
329,192,52981,1,0,0:0:0:0:
182,192,53315,1,2,0:0:0:0:
329,192,53315,1,4,0:0:0:0:
475,192,53315,1,0,0:0:0:0:
36,192,53648,1,2,0:0:0:0:
182,192,53648,1,4,0:0:0:0:
329,192,53648,1,0,0:0:0:0:
256,192,53981,1,0,0:0:0:70:LR3_Snare DSW.wav
402,192,53981,1,0,0:0:0:0:
36,192,54204,1,0,0:0:0:0:
182,192,54315,1,14,0:0:0:0:
329,192,54315,1,4,0:0:0:70:push_scratch.wav
182,192,54537,1,0,0:0:0:0:
109,192,54648,1,8,0:0:0:0:
329,192,54648,1,2,0:0:0:0:
475,192,54648,1,0,0:0:0:0:
109,192,54870,1,0,0:0:0:0:
182,192,54981,1,8,0:0:0:0:
329,192,54981,1,2,0:0:0:0:
475,192,54981,1,0,0:0:0:0:
182,192,55204,1,0,0:0:0:0:
109,192,55315,1,8,0:0:0:0:
329,192,55315,1,2,0:0:0:0:
475,192,55315,1,0,0:0:0:0:
109,192,55537,1,0,0:0:0:0:
256,192,55648,1,8,0:0:0:0:
329,192,55648,1,2,0:0:0:0:
475,192,55648,1,0,0:0:0:0:
256,192,55981,1,8,0:0:0:0:
329,192,55981,1,2,0:0:0:0:
475,192,55981,1,0,0:0:0:0:
256,192,56315,1,8,0:0:0:0:
329,192,56315,1,2,0:0:0:0:
475,192,56315,1,0,0:0:0:0:
109,192,56648,1,0,0:0:0:70:LR3_Snare DSW.wav
256,192,56648,1,0,0:0:0:0:
329,192,56870,1,0,0:0:0:0:
475,192,56870,1,0,0:0:0:0:
36,192,56981,1,4,0:0:0:0:
182,192,56981,1,8,0:0:0:0:
402,192,56981,1,2,0:0:0:0:
402,192,57204,1,0,0:0:0:0:
36,192,57315,1,8,0:0:0:0:
182,192,57315,1,2,0:0:0:0:
256,192,57315,1,0,0:0:0:0:
256,192,57537,1,0,0:0:0:0:
36,192,57648,1,8,0:0:0:0:
182,192,57648,1,2,0:0:0:0:
475,192,57648,1,0,0:0:0:0:
475,192,57870,1,0,0:0:0:0:
36,192,57981,1,8,0:0:0:0:
182,192,57981,1,2,0:0:0:0:
329,192,57981,1,0,0:0:0:0:
329,192,58204,1,0,0:0:0:0:
36,192,58315,1,8,0:0:0:0:
182,192,58315,1,2,0:0:0:0:
402,192,58315,1,0,0:0:0:0:
36,192,58648,1,8,0:0:0:0:
182,192,58648,1,2,0:0:0:0:
402,192,58648,1,0,0:0:0:0:
36,192,58981,1,0,0:0:0:0:
182,192,58981,1,0,0:0:0:0:
256,192,58981,1,0,0:0:0:0:
402,192,58981,1,0,0:0:0:0:
109,192,59315,1,0,0:0:0:70:LR3_Snare DSW.wav
256,192,59315,1,0,0:0:0:0:
402,192,59426,1,0,0:0:0:0:
256,192,59537,1,0,0:0:0:0:
182,192,59648,1,2,0:0:0:0:
329,192,59648,1,4,0:0:0:0:
475,192,59648,1,8,0:0:0:0:
182,192,59870,1,0,0:0:0:0:
109,192,59981,1,8,0:0:0:0:
329,192,59981,1,2,0:0:0:0:
475,192,59981,1,0,0:0:0:0:
109,192,60204,1,0,0:0:0:0:
36,192,60315,1,8,0:0:0:0:
329,192,60315,1,2,0:0:0:0:
475,192,60315,1,0,0:0:0:0:
182,192,60648,1,8,0:0:0:0:
329,192,60648,1,2,0:0:0:0:
475,192,60648,1,0,0:0:0:0:
109,192,60870,1,0,0:0:0:0:
256,192,60981,1,8,0:0:0:0:
329,192,60981,1,2,0:0:0:0:
475,192,60981,1,0,0:0:0:0:
36,192,61315,1,2,0:0:0:0:
329,192,61315,1,8,0:0:0:0:
475,192,61315,1,0,0:0:0:0:
256,192,61648,1,8,0:0:0:0:
329,192,61648,1,2,0:0:0:0:
475,192,61648,1,0,0:0:0:0:
36,192,61981,1,0,0:0:0:70:LR3_Snare DSW.wav
182,192,61981,1,0,0:0:0:0:
256,192,62204,1,0,0:0:0:0:
402,192,62204,1,0,0:0:0:0:
36,192,62315,1,4,0:0:0:0:
182,192,62315,1,2,0:0:0:0:
475,192,62315,1,0,0:0:0:0:
256,192,62481,1,0,0:0:0:0:
402,192,62648,1,8,0:0:0:0:
182,192,62870,1,0,0:0:0:0:
109,192,62981,1,4,0:0:0:0:
329,192,62981,1,2,0:0:0:0:
475,192,62981,1,0,0:0:0:0:
402,192,63148,1,0,0:0:0:0:
256,192,63315,1,8,0:0:0:0:
36,192,63537,1,0,0:0:0:0:
109,192,63648,1,4,0:0:0:0:
256,192,63648,1,2,0:0:0:0:
475,192,63648,1,0,0:0:0:0:
36,192,63981,1,2,0:0:0:0:
256,192,63981,1,4,0:0:0:0:
402,192,63981,1,0,0:0:0:0:
109,192,64315,1,4,0:0:0:0:
256,192,64315,1,2,0:0:0:0:
475,192,64315,1,0,0:0:0:0:
36,192,64648,1,0,0:0:0:0:
402,192,64648,1,0,0:0:0:0:
256,192,64759,1,0,0:0:0:0:
109,192,64870,1,0,0:0:0:0:
36,192,64981,1,2,0:0:0:0:
329,192,64981,1,0,0:0:0:70:LR_Great Bell LongH.wav
329,192,65537,1,0,0:0:0:0:
475,192,65648,1,0,0:0:0:0:
402,192,66315,1,0,0:0:0:0:
256,192,66870,1,0,0:0:0:0:
402,192,66981,1,0,0:0:0:0:
329,192,67648,1,0,0:0:0:0:
256,192,68204,1,0,0:0:0:0:
109,192,68315,1,0,0:0:0:0:
109,192,68537,1,0,0:0:0:0:
402,192,68648,1,0,0:0:0:0:
256,192,68870,1,0,0:0:0:0:
36,192,68981,1,4,0:0:0:0:
182,192,68981,1,2,0:0:0:0:
329,192,68981,1,0,0:0:0:0:
109,192,69315,1,4,0:0:0:0:
256,192,69315,1,2,0:0:0:0:
402,192,69315,1,0,0:0:0:0:
182,192,69648,1,2,0:0:0:0:
329,192,69648,1,4,0:0:0:0:
475,192,69648,1,0,0:0:0:0:
36,192,69981,1,2,0:0:0:0:
256,192,69981,1,4,0:0:0:0:
402,192,69981,1,0,0:0:0:0:
109,192,70315,1,4,0:0:0:0:
256,192,70315,1,2,0:0:0:0:
475,192,70315,1,0,0:0:0:0:
36,192,70537,1,8,0:0:0:0:
182,192,70537,1,0,0:0:0:0:
109,192,70759,1,8,0:0:0:0:
256,192,70759,1,0,0:0:0:0:
182,192,70981,1,4,0:0:0:0:
329,192,70981,1,2,0:0:0:0:
475,192,70981,1,0,0:0:0:0:
109,192,71204,1,8,0:0:0:0:
256,192,71204,1,0,0:0:0:0:
182,192,71426,1,8,0:0:0:0:
329,192,71426,1,0,0:0:0:0:
36,192,71648,1,2,0:0:0:0:
256,192,71648,1,4,0:0:0:0:
402,192,71648,1,0,0:0:0:0:
182,192,71870,1,8,0:0:0:0:
329,192,71870,1,0,0:0:0:0:
256,192,72093,1,8,0:0:0:0:
402,192,72093,1,0,0:0:0:0:
36,192,72315,1,4,0:0:0:0:
329,192,72315,1,2,0:0:0:0:
475,192,72315,1,0,0:0:0:0:
182,192,72537,1,8,0:0:0:0:
36,192,72759,1,8,0:0:0:0:
475,192,72870,1,0,0:0:0:0:
329,192,72926,1,0,0:0:0:0:
182,192,72981,1,0,0:0:0:0:
36,192,73648,1,0,0:0:0:0:
475,192,74093,1,0,0:0:0:0:
329,192,74204,1,0,0:0:0:0:
36,192,74315,1,4,0:0:0:0:
182,192,74315,1,2,0:0:0:0:
329,192,74426,1,4,0:0:0:0:
475,192,74426,1,2,0:0:0:0:
36,192,74537,1,4,0:0:0:0:
182,192,74537,1,2,0:0:0:0:
329,192,74648,1,2,0:0:0:0:
475,192,74648,1,4,0:0:0:0:
109,192,74870,1,4,0:0:0:0:
256,192,74870,1,2,0:0:0:0:
329,192,74981,1,4,0:0:0:0:
475,192,74981,1,2,0:0:0:0:
109,192,75315,1,0,0:0:0:0:
329,192,75537,1,0,0:0:0:0:
36,192,75648,1,0,0:0:0:50:boom.wav
475,192,75648,1,0,0:0:0:50:push_scratch.wav
402,192,75870,1,0,0:0:0:0:
329,192,75981,1,0,0:0:0:70:clap.wav
256,192,76204,1,0,0:0:0:0:
109,192,76315,1,0,0:0:0:70:clap.wav
475,192,76537,1,0,0:0:0:0:
36,192,76648,1,0,0:0:0:70:clap.wav
402,192,76870,1,0,0:0:0:0:
109,192,76981,1,0,0:0:0:70:clap.wav
329,192,76981,1,0,0:0:0:0:
256,192,77204,1,0,0:0:0:0:
109,192,77315,1,0,0:0:0:70:clap.wav
329,192,77537,1,0,0:0:0:0:
36,192,77648,1,0,0:0:0:70:clap.wav
109,192,77870,1,0,0:0:0:0:
256,192,77981,1,0,0:0:0:70:clap.wav
329,192,78204,1,0,0:0:0:70:clap.wav
36,192,78315,1,0,0:0:0:70:clap.wav
402,192,78315,1,0,0:0:0:0:
182,192,78537,1,0,0:0:0:0:
256,192,78648,1,0,0:0:0:70:clap.wav
329,192,78870,1,0,0:0:0:0:
109,192,78981,1,0,0:0:0:70:clap.wav
256,192,79204,1,0,0:0:0:0:
329,192,79315,1,0,0:0:0:70:clap.wav
475,192,79537,1,0,0:0:0:0:
109,192,79648,1,4,0:0:0:0:
256,192,79648,1,2,0:0:0:0:
402,192,79648,1,0,0:0:0:0:
329,192,79870,1,0,0:0:0:0:
36,192,79981,1,4,0:0:0:0:
182,192,79981,1,2,0:0:0:0:
402,192,79981,1,0,0:0:0:0:
475,192,80204,1,0,0:0:0:0:
109,192,80315,1,2,0:0:0:0:
256,192,80315,1,4,0:0:0:0:
402,192,80315,1,0,0:0:0:0:
329,192,80537,1,0,0:0:0:0:
36,192,80648,1,4,0:0:0:0:
182,192,80648,1,2,0:0:0:0:
475,192,80648,1,0,0:0:0:0:
402,192,80870,1,0,0:0:0:0:
109,192,80981,1,4,0:0:0:0:
256,192,80981,1,8,0:0:0:0:
329,192,80981,1,2,0:0:0:0:
182,192,81204,1,0,0:0:0:0:
36,192,81315,1,8,0:0:0:0:
256,192,81315,1,0,0:0:0:0:
402,192,81537,1,0,0:0:0:0:
36,192,81648,1,8,0:0:0:0:
329,192,81870,1,0,0:0:0:0:
36,192,81981,1,8,0:0:0:0:
256,192,81981,1,0,0:0:0:0:
182,192,82204,1,0,0:0:0:0:
109,192,82315,1,8,0:0:0:0:
475,192,82315,1,0,0:0:0:0:
329,192,82537,1,0,0:0:0:0:
256,192,82648,1,8,0:0:0:0:
475,192,82648,1,0,0:0:0:0:
182,192,82870,1,0,0:0:0:0:
475,192,82981,1,8,0:0:0:0:
36,192,83204,1,8,0:0:0:0:
182,192,83204,1,0,0:0:0:0:
256,192,83315,1,8,0:0:0:0:
329,192,83315,1,2,0:0:0:0:
475,192,83315,1,4,0:0:0:0:
109,192,83537,1,8,0:0:0:0:
36,192,83648,1,4,0:0:0:0:
329,192,83648,1,2,0:0:0:0:
475,192,83648,1,8,0:0:0:0:
182,192,83759,1,0,0:0:0:0:
36,192,83870,1,0,0:0:0:0:
402,192,83981,1,8,0:0:0:0:
475,192,83981,1,0,0:0:0:0:
256,192,84093,1,0,0:0:0:0:
109,192,84204,1,0,0:0:0:0:
36,192,84315,1,4,0:0:0:0:
329,192,84315,1,2,0:0:0:0:
475,192,84315,1,8,0:0:0:0:
182,192,84426,1,8,0:0:0:0:
329,192,84537,1,8,0:0:0:0:
36,192,84648,1,8,0:0:0:0:
402,192,84648,1,0,0:0:0:0:
256,192,84759,1,8,0:0:0:0:
402,192,84870,1,8,0:0:0:0:
36,192,84981,1,2,0:0:0:0:
182,192,84981,1,8,0:0:0:0:
475,192,84981,1,4,0:0:0:0:
36,192,85315,1,2,0:0:0:0:
329,192,85315,1,8,0:0:0:0:
475,192,85315,1,4,0:0:0:0:
36,192,85648,1,4,0:0:0:0:
182,192,85648,1,2,0:0:0:0:
475,192,85648,1,8,0:0:0:0:
109,192,85981,1,0,0:0:0:0:
256,192,86204,1,0,0:0:0:0:
36,192,86315,1,6,0:0:0:0:
182,192,86315,1,0,0:0:0:70:cheer.ogg
329,192,86315,1,0,0:0:0:70:push_scratch.wav
475,192,86426,1,0,0:0:0:0:
402,192,86537,1,0,0:0:0:0:
36,192,86648,1,8,0:0:0:0:
329,192,86648,1,2,0:0:0:0:
256,192,86870,1,0,0:0:0:0:
109,192,86981,1,2,0:0:0:0:
402,192,87204,1,0,0:0:0:0:
109,192,87315,1,10,0:0:0:0:
256,192,87537,1,0,0:0:0:0:
182,192,87648,1,2,0:0:0:0:
475,192,87648,1,0,0:0:0:0:
329,192,87870,1,0,0:0:0:0:
182,192,87981,1,2,0:0:0:0:
256,192,87981,1,8,0:0:0:0:
402,192,88204,1,0,0:0:0:0:
109,192,88315,1,2,0:0:0:0:
182,192,88537,1,0,0:0:0:0:
109,192,88648,1,2,0:0:0:0:
256,192,88648,1,8,0:0:0:0:
329,192,88870,1,0,0:0:0:0:
36,192,88981,1,4,0:0:0:0:
182,192,88981,1,2,0:0:0:0:
402,192,88981,1,0,0:0:0:0:
256,192,89204,1,0,0:0:0:0:
36,192,89315,1,8,0:0:0:0:
329,192,89315,1,2,0:0:0:0:
402,192,89537,1,0,0:0:0:0:
109,192,89648,1,2,0:0:0:0:
329,192,89870,1,0,0:0:0:0:
109,192,89981,1,2,0:0:0:0:
402,192,89981,1,8,0:0:0:0:
475,192,90204,1,0,0:0:0:0:
36,192,90315,1,4,0:0:0:0:
182,192,90315,1,2,0:0:0:0:
402,192,90315,1,0,0:0:0:0:
329,192,90537,1,0,0:0:0:0:
36,192,90648,1,4,0:0:0:0:
182,192,90648,1,8,0:0:0:0:
256,192,90648,1,2,0:0:0:0:
329,192,90870,1,0,0:0:0:0:
109,192,90981,1,2,0:0:0:0:
475,192,90981,1,4,0:0:0:0:
182,192,91204,1,2,0:0:0:0:
329,192,91204,1,0,0:0:0:0:
109,192,91315,1,0,0:0:0:0:
402,192,91315,1,0,0:0:0:0:
256,192,91537,1,2,0:0:0:0:
329,192,91537,1,0,0:0:0:0:
36,192,91648,1,4,0:0:0:0:
182,192,91648,1,2,0:0:0:0:
475,192,91648,1,0,0:0:0:0:
109,192,91870,1,0,0:0:0:0:
182,192,91981,1,2,0:0:0:0:
475,192,91981,1,8,0:0:0:0:
256,192,92204,1,0,0:0:0:0:
402,192,92315,1,2,0:0:0:0:
182,192,92537,1,0,0:0:0:0:
109,192,92648,1,8,0:0:0:0:
402,192,92648,1,2,0:0:0:0:
36,192,92870,1,0,0:0:0:0:
182,192,92981,1,2,0:0:0:0:
329,192,92981,1,4,0:0:0:0:
475,192,92981,1,0,0:0:0:0:
256,192,93204,1,0,0:0:0:0:
182,192,93315,1,8,0:0:0:0:
329,192,93315,1,2,0:0:0:0:
109,192,93537,1,0,0:0:0:0:
402,192,93648,1,2,0:0:0:0:
36,192,93870,1,0,0:0:0:0:
402,192,93981,1,10,0:0:0:0:
256,192,94093,1,8,0:0:0:0:
109,192,94204,1,8,0:0:0:0:
182,192,94315,1,4,0:0:0:0:
329,192,94315,1,2,0:0:0:0:
475,192,94315,1,0,0:0:0:0:
36,192,94426,1,0,0:0:0:0:
182,192,94537,1,8,0:0:0:0:
256,192,94648,1,2,0:0:0:0:
475,192,94648,1,8,0:0:0:0:
109,192,94759,1,0,0:0:0:0:
256,192,94870,1,0,0:0:0:0:
36,192,94981,1,4,0:0:0:0:
329,192,94981,1,2,0:0:0:0:
475,192,94981,1,0,0:0:0:0:
182,192,95093,1,0,0:0:0:0:
329,192,95204,1,8,0:0:0:0:
36,192,95315,1,2,0:0:0:0:
402,192,95315,1,0,0:0:0:0:
256,192,95426,1,8,0:0:0:0:
402,192,95537,1,8,0:0:0:0:
36,192,95648,1,8,0:0:0:0:
182,192,95648,1,2,0:0:0:0:
475,192,95648,1,0,0:0:0:50:cymbal.wav
329,192,95759,1,0,0:0:0:0:
182,192,95870,1,0,0:0:0:0:
36,192,95981,1,2,0:0:0:0:
329,192,95981,1,8,0:0:0:0:
475,192,95981,1,0,0:0:0:50:cymbal.wav
329,192,96204,1,0,0:0:0:0:
36,192,96315,1,8,0:0:0:0:
182,192,96315,1,2,0:0:0:0:
475,192,96315,1,0,0:0:0:50:cymbal.wav
182,192,96648,1,0,0:0:0:0:
329,192,96870,1,0,0:0:0:0:
36,192,96981,1,6,0:0:0:0:
475,192,96981,1,0,0:0:0:70:push_scratch.wav
182,192,97093,1,0,0:0:0:0:
329,192,97204,1,0,0:0:0:0:
402,192,97315,1,10,0:0:0:0:
256,192,97426,1,0,0:0:0:0:
109,192,97537,1,0,0:0:0:0:
36,192,97648,1,2,0:0:0:0:
182,192,97759,1,0,0:0:0:0:
329,192,97870,1,0,0:0:0:0:
402,192,97981,1,10,0:0:0:0:
256,192,98093,1,0,0:0:0:0:
109,192,98204,1,0,0:0:0:0:
329,192,98315,1,2,0:0:0:0:
329,192,98537,1,0,0:0:0:0:
475,192,98648,1,10,0:0:0:0:
256,192,98759,1,0,0:0:0:0:
475,192,98870,1,0,0:0:0:0:
402,192,98981,1,2,0:0:0:0:
256,192,99093,1,0,0:0:0:0:
109,192,99204,1,0,0:0:0:0:
329,192,99315,1,10,0:0:0:0:
182,192,99426,1,0,0:0:0:0:
36,192,99537,1,0,0:0:0:0:
109,192,99648,1,4,0:0:0:0:
475,192,99648,1,2,0:0:0:0:
256,192,99759,1,0,0:0:0:0:
402,192,99870,1,0,0:0:0:0:
475,192,99981,1,10,0:0:0:0:
329,192,100093,1,0,0:0:0:0:
182,192,100204,1,0,0:0:0:0:
109,192,100315,1,2,0:0:0:0:
256,192,100426,1,0,0:0:0:0:
402,192,100537,1,0,0:0:0:0:
475,192,100648,1,10,0:0:0:0:
329,192,100759,1,0,0:0:0:0:
182,192,100870,1,0,0:0:0:0:
36,192,100981,1,2,0:0:0:0:
402,192,100981,1,4,0:0:0:0:
182,192,101093,1,0,0:0:0:0:
329,192,101204,1,0,0:0:0:0:
36,192,101315,1,12,0:0:0:0:
256,192,101315,1,2,0:0:0:0:
109,192,101426,1,0,0:0:0:0:
475,192,101537,1,0,0:0:0:0:
256,192,101648,1,4,0:0:0:0:
402,192,101648,1,2,0:0:0:0:
182,192,101759,1,0,0:0:0:0:
36,192,101870,1,0,0:0:0:0:
329,192,101981,1,6,0:0:0:0:
475,192,101981,1,8,0:0:0:0:
256,192,102093,1,0,0:0:0:0:
109,192,102204,1,0,0:0:0:0:
36,192,102315,1,4,0:0:0:0:
402,192,102315,1,2,0:0:0:0:
182,192,102426,1,0,0:0:0:0:
329,192,102537,1,0,0:0:0:0:
402,192,102648,1,10,0:0:0:0:
256,192,102759,1,0,0:0:0:0:
109,192,102870,1,0,0:0:0:0:
36,192,102981,1,2,0:0:0:0:
182,192,103093,1,0,0:0:0:0:
329,192,103204,1,0,0:0:0:0:
402,192,103315,1,10,0:0:0:0:
256,192,103426,1,0,0:0:0:0:
109,192,103537,1,0,0:0:0:0:
36,192,103648,1,4,0:0:0:0:
329,192,103648,1,2,0:0:0:0:
329,192,103870,1,0,0:0:0:0:
475,192,103981,1,10,0:0:0:0:
475,192,104204,1,0,0:0:0:0:
329,192,104315,1,2,0:0:0:0:
182,192,104426,1,0,0:0:0:0:
36,192,104537,1,0,0:0:0:0:
402,192,104648,1,10,0:0:0:0:
182,192,104759,1,8,0:0:0:0:
475,192,104870,1,8,0:0:0:0:
36,192,104981,1,4,0:0:0:0:
109,192,104981,1,2,0:0:0:0:
256,192,105093,1,0,0:0:0:0:
329,192,105204,1,2,0:0:0:0:
475,192,105315,1,10,0:0:0:0:
402,192,105426,1,0,0:0:0:0:
256,192,105537,1,2,0:0:0:0:
36,192,105648,1,4,0:0:0:0:
182,192,105648,1,2,0:0:0:0:
475,192,105759,1,0,0:0:0:0:
256,192,105870,1,2,0:0:0:0:
402,192,105981,1,10,0:0:0:0:
109,192,106093,1,8,0:0:0:0:
256,192,106204,1,8,0:0:0:0:
36,192,106315,1,4,0:0:0:0:
475,192,106315,1,2,0:0:0:0:
36,192,106648,1,4,0:0:0:0:
475,192,106648,1,2,0:0:0:0:
36,192,106981,1,4,0:0:0:0:
475,192,106981,1,2,0:0:0:0:
109,192,107204,1,0,0:0:0:0:
256,192,107315,1,0,0:0:0:70:LR3_Snare DSW.wav
402,192,107315,1,0,0:0:0:0:
109,192,107537,1,0,0:0:0:0:
182,192,107648,1,6,0:0:0:0:
475,192,107648,1,0,0:0:0:70:push_scratch.wav
36,192,107759,1,2,0:0:0:0:
402,192,107759,1,0,0:0:0:0:
182,192,107870,1,2,0:0:0:0:
329,192,107870,1,0,0:0:0:0:
36,192,107981,1,2,0:0:0:0:
256,192,107981,1,8,0:0:0:0:
182,192,108204,1,0,0:0:0:0:
329,192,108315,1,2,0:0:0:0:
475,192,108315,1,0,0:0:0:0:
36,192,108537,1,0,0:0:0:0:
329,192,108648,1,2,0:0:0:0:
475,192,108648,1,8,0:0:0:0:
182,192,108870,1,2,0:0:0:0:
109,192,108981,1,2,0:0:0:0:
329,192,108981,1,0,0:0:0:0:
475,192,108981,1,0,0:0:0:0:
182,192,109204,1,0,0:0:0:0:
256,192,109315,1,2,0:0:0:0:
329,192,109315,1,8,0:0:0:0:
475,192,109315,1,0,0:0:0:0:
182,192,109537,1,0,0:0:0:0:
329,192,109648,1,2,0:0:0:0:
475,192,109648,1,0,0:0:0:0:
109,192,109870,1,2,0:0:0:0:
182,192,109981,1,0,0:0:0:70:LR3_Snare DSW.wav
402,192,109981,1,0,0:0:0:0:
329,192,110204,1,0,0:0:0:0:
36,192,110315,1,2,0:0:0:0:
475,192,110315,1,4,0:0:0:0:
109,192,110426,1,2,0:0:0:0:
329,192,110426,1,0,0:0:0:0:
182,192,110537,1,2,0:0:0:0:
475,192,110537,1,0,0:0:0:0:
256,192,110648,1,2,0:0:0:0:
329,192,110648,1,8,0:0:0:0:
402,192,110870,1,2,0:0:0:0:
36,192,110981,1,2,0:0:0:0:
182,192,110981,1,0,0:0:0:0:
329,192,111204,1,0,0:0:0:0:
36,192,111315,1,2,0:0:0:0:
182,192,111315,1,8,0:0:0:0:
402,192,111315,1,0,0:0:0:0:
475,192,111537,1,0,0:0:0:0:
109,192,111648,1,2,0:0:0:0:
256,192,111648,1,4,0:0:0:0:
329,192,111759,1,6,0:0:0:0:
36,192,111870,1,4,0:0:0:0:
182,192,111870,1,2,0:0:0:0:
256,192,111981,1,4,0:0:0:0:
402,192,111981,1,2,0:0:0:0:
109,192,112093,1,6,0:0:0:0:
329,192,112204,1,4,0:0:0:0:
475,192,112204,1,2,0:0:0:0:
36,192,112315,1,6,0:0:0:0:
402,192,112426,1,6,0:0:0:0:
109,192,112537,1,4,0:0:0:0:
256,192,112537,1,2,0:0:0:0:
329,192,112648,1,4,0:0:0:0:
475,192,112648,1,2,0:0:0:0:
36,192,112759,1,6,0:0:0:0:
256,192,112870,1,4,0:0:0:0:
402,192,112870,1,2,0:0:0:0:
36,192,112981,1,6,0:0:0:0:
182,192,112981,1,0,0:0:0:70:cheer.ogg
475,192,112981,1,0,0:0:0:40:push_scratch.wav
109,192,113204,1,0,0:0:0:0:
182,192,113315,1,2,0:0:0:0:
475,192,113315,1,8,0:0:0:0:
256,192,113537,1,0,0:0:0:0:
402,192,113648,1,2,0:0:0:0:
182,192,113870,1,0,0:0:0:0:
109,192,113981,1,8,0:0:0:0:
402,192,113981,1,2,0:0:0:0:
36,192,114204,1,0,0:0:0:0:
182,192,114315,1,4,0:0:0:0:
329,192,114315,1,2,0:0:0:0:
475,192,114315,1,0,0:0:0:0:
256,192,114537,1,0,0:0:0:0:
182,192,114648,1,2,0:0:0:0:
329,192,114648,1,8,0:0:0:0:
109,192,114870,1,0,0:0:0:0:
402,192,114981,1,2,0:0:0:0:
36,192,115204,1,0,0:0:0:0:
402,192,115315,1,10,0:0:0:0:
256,192,115426,1,8,0:0:0:0:
109,192,115537,1,8,0:0:0:0:
182,192,115648,1,4,0:0:0:0:
329,192,115648,1,2,0:0:0:0:
475,192,115648,1,8,0:0:0:0:
36,192,115759,1,0,0:0:0:0:
182,192,115870,1,8,0:0:0:0:
256,192,115981,1,8,0:0:0:0:
475,192,115981,1,2,0:0:0:0:
109,192,116093,1,0,0:0:0:0:
256,192,116204,1,8,0:0:0:0:
36,192,116315,1,4,0:0:0:0:
329,192,116315,1,2,0:0:0:0:
475,192,116315,1,8,0:0:0:0:
182,192,116426,1,0,0:0:0:0:
329,192,116537,1,8,0:0:0:0:
36,192,116648,1,2,0:0:0:0:
402,192,116648,1,8,0:0:0:0:
256,192,116759,1,8,0:0:0:0:
402,192,116870,1,8,0:0:0:0:
36,192,116981,1,2,0:0:0:0:
182,192,116981,1,8,0:0:0:0:
475,192,116981,1,4,0:0:0:0:
329,192,117093,1,0,0:0:0:0:
182,192,117204,1,0,0:0:0:0:
36,192,117315,1,2,0:0:0:0:
329,192,117315,1,8,0:0:0:0:
475,192,117315,1,4,0:0:0:0:
329,192,117537,1,0,0:0:0:0:
36,192,117648,1,4,0:0:0:0:
182,192,117648,1,2,0:0:0:0:
475,192,117648,1,8,0:0:0:0:
256,192,118315,1,0,0:0:0:70:clap.wav
36,192,118426,1,0,0:0:0:0:
182,192,118537,1,0,0:0:0:0:
329,192,118648,1,0,0:0:0:70:clap.wav
109,192,118759,1,0,0:0:0:0:
256,192,118870,1,0,0:0:0:0:
402,192,118981,1,0,0:0:0:70:clap.wav
182,192,119093,1,0,0:0:0:0:
329,192,119204,1,0,0:0:0:0:
475,192,119315,1,0,0:0:0:70:clap.wav
256,192,119426,1,0,0:0:0:0:
402,192,119537,1,0,0:0:0:0:
36,192,119648,1,2,0:0:0:0:
182,192,119648,1,4,0:0:0:0:
402,192,119759,1,6,0:0:0:0:
36,192,119870,1,2,0:0:0:0:
182,192,119870,1,4,0:0:0:0:
329,192,119981,1,2,0:0:0:0:
475,192,119981,1,4,0:0:0:0:
109,192,120093,1,6,0:0:0:0:
329,192,120204,1,2,0:0:0:0:
475,192,120204,1,4,0:0:0:0:
36,192,120315,1,4,0:0:0:0:
182,192,120315,1,2,0:0:0:0:
36,192,120981,1,6,0:0:0:0:
256,192,120981,1,0,0:0:0:70:push_scratch.wav
109,192,121093,1,0,0:0:0:0:
36,192,121204,1,2,0:0:0:0:
256,192,121204,1,0,0:0:0:0:
329,192,121315,1,8,0:0:0:0:
182,192,121426,1,0,0:0:0:0:
329,192,121537,1,8,0:0:0:0:
109,192,121648,1,2,0:0:0:0:
402,192,121648,1,4,0:0:0:0:
256,192,121759,1,0,0:0:0:0:
109,192,121870,1,2,0:0:0:0:
402,192,121870,1,8,0:0:0:0:
475,192,121981,1,8,0:0:0:0:
329,192,122093,1,8,0:0:0:0:
475,192,122204,1,8,0:0:0:0:
182,192,122315,1,12,0:0:0:0:
329,192,122315,1,2,0:0:0:0:
36,192,122426,1,0,0:0:0:0:
182,192,122537,1,8,0:0:0:0:
329,192,122537,1,2,0:0:0:0:
256,192,122648,1,8,0:0:0:0:
402,192,122648,1,0,0:0:0:0:
109,192,122759,1,0,0:0:0:0:
256,192,122870,1,8,0:0:0:0:
329,192,122981,1,2,0:0:0:0:
475,192,122981,1,4,0:0:0:0:
182,192,123093,1,0,0:0:0:0:
329,192,123204,1,8,0:0:0:0:
475,192,123204,1,2,0:0:0:0:
36,192,123315,1,8,0:0:0:0:
402,192,123315,1,0,0:0:0:0:
256,192,123426,1,8,0:0:0:0:
402,192,123537,1,8,0:0:0:0:
109,192,123648,1,4,0:0:0:0:
256,192,123648,1,2,0:0:0:0:
402,192,123759,1,10,0:0:0:0:
109,192,123870,1,2,0:0:0:0:
256,192,123870,1,8,0:0:0:0:
182,192,123981,1,4,0:0:0:0:
329,192,123981,1,2,0:0:0:0:
36,192,124093,1,10,0:0:0:0:
182,192,124204,1,2,0:0:0:0:
329,192,124204,1,8,0:0:0:0:
256,192,124315,1,4,0:0:0:0:
402,192,124315,1,2,0:0:0:0:
109,192,124426,1,10,0:0:0:0:
256,192,124537,1,2,0:0:0:0:
402,192,124537,1,8,0:0:0:0:
329,192,124648,1,2,0:0:0:0:
475,192,124648,1,4,0:0:0:0:
182,192,124759,1,10,0:0:0:0:
329,192,124870,1,2,0:0:0:0:
475,192,124870,1,8,0:0:0:0:
36,192,124981,1,2,0:0:0:0:
182,192,124981,1,4,0:0:0:0:
402,192,125093,1,6,0:0:0:0:
36,192,125204,1,2,0:0:0:0:
182,192,125204,1,4,0:0:0:0:
329,192,125315,1,2,0:0:0:0:
475,192,125315,1,4,0:0:0:0:
109,192,125426,1,6,0:0:0:0:
329,192,125537,1,2,0:0:0:0:
475,192,125537,1,4,0:0:0:0:
36,192,125648,1,4,0:0:0:0:
182,192,125648,1,2,0:0:0:0:
402,192,125759,1,6,0:0:0:0:
36,192,125870,1,4,0:0:0:0:
182,192,125870,1,2,0:0:0:0:
329,192,125981,1,2,0:0:0:0:
475,192,125981,1,4,0:0:0:0:
109,192,126093,1,6,0:0:0:0:
475,192,126204,1,6,0:0:0:0:
329,192,126259,1,2,0:0:0:0:
36,192,126315,1,2,0:0:0:0:
182,192,126315,1,4,0:0:0:0:
402,192,126426,1,6,0:0:0:0:
36,192,126537,1,2,0:0:0:0:
182,192,126537,1,4,0:0:0:0:
329,192,126648,1,2,0:0:0:0:
475,192,126648,1,4,0:0:0:0:
109,192,126759,1,6,0:0:0:0:
329,192,126870,1,2,0:0:0:0:
475,192,126870,1,4,0:0:0:0:
36,192,126981,1,4,0:0:0:0:
182,192,126981,1,2,0:0:0:0:
402,192,127093,1,6,0:0:0:0:
36,192,127204,1,4,0:0:0:0:
182,192,127204,1,2,0:0:0:0:
329,192,127315,1,2,0:0:0:0:
475,192,127315,1,4,0:0:0:0:
109,192,127426,1,6,0:0:0:0:
475,192,127537,1,6,0:0:0:0:
329,192,127593,1,2,0:0:0:0:
182,192,127648,1,4,0:0:0:0:
36,192,127648,1,2,0:0:0:0:
402,192,127759,1,6,0:0:0:0:
182,192,127870,1,4,0:0:0:0:
36,192,127870,1,2,0:0:0:0:
475,192,127981,1,4,0:0:0:0:
329,192,127981,1,2,0:0:0:0:
109,192,128093,1,6,0:0:0:0:
475,192,128204,1,4,0:0:0:0:
329,192,128204,1,2,0:0:0:0:
182,192,128315,1,2,0:0:0:0:
36,192,128315,1,4,0:0:0:0:
402,192,128426,1,6,0:0:0:0:
182,192,128537,1,2,0:0:0:0:
36,192,128537,1,4,0:0:0:0:
475,192,128648,1,4,0:0:0:0:
329,192,128648,1,2,0:0:0:0:
109,192,128759,1,6,0:0:0:0:
475,192,128870,1,6,0:0:0:0:
329,192,128926,1,2,0:0:0:0:
36,192,128981,1,4,0:0:0:0:
182,192,128981,1,2,0:0:0:0:
182,192,129315,1,4,0:0:0:0:
329,192,129315,1,2,0:0:0:0:
475,192,129315,1,0,0:0:0:0:
36,192,129648,1,4,0:0:0:0:
182,192,129648,1,2,0:0:0:0:
329,192,129648,1,0,0:0:0:0:
256,192,129981,1,0,0:0:0:70:LR3_Snare DSW.wav
36,192,130315,1,6,0:0:0:0:
475,192,130315,1,0,0:0:0:70:boom.wav
