osu file format v14

[General]
AudioFilename: audio.mp3
AudioLeadIn: 0
PreviewTime: 85981
Countdown: 0
SampleSet: Soft
StackLeniency: 0.7
Mode: 3
LetterboxInBreaks: 0
SpecialStyle: 0
WidescreenStoryboard: 1

[Editor]
Bookmarks: 22315,43648,64981,75648,96981,118315,130315
DistanceSpacing: 0.8
BeatDivisor: 3
GridSize: 4
TimelineZoom: 1.4

[Metadata]
Title:Sweet* Witch* Girl*
TitleUnicode:Sweet* Witch* Girl*
Artist:Morimori Atsushi vs. uma
ArtistUnicode:モリモリあつし vs. uma
Creator:McEndu
Version:Beginner
Source:Muse Dash
Tags:featured artist fa electronic instrumental peroperogames rttf records RTTF-0023 Happy Halloween m3-38 m3-2016秋 triplet hardcore famoss video game
BeatmapID:2894170
BeatmapSetID:1401516

[Difficulty]
HPDrainRate:7
CircleSize:7
OverallDifficulty:7
ApproachRate:5
SliderMultiplier:1.4
SliderTickRate:1

[Events]
//Background and Video events
0,0,"xxxxxx2800.jpg",0,0
//Break Periods
2,22515,26115
//Storyboard Layer 0 (Background)
//Storyboard Layer 1 (Fail)
//Storyboard Layer 2 (Pass)
//Storyboard Layer 3 (Foreground)
//Storyboard Layer 4 (Overlay)
//Storyboard Sound Samples
Sample,981,0,"C3S.wav",50
Sample,1981,0,"C3S.wav",50
Sample,2981,0,"C3S.wav",50
Sample,3981,0,"C3S.wav",50
Sample,4981,0,"C3S.wav",50
Sample,5981,0,"C3S.wav",50
Sample,6981,0,"C3S.wav",50
Sample,7981,0,"C3S.wav",50
Sample,8981,0,"C3S.wav",50
Sample,9981,0,"B2S.wav",50
Sample,10981,0,"A#2S_Bb2S.wav",50
Sample,11981,0,"A2S.wav",50
Sample,12981,0,"C#3S_Db3S.wav",50
Sample,16982,0,"wind.wav",70
Sample,27315,0,"cymbal.wav",50
Sample,32315,0,"cymbal.wav",50
Sample,32981,0,"push_scratch.wav",70
Sample,64981,0,"LR_Great Bell LongH.wav",70
Sample,75648,0,"push_scratch.wav",50
Sample,86315,0,"push_scratch.wav",70
Sample,96981,0,"push_scratch.wav",70
Sample,107648,0,"push_scratch.wav",70
Sample,112981,0,"push_scratch.wav",40

[TimingPoints]
982,333.333333333333,3,2,1,70,1,0
16982,333.333333333333,4,2,2,70,1,0
86315,-100,4,2,2,70,0,1
96981,-100,4,2,2,70,0,0
112981,-100,4,2,2,70,0,1
118315,-100,4,2,2,70,0,0
119648,-100,4,2,2,70,0,1
130315,-100,4,2,2,70,0,0

[HitObjects]
36,192,981,5,0,0:0:0:70:C6S.wav
36,192,1981,1,0,0:0:0:70:C6S.wav
36,192,2981,1,0,0:0:0:70:G#6S_Ab6S.wav
36,192,3981,1,0,0:0:0:70:G6S.wav
475,192,4981,1,0,0:0:0:70:F6S.wav
475,192,5981,1,0,0:0:0:70:G6S.wav
475,192,6981,1,0,0:0:0:70:C6S.wav
475,192,7981,1,0,0:0:0:70:D6S.wav
402,192,8981,1,0,0:0:0:70:C6S.wav
329,192,9981,1,0,0:0:0:70:C6S.wav
256,192,10981,1,0,0:0:0:70:G#6S_Ab6S.wav
182,192,11981,1,0,0:0:0:70:G6S.wav
109,192,12981,1,0,0:0:0:70:C#6S_Db6S.wav
402,192,14981,1,0,0:0:0:70:C7S.wav
36,192,16982,1,6,0:0:0:0:
475,192,16982,1,0,0:0:0:40:push_scratch.wav
329,192,17315,1,6,0:0:0:0:
182,192,17648,1,6,0:0:0:0:
36,192,17982,1,6,0:0:0:0:
475,192,18315,1,6,0:0:0:0:
329,192,18648,1,6,0:0:0:0:
182,192,18981,1,6,0:0:0:0:
36,192,19315,1,6,0:0:0:0:
329,192,19648,1,2,0:0:0:0:
475,192,19648,1,0,0:0:0:50:cymbal.wav
36,192,20315,1,2,0:0:0:0:
182,192,20315,1,0,0:0:0:50:cymbal.wav
256,192,20981,1,4,0:0:0:0:
402,192,20981,1,2,0:0:0:0:
36,192,21315,1,2,0:0:0:0:
182,192,21315,1,4,0:0:0:0:
329,192,21648,1,4,0:0:0:0:
475,192,21648,1,2,0:0:0:0:
36,192,22315,1,2,0:0:0:0:
182,192,22315,1,0,0:0:0:70:boom.wav
109,192,27315,5,2,0:0:0:0:
329,192,27648,1,4,0:0:0:0:
475,192,27648,1,2,0:0:0:0:
256,192,28315,1,8,0:0:0:0:
182,192,28981,1,8,0:0:0:0:
36,192,29648,1,8,0:0:0:0:
329,192,30315,1,4,0:0:0:0:
475,192,30315,1,2,0:0:0:0:
475,192,30648,1,2,0:0:0:0:
36,192,30981,1,4,0:0:0:0:
182,192,30981,1,2,0:0:0:0:
36,192,31315,1,10,0:0:0:0:
109,192,31648,1,4,0:0:0:0:
402,192,31648,1,2,0:0:0:0:
109,192,32315,128,2,32981:0:0:0:0:
256,192,32981,1,6,0:0:0:0:
402,192,32981,1,0,0:0:0:70:cheer.ogg
329,192,33648,1,2,0:0:0:0:
256,192,34315,1,2,0:0:0:0:
36,192,34981,1,2,0:0:0:0:
475,192,35315,1,10,0:0:0:0:
329,192,35648,1,6,0:0:0:0:
182,192,36315,1,6,0:0:0:0:
109,192,36981,1,6,0:0:0:0:
256,192,37315,1,14,0:0:0:0:
402,192,37648,1,6,0:0:0:0:
475,192,38315,1,6,0:0:0:0:
329,192,38981,1,2,0:0:0:0:
182,192,39648,1,2,0:0:0:0:
36,192,40315,1,2,0:0:0:0:
182,192,40648,1,10,0:0:0:0:
329,192,40981,1,2,0:0:0:0:
475,192,40981,1,0,0:0:0:50:cymbal.wav
109,192,41648,1,2,0:0:0:0:
256,192,41648,1,0,0:0:0:50:cymbal.wav
329,192,42315,1,4,0:0:0:0:
475,192,42315,1,2,0:0:0:0:
36,192,42648,1,2,0:0:0:0:
182,192,42648,1,4,0:0:0:0:
329,192,42981,1,4,0:0:0:0:
475,192,42981,1,2,0:0:0:0:
36,192,43648,1,14,0:0:0:0:
182,192,43648,1,4,0:0:0:70:push_scratch.wav
36,192,43981,1,10,0:0:0:0:
36,192,44315,1,10,0:0:0:0:
36,192,44648,1,10,0:0:0:0:
36,192,44981,1,10,0:0:0:0:
36,192,45315,1,10,0:0:0:0:
36,192,45648,1,10,0:0:0:0:
329,192,46315,1,6,0:0:0:0:
475,192,46315,1,8,0:0:0:0:
475,192,46648,1,10,0:0:0:0:
475,192,46981,1,10,0:0:0:0:
475,192,47315,1,10,0:0:0:0:
475,192,47648,1,10,0:0:0:0:
475,192,47981,1,10,0:0:0:0:
475,192,48315,1,10,0:0:0:0:
36,192,48981,1,6,0:0:0:0:
182,192,48981,1,8,0:0:0:0:
182,192,49315,1,10,0:0:0:0:
182,192,49648,1,10,0:0:0:0:
182,192,49981,1,10,0:0:0:0:
182,192,50315,1,10,0:0:0:0:
182,192,50648,1,10,0:0:0:0:
182,192,50981,1,10,0:0:0:0:
256,192,51648,1,2,0:0:0:0:
402,192,51648,1,4,0:0:0:0:
36,192,52315,1,2,0:0:0:0:
182,192,52315,1,4,0:0:0:0:
256,192,52981,1,6,0:0:0:0:
256,192,53315,1,6,0:0:0:0:
256,192,53648,1,6,0:0:0:0:
36,192,54315,1,14,0:0:0:0:
475,192,54315,1,4,0:0:0:70:push_scratch.wav
475,192,54648,1,10,0:0:0:0:
182,192,54981,1,10,0:0:0:0:
182,192,55315,1,10,0:0:0:0:
329,192,55648,1,10,0:0:0:0:
329,192,55981,1,10,0:0:0:0:
329,192,56315,1,10,0:0:0:0:
109,192,56981,1,12,0:0:0:0:
402,192,56981,1,2,0:0:0:0:
109,192,57315,1,10,0:0:0:0:
329,192,57648,1,10,0:0:0:0:
329,192,57981,1,10,0:0:0:0:
182,192,58315,1,10,0:0:0:0:
182,192,58648,1,10,0:0:0:0:
36,192,58981,1,0,0:0:0:0:
182,192,59648,1,6,0:0:0:0:
329,192,59648,1,8,0:0:0:0:
329,192,59981,1,10,0:0:0:0:
109,192,60315,1,10,0:0:0:0:
109,192,60648,1,10,0:0:0:0:
402,192,60981,1,10,0:0:0:0:
402,192,61315,1,10,0:0:0:0:
402,192,61648,1,10,0:0:0:0:
36,192,62315,1,4,0:0:0:0:
475,192,62315,1,2,0:0:0:0:
109,192,62981,1,4,0:0:0:0:
402,192,62981,1,2,0:0:0:0:
36,192,63648,1,4,0:0:0:0:
182,192,63648,1,2,0:0:0:0:
329,192,63981,1,2,0:0:0:0:
475,192,63981,1,4,0:0:0:0:
36,192,64315,1,4,0:0:0:0:
182,192,64315,1,2,0:0:0:0:
36,192,64981,1,2,0:0:0:0:
402,192,65648,1,0,0:0:0:0:
109,192,66315,1,0,0:0:0:0:
475,192,66981,1,0,0:0:0:0:
182,192,67648,1,0,0:0:0:0:
329,192,68315,1,0,0:0:0:0:
36,192,68981,1,6,0:0:0:0:
182,192,69315,1,6,0:0:0:0:
329,192,69648,1,6,0:0:0:0:
475,192,69981,1,6,0:0:0:0:
36,192,70315,1,4,0:0:0:0:
182,192,70315,1,2,0:0:0:0:
109,192,70981,1,4,0:0:0:0:
256,192,70981,1,2,0:0:0:0:
182,192,71648,1,2,0:0:0:0:
329,192,71648,1,4,0:0:0:0:
256,192,72315,1,4,0:0:0:0:
402,192,72315,1,2,0:0:0:0:
475,192,72981,1,0,0:0:0:0:
109,192,74315,1,4,0:0:0:0:
402,192,74315,1,2,0:0:0:0:
182,192,74981,1,4,0:0:0:0:
329,192,74981,1,2,0:0:0:0:
36,192,75648,1,0,0:0:0:50:boom.wav
475,192,76315,1,0,0:0:0:70:clap.wav
109,192,76981,1,0,0:0:0:70:clap.wav
402,192,77648,1,0,0:0:0:70:clap.wav
36,192,78315,1,0,0:0:0:70:clap.wav
329,192,78981,1,0,0:0:0:70:clap.wav
182,192,79648,1,6,0:0:0:0:
475,192,79981,1,6,0:0:0:0:
109,192,80315,1,6,0:0:0:0:
402,192,80648,1,6,0:0:0:0:
36,192,80981,1,12,0:0:0:0:
182,192,80981,1,2,0:0:0:0:
256,192,81648,1,8,0:0:0:0:
402,192,82315,1,8,0:0:0:0:
256,192,82981,1,8,0:0:0:0:
36,192,83315,1,10,0:0:0:0:
475,192,83315,1,4,0:0:0:0:
182,192,83648,1,6,0:0:0:0:
329,192,83648,1,8,0:0:0:0:
182,192,84315,1,6,0:0:0:0:
329,192,84315,1,8,0:0:0:0:
36,192,84981,1,10,0:0:0:0:
475,192,84981,1,4,0:0:0:0:
36,192,85315,1,10,0:0:0:0:
475,192,85315,1,4,0:0:0:0:
36,192,85648,1,6,0:0:0:0:
475,192,85648,1,8,0:0:0:0:
36,192,86315,1,6,0:0:0:0:
182,192,86315,1,0,0:0:0:70:cheer.ogg
256,192,86981,1,2,0:0:0:0:
475,192,87648,1,2,0:0:0:0:
182,192,88315,1,2,0:0:0:0:
402,192,88648,1,10,0:0:0:0:
36,192,88981,1,4,0:0:0:0:
256,192,88981,1,2,0:0:0:0:
182,192,89648,1,2,0:0:0:0:
402,192,90315,1,6,0:0:0:0:
256,192,90648,1,14,0:0:0:0:
109,192,90981,1,6,0:0:0:0:
36,192,91648,1,4,0:0:0:0:
329,192,91648,1,2,0:0:0:0:
256,192,92315,1,2,0:0:0:0:
36,192,92981,1,2,0:0:0:0:
475,192,92981,1,4,0:0:0:0:
109,192,93648,1,2,0:0:0:0:
475,192,93981,1,10,0:0:0:0:
36,192,94315,1,4,0:0:0:0:
329,192,94315,1,2,0:0:0:0:
109,192,94981,1,4,0:0:0:0:
402,192,94981,1,2,0:0:0:0:
182,192,95648,1,10,0:0:0:0:
475,192,95648,1,0,0:0:0:50:cymbal.wav
182,192,95981,1,10,0:0:0:0:
475,192,95981,1,0,0:0:0:50:cymbal.wav
182,192,96315,1,10,0:0:0:0:
475,192,96315,1,0,0:0:0:50:cymbal.wav
182,192,96981,128,6,98315:0:0:0:0:
475,192,98315,128,2,98981:0:0:0:0:
402,192,98981,128,2,99315:0:0:0:0:
256,192,99315,128,10,99648:0:0:0:0:
109,192,99648,128,6,102315:0:0:0:0:
256,192,102315,128,6,103648:0:0:0:0:
402,192,103648,128,6,104315:0:0:0:0:
36,192,104315,128,2,104648:0:0:0:0:
475,192,104648,128,10,104981:0:0:0:0:
256,192,104981,128,6,105648:0:0:0:0:
36,192,105648,128,6,106315:0:0:0:0:
402,192,106315,1,6,0:0:0:0:
402,192,106648,1,6,0:0:0:0:
402,192,106981,1,6,0:0:0:0:
182,192,107315,1,0,0:0:0:70:LR3_Snare DSW.wav
36,192,107648,128,6,107981:0:0:0:0:
475,192,107981,1,10,0:0:0:0:
475,192,108315,1,2,0:0:0:0:
475,192,108648,1,10,0:0:0:0:
475,192,108981,1,2,0:0:0:0:
475,192,109315,1,10,0:0:0:0:
475,192,109648,1,2,0:0:0:0:
109,192,109981,1,0,0:0:0:70:LR3_Snare DSW.wav
475,192,110315,128,6,110648:0:0:0:0:
36,192,110648,1,10,0:0:0:0:
36,192,110981,1,2,0:0:0:0:
36,192,111315,1,10,0:0:0:0:
402,192,111648,128,6,112981:0:0:0:0:
36,192,112981,1,6,0:0:0:0:
182,192,112981,1,0,0:0:0:70:cheer.ogg
475,192,113648,1,2,0:0:0:0:
109,192,114315,1,4,0:0:0:0:
256,192,114315,1,2,0:0:0:0:
402,192,114981,1,2,0:0:0:0:
182,192,115315,1,10,0:0:0:0:
36,192,115648,1,6,0:0:0:0:
329,192,115648,1,8,0:0:0:0:
109,192,116315,1,6,0:0:0:0:
402,192,116315,1,8,0:0:0:0:
36,192,116981,1,10,0:0:0:0:
475,192,116981,1,4,0:0:0:0:
36,192,117315,1,10,0:0:0:0:
475,192,117315,1,4,0:0:0:0:
36,192,117648,1,6,0:0:0:0:
475,192,117648,1,8,0:0:0:0:
109,192,119648,128,2,120315:0:0:0:0:
402,192,119648,128,4,120315:0:0:0:0:
36,192,120981,1,6,0:0:0:0:
182,192,120981,1,0,0:0:0:70:push_scratch.wav
256,192,121648,1,2,0:0:0:0:
402,192,121648,1,4,0:0:0:0:
329,192,122315,1,12,0:0:0:0:
475,192,122315,1,2,0:0:0:0:
109,192,122981,1,2,0:0:0:0:
256,192,122981,1,4,0:0:0:0:
36,192,123648,1,6,0:0:0:0:
36,192,123981,1,6,0:0:0:0:
475,192,124315,1,6,0:0:0:0:
475,192,124648,1,6,0:0:0:0:
36,192,124981,128,2,128981:0:0:0:0:
182,192,124981,128,4,128981:0:0:0:0:
329,192,128981,1,4,0:0:0:0:
475,192,128981,1,2,0:0:0:0:
36,192,129315,1,4,0:0:0:0:
182,192,129315,1,2,0:0:0:0:
329,192,129648,1,4,0:0:0:0:
475,192,129648,1,2,0:0:0:0:
256,192,129981,1,0,0:0:0:70:LR3_Snare DSW.wav
109,192,130315,1,6,0:0:0:0:
402,192,130315,1,0,0:0:0:70:boom.wav
