osu file format v14

[General]
AudioFilename: sweet witch girl.mp3
AudioLeadIn: 0
PreviewTime: 34670
Countdown: 0
SampleSet: None
StackLeniency: 0.7
Mode: 3
LetterboxInBreaks: 0
SpecialStyle: 0
WidescreenStoryboard: 1

[Editor]
Bookmarks: 66670,74670
DistanceSpacing: 1.8
BeatDivisor: 3
GridSize: 4
TimelineZoom: 1.7

[Metadata]
Title:Sweet* Witch* Girl*
TitleUnicode:Sweet☆ Witch☆ Girl☆
Artist:Morimori Atsushi vs. uma
ArtistUnicode:モリモリあつし vs. uma
Creator:HXJ_Crafter
Version:ZomBie
Source:
Tags:happy halloween RTTF Records Triplet Hardcore
BeatmapID:1453940
BeatmapSetID:687056

[Difficulty]
HPDrainRate:7
CircleSize:4
OverallDifficulty:7
ApproachRate:5
SliderMultiplier:1.4
SliderTickRate:1

[Events]
//Background and Video events
0,0,"BG sweet.jpg",0,0
//Break Periods
//Storyboard Layer 0 (Background)
//Storyboard Layer 1 (Fail)
//Storyboard Layer 2 (Pass)
//Storyboard Layer 3 (Foreground)
//Storyboard Sound Samples

[TimingPoints]
2662,333.333333333333,3,2,1,15,1,0
18661,333.333333333333,4,2,1,15,1,0

[HitObjects]
64,192,2661,5,0,0:0:0:0:
320,192,2995,1,0,0:0:0:0:
320,192,3328,1,0,0:0:0:0:
64,192,3661,1,0,0:0:0:0:
320,192,3995,1,0,0:0:0:0:
320,192,4328,1,0,0:0:0:0:
448,192,4661,1,0,0:0:0:0:
192,192,4995,1,0,0:0:0:0:
64,192,5328,1,0,0:0:0:0:
320,192,5661,1,0,0:0:0:0:
192,192,6328,1,0,0:0:0:0:
320,192,6661,1,0,0:0:0:0:
192,192,6995,1,0,0:0:0:0:
320,192,7328,1,0,0:0:0:0:
448,192,7661,1,0,0:0:0:0:
320,192,7995,1,0,0:0:0:0:
192,192,8328,1,0,0:0:0:0:
64,192,8661,1,0,0:0:0:0:
448,192,9328,1,0,0:0:0:0:
192,192,9661,1,0,0:0:0:0:
320,192,9995,1,0,0:0:0:0:
192,192,10328,1,0,0:0:0:0:
64,192,10661,1,0,0:0:0:0:
320,192,10995,1,0,0:0:0:0:
320,192,11328,1,0,0:0:0:0:
64,192,11661,1,0,0:0:0:0:
320,192,11995,1,0,0:0:0:0:
320,192,12328,1,0,0:0:0:0:
448,192,12661,1,0,0:0:0:0:
192,192,12995,1,0,0:0:0:0:
64,192,13328,1,0,0:0:0:0:
320,192,13661,1,0,0:0:0:0:
192,192,14328,1,0,0:0:0:0:
64,192,14661,128,0,18661:0:0:0:0:
320,192,14661,1,0,0:0:0:0:
448,192,15661,1,0,0:0:0:0:
192,192,16661,1,0,0:0:0:0:
192,192,18661,1,0,0:0:0:0:
448,192,18661,1,0,0:0:0:0:
64,192,18994,1,0,0:0:0:0:
448,192,18994,1,0,0:0:0:0:
64,192,19327,1,0,0:0:0:0:
320,192,19327,1,0,0:0:0:0:
64,192,19661,1,0,0:0:0:0:
192,192,19661,1,0,0:0:0:0:
320,192,19994,1,0,0:0:0:0:
64,192,20105,1,0,0:0:0:0:
320,192,20216,1,0,0:0:0:0:
192,192,20327,1,0,0:0:0:0:
448,192,20438,1,0,0:0:0:0:
192,192,20549,1,0,0:0:0:0:
320,192,20660,1,0,0:0:0:0:
64,192,20772,1,0,0:0:0:0:
320,192,20883,1,0,0:0:0:0:
192,192,20994,1,0,0:0:0:0:
448,192,21105,1,0,0:0:0:0:
192,192,21216,1,0,0:0:0:0:
64,192,21327,1,0,0:0:0:0:
448,192,21327,1,0,0:0:0:0:
64,192,21549,1,0,0:0:0:0:
448,192,21549,1,0,0:0:0:0:
64,192,21994,1,0,0:0:0:0:
320,192,21994,1,0,0:0:0:0:
64,192,22216,1,0,0:0:0:0:
320,192,22216,1,0,0:0:0:0:
192,192,22660,1,0,0:0:0:0:
448,192,22660,1,0,0:0:0:0:
64,192,22994,1,0,0:0:0:0:
320,192,22994,1,0,0:0:0:0:
192,192,23327,1,0,0:0:0:0:
448,192,23327,1,0,0:0:0:0:
320,192,23660,1,0,0:0:0:0:
64,192,23994,1,0,0:0:0:0:
448,192,23994,1,0,0:0:0:0:
192,192,24549,1,0,0:0:0:0:
448,192,24660,1,0,0:0:0:0:
64,192,24883,1,0,0:0:0:0:
320,192,24994,1,0,0:0:0:0:
448,192,25216,1,0,0:0:0:0:
192,192,25327,1,0,0:0:0:0:
64,192,25994,1,0,0:0:0:0:
448,192,26327,1,0,0:0:0:0:
320,192,26549,1,0,0:0:0:0:
64,192,26660,1,0,0:0:0:0:
64,192,26883,1,0,0:0:0:0:
320,192,26994,1,0,0:0:0:0:
192,192,27105,1,0,0:0:0:0:
448,192,27216,1,0,0:0:0:0:
64,192,27327,1,0,0:0:0:0:
192,192,27660,1,0,0:0:0:0:
320,192,27772,1,0,0:0:0:0:
448,192,27883,1,0,0:0:0:0:
64,192,27994,1,0,0:0:0:0:
320,192,28327,1,0,0:0:0:0:
448,192,28549,1,0,0:0:0:0:
192,192,28660,1,0,0:0:0:0:
64,192,28883,1,0,0:0:0:0:
320,192,28994,1,0,0:0:0:0:
448,192,28994,1,0,0:0:0:0:
64,192,29327,1,0,0:0:0:0:
448,192,29327,1,0,0:0:0:0:
64,192,29660,1,0,0:0:0:0:
64,192,29994,1,0,0:0:0:0:
64,192,30327,1,0,0:0:0:0:
320,192,30660,1,0,0:0:0:0:
320,192,30994,1,0,0:0:0:0:
320,192,31327,1,0,0:0:0:0:
64,192,31549,1,0,0:0:0:0:
320,192,31660,1,0,0:0:0:0:
64,192,31772,1,0,0:0:0:0:
320,192,31883,1,0,0:0:0:0:
64,192,31994,1,0,0:0:0:0:
448,192,31994,1,0,0:0:0:0:
320,192,32327,1,0,0:0:0:0:
64,192,32660,1,0,0:0:0:0:
320,192,32772,1,0,0:0:0:0:
192,192,32883,1,0,0:0:0:0:
448,192,32994,1,0,0:0:0:0:
192,192,33105,1,0,0:0:0:0:
320,192,33216,1,0,0:0:0:0:
64,192,33327,1,0,0:0:0:0:
448,192,33327,1,0,0:0:0:0:
192,192,33994,1,0,0:0:0:0:
448,192,34105,1,0,0:0:0:0:
192,192,34216,1,0,0:0:0:0:
320,192,34327,1,0,0:0:0:0:
64,192,34438,1,0,0:0:0:0:
320,192,34549,1,0,0:0:0:0:
64,192,34660,1,0,0:0:0:0:
448,192,34660,1,0,0:0:0:0:
64,192,34883,1,0,0:0:0:0:
320,192,34994,1,0,0:0:0:0:
192,192,35216,1,0,0:0:0:0:
448,192,35327,1,0,0:0:0:0:
320,192,35549,1,0,0:0:0:0:
64,192,35660,1,0,0:0:0:0:
192,192,35883,1,0,0:0:0:0:
448,192,35994,1,0,0:0:0:0:
320,192,36216,1,0,0:0:0:0:
64,192,36327,1,0,0:0:0:0:
448,192,36549,1,0,0:0:0:0:
192,192,36660,1,0,0:0:0:0:
320,192,36994,1,0,0:0:0:0:
320,192,37216,1,0,0:0:0:0:
64,192,37327,1,0,0:0:0:0:
448,192,37327,1,0,0:0:0:0:
192,192,37660,1,0,0:0:0:0:
320,192,37772,1,0,0:0:0:0:
192,192,37883,1,0,0:0:0:0:
64,192,37994,1,0,0:0:0:0:
448,192,37994,1,0,0:0:0:0:
320,192,38327,1,0,0:0:0:0:
192,192,38438,1,0,0:0:0:0:
320,192,38549,1,0,0:0:0:0:
64,192,38660,1,0,0:0:0:0:
448,192,38660,1,0,0:0:0:0:
320,192,38994,1,0,0:0:0:0:
192,192,38994,1,0,0:0:0:0:
64,192,39216,1,0,0:0:0:0:
320,192,39327,1,0,0:0:0:0:
448,192,39327,1,0,0:0:0:0:
192,192,39549,1,0,0:0:0:0:
64,192,39549,1,0,0:0:0:0:
448,192,39994,1,0,0:0:0:0:
64,192,39994,1,0,0:0:0:0:
64,192,40216,1,0,0:0:0:0:
320,192,40327,1,0,0:0:0:0:
192,192,40549,1,0,0:0:0:0:
448,192,40660,1,0,0:0:0:0:
320,192,40883,1,0,0:0:0:0:
64,192,40994,1,0,0:0:0:0:
448,192,41216,1,0,0:0:0:0:
192,192,41327,1,0,0:0:0:0:
320,192,41549,1,0,0:0:0:0:
64,192,41660,1,0,0:0:0:0:
448,192,41883,1,0,0:0:0:0:
192,192,41994,1,0,0:0:0:0:
320,192,42327,1,0,0:0:0:0:
192,192,42549,1,0,0:0:0:0:
64,192,42660,1,0,0:0:0:0:
448,192,42660,1,0,0:0:0:0:
64,192,42883,1,0,0:0:0:0:
448,192,42883,1,0,0:0:0:0:
192,192,43327,1,0,0:0:0:0:
320,192,43327,1,0,0:0:0:0:
192,192,43549,1,0,1:0:0:0:
320,192,43549,1,0,0:0:0:0:
64,192,43994,1,0,0:0:0:0:
448,192,43994,1,0,0:0:0:0:
192,192,44327,1,0,0:0:0:0:
320,192,44327,1,0,0:0:0:0:
64,192,44660,1,0,0:0:0:0:
448,192,44660,1,0,0:0:0:0:
192,192,44994,1,0,0:0:0:0:
64,192,45327,1,0,0:0:0:0:
448,192,45327,1,0,0:0:0:0:
64,192,45660,1,0,0:0:0:0:
448,192,45660,1,0,0:0:0:0:
64,192,45994,1,0,0:0:0:0:
448,192,45994,1,0,0:0:0:0:
64,192,46327,1,0,0:0:0:0:
448,192,46327,1,0,0:0:0:0:
64,192,46660,1,0,0:0:0:0:
320,192,46660,1,0,0:0:0:0:
64,192,46994,1,0,0:0:0:0:
320,192,46994,1,0,0:0:0:0:
64,192,47327,1,0,0:0:0:0:
320,192,47327,1,0,0:0:0:0:
192,192,47660,1,0,0:0:0:0:
320,192,47883,1,0,0:0:0:0:
64,192,47994,1,0,0:0:0:0:
448,192,47994,1,0,0:0:0:0:
64,192,48327,1,0,0:0:0:0:
448,192,48327,1,0,0:0:0:0:
64,192,48660,1,0,0:0:0:0:
448,192,48660,1,0,0:0:0:0:
64,192,48994,1,0,0:0:0:0:
448,192,48994,1,0,0:0:0:0:
192,192,49327,1,0,0:0:0:0:
448,192,49327,1,0,0:0:0:0:
192,192,49660,1,0,0:0:0:0:
448,192,49660,1,0,0:0:0:0:
192,192,49994,1,0,0:0:0:0:
448,192,49994,1,0,0:0:0:0:
64,192,50327,128,0,50660:0:0:0:0:
448,192,50660,1,0,0:0:0:0:
192,192,50660,1,0,0:0:0:0:
448,192,50994,1,0,0:0:0:0:
320,192,50994,128,0,51327:0:0:0:0:
448,192,51327,1,0,0:0:0:0:
192,192,51327,1,0,0:0:0:0:
192,192,51660,1,0,0:0:0:0:
448,192,51660,1,0,0:0:0:0:
64,192,51994,1,0,0:0:0:0:
320,192,51994,1,0,0:0:0:0:
64,192,52327,1,0,0:0:0:0:
320,192,52327,1,0,0:0:0:0:
64,192,52660,1,0,0:0:0:0:
320,192,52660,1,0,0:0:0:0:
192,192,52994,1,0,0:0:0:0:
320,192,53216,1,0,0:0:0:0:
64,192,53327,1,0,0:0:0:0:
448,192,53327,1,0,0:0:0:0:
192,192,53994,1,0,0:0:0:0:
448,192,53994,1,0,0:0:0:0:
64,192,54660,1,0,0:0:0:0:
320,192,54660,1,0,0:0:0:0:
192,192,54994,1,0,0:0:0:0:
448,192,54994,1,0,0:0:0:0:
64,192,55327,1,0,0:0:0:0:
320,192,55327,1,0,0:0:0:0:
448,192,55660,1,0,0:0:0:0:
64,192,55994,1,0,0:0:0:0:
320,192,55994,1,0,0:0:0:0:
64,192,56327,1,0,0:0:0:0:
448,192,56327,128,0,56660:0:0:0:0:
64,192,56660,1,0,0:0:0:0:
192,192,56660,1,0,0:0:0:0:
192,192,56994,1,0,0:0:0:0:
320,192,56994,1,0,0:0:0:0:
320,192,57327,1,0,0:0:0:0:
448,192,57327,1,0,0:0:0:0:
192,192,57660,1,0,0:0:0:0:
320,192,57660,1,0,0:0:0:0:
64,192,57994,1,0,0:0:0:0:
192,192,57994,1,0,0:0:0:0:
320,192,58327,1,0,0:0:0:0:
64,192,58549,1,0,0:0:0:0:
192,192,58660,1,0,0:0:0:0:
448,192,58660,1,0,0:0:0:0:
64,192,58994,1,0,0:0:0:0:
320,192,58994,1,0,0:0:0:0:
64,192,59327,1,0,0:0:0:0:
192,192,59327,1,0,0:0:0:0:
320,192,59660,1,0,0:0:0:0:
448,192,59660,1,0,0:0:0:0:
64,192,59994,1,0,0:0:0:0:
448,192,59994,1,0,0:0:0:0:
64,192,60327,1,0,0:0:0:0:
320,192,60327,1,0,0:0:0:0:
192,192,60660,128,0,60994:0:0:0:0:
64,192,60994,1,0,0:0:0:0:
448,192,60994,1,0,0:0:0:0:
64,192,61327,1,0,0:0:0:0:
320,192,61327,1,0,0:0:0:0:
320,192,61660,1,0,0:0:0:0:
64,192,61660,128,0,61994:0:0:0:0:
192,192,61994,1,0,0:0:0:0:
448,192,61994,1,0,0:0:0:0:
192,192,62327,1,0,0:0:0:0:
448,192,62327,1,0,0:0:0:0:
64,192,62660,1,0,0:0:0:0:
448,192,62660,1,0,0:0:0:0:
192,192,62994,1,0,0:0:0:0:
320,192,62994,1,0,0:0:0:0:
64,192,63327,1,0,0:0:0:0:
448,192,63327,1,0,0:0:0:0:
192,192,63660,1,0,0:0:0:0:
320,192,63883,1,0,0:0:0:0:
64,192,63994,1,0,0:0:0:0:
448,192,63994,1,0,0:0:0:0:
64,192,64660,1,0,0:0:0:0:
320,192,64660,1,0,0:0:0:0:
192,192,65327,1,0,0:0:0:0:
448,192,65327,1,0,0:0:0:0:
64,192,65660,1,0,0:0:0:0:
320,192,65660,1,0,0:0:0:0:
192,192,65994,1,0,0:0:0:0:
448,192,65994,1,0,0:0:0:0:
64,192,66327,1,0,0:0:0:0:
64,192,66660,1,0,0:0:0:0:
448,192,66660,1,0,0:0:0:0:
192,192,67216,1,0,0:0:0:0:
448,192,67327,1,0,0:0:0:0:
320,192,67994,1,0,0:0:0:0:
64,192,68549,1,0,0:0:0:0:
320,192,68660,1,0,0:0:0:0:
448,192,69327,1,0,0:0:0:0:
320,192,69883,1,0,0:0:0:0:
64,192,69994,1,0,0:0:0:0:
64,192,70216,1,0,0:0:0:0:
448,192,70327,1,0,0:0:0:0:
64,192,70549,1,0,0:0:0:0:
448,192,70660,1,0,0:0:0:0:
192,192,70660,1,0,0:0:0:0:
64,192,70994,1,0,0:0:0:0:
320,192,70994,1,0,0:0:0:0:
192,192,71327,1,0,0:0:0:0:
448,192,71327,1,0,0:0:0:0:
64,192,71660,1,0,0:0:0:0:
320,192,71660,1,0,0:0:0:0:
448,192,71994,1,0,0:0:0:0:
64,192,71994,1,0,0:0:0:0:
192,192,72216,1,0,0:0:0:0:
320,192,72438,1,0,0:0:0:0:
64,192,72660,1,0,0:0:0:0:
448,192,72660,1,0,0:0:0:0:
192,192,72883,1,0,0:0:0:0:
320,192,73105,1,0,0:0:0:0:
64,192,73327,1,0,0:0:0:0:
448,192,73327,1,0,0:0:0:0:
192,192,73549,1,0,0:0:0:0:
448,192,73772,1,0,0:0:0:0:
64,192,73994,1,0,0:0:0:0:
320,192,73994,1,0,0:0:0:0:
448,192,74549,1,0,0:0:0:0:
192,192,74660,1,0,0:0:0:0:
64,192,75327,1,0,0:0:0:0:
320,192,75994,1,0,0:0:0:0:
448,192,75994,1,0,0:0:0:0:
64,192,76105,1,0,0:0:0:0:
192,192,76105,1,0,0:0:0:0:
320,192,76216,1,0,0:0:0:0:
448,192,76216,1,0,0:0:0:0:
64,192,76327,1,0,0:0:0:0:
192,192,76327,1,0,0:0:0:0:
64,192,76549,1,0,0:0:0:0:
320,192,76549,1,0,0:0:0:0:
192,192,76660,1,0,0:0:0:0:
448,192,76660,1,0,0:0:0:0:
192,192,76994,1,0,0:0:0:0:
320,192,77216,1,0,0:0:0:0:
448,192,77327,1,0,0:0:0:0:
64,192,77327,1,0,0:0:0:0:
192,192,77549,1,0,0:0:0:0:
448,192,77660,1,0,0:0:0:0:
64,192,77883,1,0,0:0:0:0:
320,192,78216,1,0,0:0:0:0:
448,192,78549,1,0,0:0:0:0:
192,192,78660,1,0,0:0:0:0:
320,192,78883,1,0,0:0:0:0:
64,192,78994,1,0,0:0:0:0:
448,192,79216,1,0,0:0:0:0:
64,192,79549,1,0,0:0:0:0:
320,192,79660,1,0,0:0:0:0:
192,192,79883,1,0,0:0:0:0:
448,192,79994,1,0,0:0:0:0:
192,192,80216,1,0,0:0:0:0:
448,192,80327,1,0,0:0:0:0:
64,192,80549,1,0,0:0:0:0:
192,192,80883,1,0,0:0:0:0:
448,192,80994,1,0,0:0:0:0:
64,192,81216,1,0,0:0:0:0:
448,192,81327,1,0,0:0:0:0:
192,192,81327,1,0,0:0:0:0:
320,192,81660,1,0,0:0:0:0:
64,192,81660,1,0,0:0:0:0:
64,192,81994,1,0,0:0:0:0:
448,192,81994,1,0,0:0:0:0:
320,192,82327,1,0,0:0:0:0:
192,192,82327,1,0,0:0:0:0:
448,192,82660,1,0,0:0:0:0:
64,192,82660,1,0,0:0:0:0:
64,192,82883,1,0,0:0:0:0:
320,192,82994,1,0,0:0:0:0:
448,192,83216,1,0,0:0:0:0:
320,192,83549,1,0,0:0:0:0:
64,192,83660,1,0,0:0:0:0:
448,192,83883,1,0,0:0:0:0:
192,192,83994,1,0,0:0:0:0:
448,192,84216,1,0,0:0:0:0:
192,192,84327,1,0,0:0:0:0:
64,192,84549,1,0,0:0:0:0:
64,192,84883,128,0,85216:0:0:0:0:
448,192,84994,1,0,0:0:0:0:
192,192,85216,1,0,0:0:0:0:
448,192,85327,1,0,0:0:0:0:
320,192,85327,1,0,0:0:0:0:
64,192,85438,1,0,0:0:0:0:
64,192,85549,1,0,0:0:0:0:
448,192,85660,1,0,0:0:0:0:
192,192,85772,1,0,0:0:0:0:
192,192,85883,1,0,0:0:0:0:
320,192,85994,1,0,0:0:0:0:
448,192,85994,1,0,0:0:0:0:
64,192,86105,1,0,0:0:0:0:
320,192,86216,1,0,0:0:0:0:
192,192,86327,1,0,0:0:0:0:
448,192,86438,1,0,0:0:0:0:
192,192,86549,1,0,0:0:0:0:
64,192,86660,1,0,0:0:0:0:
448,192,86660,1,0,0:0:0:0:
448,192,86994,1,0,0:0:0:0:
64,192,86994,1,0,0:0:0:0:
64,192,87327,1,0,0:0:0:0:
448,192,87327,1,0,0:0:0:0:
192,192,87660,1,0,0:0:0:0:
448,192,87883,1,0,0:0:0:0:
320,192,87994,1,0,0:0:0:0:
64,192,87994,128,0,88105:0:0:0:0:
448,192,88216,1,0,0:0:0:0:
192,192,88327,1,0,0:0:0:0:
64,192,88549,1,0,0:0:0:0:
320,192,88883,1,0,0:0:0:0:
448,192,89216,1,0,0:0:0:0:
192,192,89327,1,0,0:0:0:0:
64,192,89549,1,0,0:0:0:0:
320,192,89660,1,0,0:0:0:0:
448,192,89883,1,0,0:0:0:0:
192,192,90216,1,0,0:0:0:0:
448,192,90327,1,0,0:0:0:0:
64,192,90549,1,0,0:0:0:0:
320,192,90660,1,0,0:0:0:0:
448,192,90660,1,0,0:0:0:0:
64,192,90883,1,0,0:0:0:0:
320,192,90994,1,0,0:0:0:0:
448,192,91216,1,0,0:0:0:0:
192,192,91549,1,0,0:0:0:0:
448,192,91660,1,0,0:0:0:0:
320,192,91883,1,0,0:0:0:0:
64,192,91994,1,0,0:0:0:0:
448,192,91994,1,0,0:0:0:0:
320,192,92327,1,0,0:0:0:0:
192,192,92327,1,0,0:0:0:0:
64,192,92660,1,0,0:0:0:0:
192,192,92660,1,0,0:0:0:0:
320,192,92883,1,0,0:0:0:0:
448,192,92883,1,0,0:0:0:0:
64,192,93327,1,0,0:0:0:0:
448,192,93327,1,0,0:0:0:0:
192,192,93549,1,0,0:0:0:0:
448,192,93660,1,0,0:0:0:0:
64,192,93883,1,0,0:0:0:0:
320,192,94216,1,0,0:0:0:0:
64,192,94327,1,0,0:0:0:0:
448,192,94549,1,0,0:0:0:0:
64,192,94660,1,0,0:0:0:0:
192,192,94660,1,0,0:0:0:0:
448,192,94883,1,0,0:0:0:0:
192,192,94994,1,0,0:0:0:0:
320,192,95216,1,0,0:0:0:0:
64,192,95549,128,0,95883:0:0:0:0:
192,192,95883,1,0,0:0:0:0:
448,192,95994,1,0,0:0:0:0:
320,192,95994,1,0,0:0:0:0:
64,192,96105,1,0,0:0:0:0:
64,192,96216,1,0,0:0:0:0:
448,192,96327,1,0,0:0:0:0:
192,192,96438,1,0,0:0:0:0:
192,192,96549,1,0,0:0:0:0:
320,192,96660,1,0,0:0:0:0:
448,192,96660,1,0,0:0:0:0:
64,192,96772,1,0,0:0:0:0:
320,192,96883,1,0,0:0:0:0:
192,192,96994,1,0,0:0:0:0:
448,192,97105,1,0,0:0:0:0:
192,192,97216,1,0,0:0:0:0:
64,192,97327,1,0,0:0:0:0:
448,192,97327,1,0,0:0:0:0:
64,192,97660,1,0,0:0:0:0:
448,192,97660,1,0,0:0:0:0:
64,192,97994,1,0,0:0:0:0:
448,192,97994,1,0,0:0:0:0:
192,192,98327,1,0,0:0:0:0:
64,192,98660,1,0,0:0:0:0:
448,192,98660,1,0,0:0:0:0:
320,192,98883,1,0,0:0:0:0:
64,192,98994,1,0,0:0:0:0:
320,192,99216,1,0,0:0:0:0:
64,192,99327,1,0,0:0:0:0:
320,192,99549,1,0,0:0:0:0:
64,192,99660,1,0,0:0:0:0:
448,192,99883,1,0,0:0:0:0:
192,192,99994,1,0,0:0:0:0:
448,192,100216,1,0,0:0:0:0:
192,192,100327,1,0,0:0:0:0:
448,192,100549,1,0,0:0:0:0:
192,192,100660,1,0,0:0:0:0:
448,192,100883,1,0,0:0:0:0:
192,192,100994,1,0,0:0:0:0:
320,192,101216,1,0,0:0:0:0:
64,192,101327,1,0,0:0:0:0:
448,192,101327,1,0,0:0:0:0:
192,192,101549,1,0,0:0:0:0:
448,192,101660,1,0,0:0:0:0:
320,192,101883,1,0,0:0:0:0:
64,192,101994,1,0,0:0:0:0:
192,192,102216,1,0,0:0:0:0:
448,192,102327,1,0,0:0:0:0:
320,192,102549,1,0,0:0:0:0:
64,192,102660,1,0,0:0:0:0:
448,192,102660,1,0,0:0:0:0:
192,192,102994,1,0,0:0:0:0:
320,192,102994,1,0,0:0:0:0:
64,192,103327,1,0,0:0:0:0:
448,192,103327,1,0,0:0:0:0:
192,192,103660,1,0,0:0:0:0:
320,192,103660,1,0,0:0:0:0:
64,192,103994,1,0,0:0:0:0:
448,192,103994,1,0,0:0:0:0:
320,192,104216,1,0,0:0:0:0:
64,192,104327,1,0,0:0:0:0:
320,192,104549,1,0,0:0:0:0:
64,192,104660,1,0,0:0:0:0:
320,192,104883,1,0,0:0:0:0:
64,192,104994,1,0,0:0:0:0:
448,192,105216,1,0,0:0:0:0:
192,192,105327,1,0,0:0:0:0:
64,192,105327,1,0,0:0:0:0:
448,192,105549,1,0,0:0:0:0:
192,192,105660,1,0,0:0:0:0:
448,192,105883,1,0,0:0:0:0:
192,192,105994,1,0,0:0:0:0:
448,192,106216,1,0,0:0:0:0:
192,192,106327,1,0,0:0:0:0:
448,192,106549,1,0,0:0:0:0:
64,192,106660,1,0,0:0:0:0:
192,192,106660,1,0,0:0:0:0:
320,192,106883,1,0,0:0:0:0:
64,192,106994,1,0,0:0:0:0:
64,192,107216,1,0,0:0:0:0:
448,192,107327,1,0,0:0:0:0:
320,192,107327,1,0,0:0:0:0:
192,192,107549,1,0,0:0:0:0:
448,192,107660,1,0,0:0:0:0:
320,192,107883,1,0,0:0:0:0:
64,192,107994,1,0,0:0:0:0:
448,192,107994,1,0,0:0:0:0:
192,192,108327,1,0,0:0:0:0:
320,192,108327,1,0,0:0:0:0:
64,192,108660,1,0,0:0:0:0:
448,192,108660,1,0,0:0:0:0:
192,192,108883,1,0,0:0:0:0:
448,192,108994,1,0,0:0:0:0:
192,192,109216,1,0,0:0:0:0:
64,192,109327,1,0,0:0:0:0:
448,192,109327,1,0,0:0:0:0:
448,192,109549,1,0,0:0:0:0:
192,192,109660,1,0,0:0:0:0:
64,192,109883,1,0,0:0:0:0:
320,192,110216,1,0,0:0:0:0:
448,192,110549,1,0,0:0:0:0:
192,192,110660,1,0,0:0:0:0:
320,192,110883,1,0,0:0:0:0:
64,192,110994,1,0,0:0:0:0:
448,192,111216,1,0,0:0:0:0:
64,192,111549,1,0,0:0:0:0:
320,192,111660,1,0,0:0:0:0:
192,192,111883,1,0,0:0:0:0:
448,192,111994,1,0,0:0:0:0:
192,192,112216,1,0,0:0:0:0:
448,192,112327,1,0,0:0:0:0:
64,192,112549,1,0,0:0:0:0:
192,192,112883,1,0,0:0:0:0:
448,192,112994,1,0,0:0:0:0:
448,192,113216,1,0,0:0:0:0:
192,192,113327,1,0,0:0:0:0:
320,192,113549,1,0,0:0:0:0:
64,192,113660,1,0,0:0:0:0:
448,192,113883,1,0,0:0:0:0:
192,192,114216,1,0,0:0:0:0:
448,192,114327,1,0,0:0:0:0:
64,192,114549,1,0,0:0:0:0:
320,192,114660,1,0,0:0:0:0:
448,192,114660,1,0,0:0:0:0:
64,192,114883,1,0,0:0:0:0:
320,192,114994,1,0,0:0:0:0:
448,192,115216,1,0,0:0:0:0:
320,192,115549,1,0,0:0:0:0:
64,192,115660,1,0,0:0:0:0:
448,192,115883,1,0,0:0:0:0:
192,192,115994,1,0,0:0:0:0:
448,192,116216,1,0,0:0:0:0:
192,192,116327,1,0,0:0:0:0:
64,192,116549,1,0,0:0:0:0:
192,192,116883,128,0,117216:0:0:0:0:
448,192,116994,1,0,0:0:0:0:
320,192,117216,1,0,0:0:0:0:
64,192,117327,1,0,0:0:0:0:
448,192,117327,1,0,0:0:0:0:
192,192,117438,1,0,0:0:0:0:
192,192,117549,1,0,0:0:0:0:
320,192,117660,1,0,0:0:0:0:
64,192,117772,1,0,0:0:0:0:
64,192,117883,1,0,0:0:0:0:
448,192,117994,1,0,0:0:0:0:
320,192,117994,1,0,0:0:0:0:
192,192,118105,1,0,0:0:0:0:
448,192,118216,1,0,0:0:0:0:
320,192,118327,1,0,0:0:0:0:
64,192,118438,1,0,0:0:0:0:
320,192,118549,1,0,0:0:0:0:
64,192,118660,1,0,0:0:0:0:
448,192,118660,1,0,0:0:0:0:
64,192,118994,1,0,0:0:0:0:
448,192,118994,1,0,0:0:0:0:
64,192,119327,1,0,0:0:0:0:
448,192,119327,1,0,0:0:0:0:
192,192,119994,1,0,0:0:0:0:
320,192,120327,1,0,0:0:0:0:
64,192,120660,1,0,0:0:0:0:
320,192,120994,1,0,0:0:0:0:
448,192,121327,1,0,0:0:0:0:
64,192,121438,1,0,0:0:0:0:
448,192,121549,1,0,0:0:0:0:
64,192,121660,1,0,0:0:0:0:
448,192,121772,1,0,0:0:0:0:
64,192,121883,1,0,0:0:0:0:
448,192,121994,1,0,0:0:0:0:
192,192,122660,1,0,0:0:0:0:
320,192,122660,1,0,0:0:0:0:
64,192,122883,1,0,0:0:0:0:
448,192,122883,1,0,0:0:0:0:
64,192,123327,1,0,0:0:0:0:
320,192,123327,1,0,0:0:0:0:
192,192,123549,1,0,0:0:0:0:
448,192,123549,1,0,0:0:0:0:
64,192,123994,1,0,0:0:0:0:
192,192,123994,1,0,0:0:0:0:
320,192,124216,1,0,0:0:0:0:
448,192,124216,1,0,0:0:0:0:
64,192,124660,1,0,0:0:0:0:
320,192,124660,1,0,0:0:0:0:
192,192,124883,1,0,0:0:0:0:
448,192,124883,1,0,0:0:0:0:
64,192,125327,1,0,0:0:0:0:
320,192,125327,1,0,0:0:0:0:
192,192,125660,1,0,0:0:0:0:
448,192,125660,1,0,0:0:0:0:
64,192,125994,1,0,0:0:0:0:
448,192,125994,1,0,0:0:0:0:
192,192,126327,1,0,0:0:0:0:
320,192,126327,1,0,0:0:0:0:
448,192,126660,1,0,0:0:0:0:
192,192,126772,1,0,0:0:0:0:
448,192,126883,1,0,0:0:0:0:
192,192,126994,1,0,0:0:0:0:
448,192,127105,1,0,0:0:0:0:
192,192,127216,1,0,0:0:0:0:
320,192,127327,1,0,0:0:0:0:
64,192,127438,1,0,0:0:0:0:
320,192,127549,1,0,0:0:0:0:
64,192,127660,1,0,0:0:0:0:
320,192,127772,1,0,0:0:0:0:
64,192,127883,1,0,0:0:0:0:
448,192,127994,1,0,0:0:0:0:
192,192,128105,1,0,0:0:0:0:
448,192,128216,1,0,0:0:0:0:
64,192,128327,1,0,0:0:0:0:
320,192,128438,1,0,0:0:0:0:
64,192,128549,1,0,0:0:0:0:
448,192,128660,1,0,0:0:0:0:
192,192,128772,1,0,0:0:0:0:
448,192,128883,1,0,0:0:0:0:
64,192,128994,1,0,0:0:0:0:
320,192,129105,1,0,0:0:0:0:
64,192,129216,1,0,0:0:0:0:
192,192,129327,1,0,0:0:0:0:
448,192,129438,1,0,0:0:0:0:
192,192,129549,1,0,0:0:0:0:
320,192,129660,1,0,0:0:0:0:
64,192,129772,1,0,0:0:0:0:
320,192,129883,1,0,0:0:0:0:
192,192,129994,1,0,0:0:0:0:
448,192,130105,1,0,0:0:0:0:
192,192,130216,1,0,0:0:0:0:
320,192,130327,1,0,0:0:0:0:
64,192,130438,1,0,0:0:0:0:
320,192,130549,1,0,0:0:0:0:
448,192,130660,1,0,0:0:0:0:
64,192,130660,1,0,0:0:0:0:
64,192,130994,1,0,0:0:0:0:
448,192,130994,1,0,0:0:0:0:
64,192,131327,1,0,0:0:0:0:
448,192,131327,1,0,0:0:0:0:
192,192,131660,1,0,0:0:0:0:
64,192,131994,1,0,0:0:0:0:
448,192,131994,1,0,0:0:0:0:
64,192,132216,1,0,0:0:0:0:
320,192,132327,1,0,0:0:0:0:
192,192,132549,1,0,0:0:0:0:
448,192,132660,1,0,0:0:0:0:
448,192,132883,1,0,0:0:0:0:
192,192,132994,1,0,0:0:0:0:
320,192,133216,1,0,0:0:0:0:
64,192,133327,1,0,0:0:0:0:
448,192,133549,1,0,0:0:0:0:
192,192,133660,1,0,0:0:0:0:
320,192,133883,1,0,0:0:0:0:
64,192,133994,1,0,0:0:0:0:
320,192,134327,1,0,0:0:0:0:
192,192,134549,1,0,0:0:0:0:
64,192,134660,1,0,0:0:0:0:
448,192,134660,1,0,0:0:0:0:
192,192,134994,1,0,0:0:0:0:
320,192,135105,1,0,0:0:0:0:
192,192,135216,1,0,0:0:0:0:
64,192,135327,1,0,0:0:0:0:
448,192,135327,1,0,0:0:0:0:
320,192,135660,1,0,0:0:0:0:
192,192,135772,1,0,0:0:0:0:
320,192,135883,1,0,0:0:0:0:
64,192,135994,1,0,0:0:0:0:
448,192,135994,1,0,0:0:0:0:
192,192,136327,1,0,0:0:0:0:
448,192,136327,1,0,0:0:0:0:
320,192,136549,1,0,0:0:0:0:
64,192,136660,1,0,0:0:0:0:
448,192,136660,1,0,0:0:0:0:
64,192,136883,1,0,0:0:0:0:
320,192,136883,1,0,0:0:0:0:
192,192,137216,1,0,0:0:0:0:
64,192,137327,1,0,0:0:0:0:
448,192,137327,1,0,0:0:0:0:
64,192,137549,1,0,0:0:0:0:
320,192,137660,1,0,0:0:0:0:
192,192,137883,1,0,0:0:0:0:
448,192,137994,1,0,0:0:0:0:
320,192,138216,1,0,0:0:0:0:
64,192,138327,1,0,0:0:0:0:
448,192,138549,1,0,0:0:0:0:
192,192,138660,1,0,0:0:0:0:
320,192,138883,1,0,0:0:0:0:
64,192,138994,1,0,0:0:0:0:
448,192,139216,1,0,0:0:0:0:
192,192,139327,1,0,0:0:0:0:
320,192,139660,1,0,0:0:0:0:
192,192,139883,1,0,0:0:0:0:
64,192,139994,1,0,0:0:0:0:
448,192,139994,1,0,0:0:0:0:
192,192,140327,1,0,0:0:0:0:
320,192,140438,1,0,0:0:0:0:
192,192,140549,1,0,0:0:0:0:
64,192,140660,1,0,0:0:0:0:
448,192,140660,1,0,0:0:0:0:
320,192,140994,1,0,0:0:0:0:
192,192,141105,1,0,0:0:0:0:
320,192,141216,1,0,0:0:0:0:
64,192,141327,1,0,0:0:0:0:
448,192,141327,1,0,0:0:0:0:
192,192,141994,1,0,0:0:0:0:
320,192,142105,1,0,0:0:0:0:
192,192,142216,1,0,0:0:0:0:
320,192,142327,1,0,0:0:0:0:
192,192,142438,1,0,0:0:0:0:
320,192,142549,1,0,0:0:0:0:
64,192,142660,1,0,0:0:0:0:
448,192,142660,1,0,0:0:0:0:
448,192,144994,1,0,0:0:0:0:
64,192,145327,1,0,0:0:0:0:
192,192,145327,1,0,0:0:0:0:
192,192,145994,1,0,0:0:0:0:
320,192,145994,1,0,0:0:0:0:
320,192,146660,1,0,0:0:0:0:
448,192,146660,1,0,0:0:0:0:
64,192,146994,1,0,0:0:0:0:
192,192,146994,1,0,0:0:0:0:
64,192,147327,1,0,0:0:0:0:
320,192,147327,1,0,0:0:0:0:
192,192,147660,1,0,0:0:0:0:
448,192,147660,1,0,0:0:0:0:
64,192,147994,1,0,0:0:0:0:
448,192,147994,1,0,0:0:0:0:
64,192,148216,1,0,0:0:0:0:
320,192,148327,1,0,0:0:0:0:
192,192,148549,1,0,0:0:0:0:
448,192,148660,1,0,0:0:0:0:
320,192,148883,1,0,0:0:0:0:
64,192,148994,1,0,0:0:0:0:
448,192,149216,1,0,0:0:0:0:
192,192,149327,1,0,0:0:0:0:
320,192,149549,1,0,0:0:0:0:
64,192,149660,1,0,0:0:0:0:
448,192,149883,1,0,0:0:0:0:
192,192,149994,1,0,0:0:0:0:
320,192,150327,1,0,0:0:0:0:
192,192,150549,1,0,0:0:0:0:
64,192,150660,1,0,0:0:0:0:
448,192,150660,1,0,0:0:0:0:
64,192,150883,1,0,0:0:0:0:
448,192,150883,1,0,0:0:0:0:
192,192,151327,1,0,0:0:0:0:
320,192,151327,1,0,0:0:0:0:
192,192,151549,1,0,0:0:0:0:
320,192,151549,1,0,0:0:0:0:
64,192,151994,1,0,0:0:0:0:
448,192,151994,1,0,0:0:0:0:
192,192,152327,1,0,0:0:0:0:
320,192,152327,1,0,0:0:0:0:
64,192,152660,1,0,0:0:0:0:
448,192,152660,1,0,0:0:0:0:
320,192,152994,1,0,0:0:0:0:
64,192,153327,1,0,0:0:0:0:
192,192,153327,1,0,0:0:0:0:
448,192,153327,1,0,0:0:0:0:
