osu file format v14

[General]
AudioFilename: sweet witch girl.mp3
AudioLeadIn: 0
PreviewTime: 34670
Countdown: 0
SampleSet: Soft
StackLeniency: 0.7
Mode: 3
LetterboxInBreaks: 0
SpecialStyle: 0
WidescreenStoryboard: 1

[Editor]
Bookmarks: 66670,74670
DistanceSpacing: 1.8
BeatDivisor: 3
GridSize: 4
TimelineZoom: 3

[Metadata]
Title:Sweet* Witch* Girl*
TitleUnicode:Sweet☆ Witch☆ Girl☆
Artist:Morimori Atsushi vs. uma
ArtistUnicode:モリモリあつし vs. uma
Creator:HXJ_Crafter
Version:WitCh
Source:
Tags:happy halloween RTTF Records Triplet Hardcore
BeatmapID:1453939
BeatmapSetID:687056

[Difficulty]
HPDrainRate:7
CircleSize:4
OverallDifficulty:7
ApproachRate:5
SliderMultiplier:1.4
SliderTickRate:1

[Events]
//Background and Video events
0,0,"BG sweet.jpg",0,0
//Break Periods
//Storyboard Layer 0 (Background)
//Storyboard Layer 1 (Fail)
//Storyboard Layer 2 (Pass)
//Storyboard Layer 3 (Foreground)
//Storyboard Sound Samples

[TimingPoints]
2662,333.333333333333,3,2,1,5,1,0
18661,333.333333333333,4,2,1,5,1,0

[HitObjects]
64,192,2661,5,0,0:0:0:0:
448,192,2995,1,0,0:0:0:0:
192,192,2995,1,0,0:0:0:0:
448,192,3328,1,0,0:0:0:0:
192,192,3328,1,0,0:0:0:0:
64,192,3661,1,0,0:0:0:0:
192,192,3995,1,0,0:0:0:0:
448,192,3995,1,0,0:0:0:0:
192,192,4328,1,0,0:0:0:0:
448,192,4328,1,0,0:0:0:0:
64,192,4661,1,0,0:0:0:0:
192,192,4995,1,0,0:0:0:0:
448,192,4995,1,0,0:0:0:0:
192,192,5328,1,0,0:0:0:0:
448,192,5328,1,0,0:0:0:0:
64,192,5661,1,0,0:0:0:0:
192,192,5995,1,0,0:0:0:0:
448,192,5995,1,0,0:0:0:0:
320,192,6328,1,0,0:0:0:0:
64,192,6328,1,0,0:0:0:0:
448,192,6661,1,0,0:0:0:0:
320,192,6995,1,0,0:0:0:0:
64,192,6995,1,0,0:0:0:0:
320,192,7328,1,0,0:0:0:0:
64,192,7328,1,0,0:0:0:0:
448,192,7661,1,0,0:0:0:0:
320,192,7995,1,0,0:0:0:0:
64,192,7995,1,0,0:0:0:0:
320,192,8328,1,0,0:0:0:0:
64,192,8328,1,0,0:0:0:0:
448,192,8661,1,0,0:0:0:0:
320,192,8995,1,0,0:0:0:0:
64,192,8995,1,0,0:0:0:0:
64,192,9328,1,0,0:0:0:0:
320,192,9328,1,0,0:0:0:0:
448,192,9661,1,0,0:0:0:0:
64,192,9995,1,0,0:0:0:0:
320,192,9995,1,0,0:0:0:0:
192,192,10328,1,0,0:0:0:0:
448,192,10328,1,0,0:0:0:0:
64,192,10661,1,0,0:0:0:0:
448,192,10995,1,0,0:0:0:0:
192,192,10995,1,0,0:0:0:0:
192,192,11328,1,0,0:0:0:0:
448,192,11328,1,0,0:0:0:0:
320,192,11661,1,0,0:0:0:0:
64,192,11995,1,0,0:0:0:0:
448,192,11995,1,0,0:0:0:0:
64,192,12328,1,0,0:0:0:0:
448,192,12328,1,0,0:0:0:0:
192,192,12661,1,0,0:0:0:0:
64,192,12995,1,0,0:0:0:0:
448,192,12995,1,0,0:0:0:0:
448,192,13328,1,0,0:0:0:0:
192,192,13328,1,0,0:0:0:0:
64,192,13661,1,0,0:0:0:0:
320,192,13661,1,0,0:0:0:0:
192,192,13995,1,0,0:0:0:0:
448,192,13995,1,0,0:0:0:0:
64,192,14328,1,0,0:0:0:0:
320,192,14328,1,0,0:0:0:0:
448,192,14661,128,0,17995:0:0:0:0:
192,192,14661,1,0,0:0:0:0:
64,192,15661,1,0,0:0:0:0:
64,192,16661,128,0,17995:0:0:0:0:
320,192,17995,1,0,0:0:0:0:
192,192,18106,1,0,0:0:0:0:
64,192,18217,1,0,0:0:0:0:
320,192,18328,1,0,0:0:0:0:
192,192,18439,1,0,0:0:0:0:
320,192,18550,1,0,0:0:0:0:
64,192,18661,1,0,0:0:0:0:
192,192,18661,1,0,0:0:0:0:
448,192,18661,1,0,0:0:0:0:
320,192,18772,1,0,0:0:0:0:
192,192,18883,1,0,0:0:0:0:
64,192,18994,1,0,0:0:0:0:
320,192,18994,1,0,0:0:0:0:
448,192,18994,1,0,0:0:0:0:
192,192,19105,1,0,0:0:0:0:
320,192,19216,1,0,0:0:0:0:
64,192,19327,1,0,0:0:0:0:
192,192,19327,1,0,0:0:0:0:
448,192,19327,1,0,0:0:0:0:
320,192,19438,1,0,0:0:0:0:
192,192,19549,1,0,0:0:0:0:
64,192,19661,1,0,0:0:0:0:
320,192,19661,1,0,0:0:0:0:
448,192,19661,1,0,0:0:0:0:
192,192,19772,1,0,0:0:0:0:
320,192,19883,1,0,0:0:0:0:
64,192,19994,1,0,0:0:0:0:
192,192,19994,1,0,0:0:0:0:
448,192,19994,1,0,0:0:0:0:
320,192,20105,1,0,0:0:0:0:
448,192,20105,1,0,0:0:0:0:
64,192,20216,1,0,0:0:0:0:
320,192,20327,1,0,0:0:0:0:
448,192,20327,1,0,0:0:0:0:
192,192,20438,1,0,0:0:0:0:
64,192,20438,1,0,0:0:0:0:
448,192,20549,1,0,0:0:0:0:
64,192,20660,1,0,0:0:0:0:
192,192,20660,1,0,0:0:0:0:
320,192,20772,1,0,0:0:0:0:
448,192,20772,1,0,0:0:0:0:
64,192,20883,1,0,0:0:0:0:
448,192,20994,1,0,0:0:0:0:
320,192,20994,1,0,0:0:0:0:
192,192,21105,1,0,0:0:0:0:
64,192,21105,1,0,0:0:0:0:
320,192,21216,1,0,0:0:0:0:
448,192,21327,1,0,0:0:0:0:
64,192,21327,1,0,0:0:0:0:
192,192,21327,1,0,0:0:0:0:
64,192,21549,1,0,0:0:0:0:
192,192,21549,1,0,0:0:0:0:
448,192,21549,1,0,0:0:0:0:
320,192,21772,1,0,0:0:0:0:
192,192,21883,1,0,0:0:0:0:
64,192,21994,1,0,0:0:0:0:
320,192,21994,1,0,0:0:0:0:
448,192,21994,1,0,0:0:0:0:
64,192,22216,1,0,0:0:0:0:
320,192,22216,1,0,0:0:0:0:
448,192,22216,1,0,0:0:0:0:
192,192,22438,1,0,0:0:0:0:
320,192,22549,1,0,0:0:0:0:
448,192,22660,1,0,0:0:0:0:
64,192,22660,128,0,22883:0:0:0:0:
192,192,22660,128,0,22883:0:0:0:0:
320,192,22994,128,0,23216:0:0:0:0:
448,192,22994,128,0,23216:0:0:0:0:
64,192,22994,1,0,0:0:0:0:
64,192,23327,128,0,23549:0:0:0:0:
192,192,23327,128,0,23549:0:0:0:0:
448,192,23327,1,0,0:0:0:0:
448,192,23660,1,0,0:0:0:0:
320,192,23660,1,0,0:0:0:0:
64,192,23994,1,0,0:0:0:0:
192,192,23994,1,0,0:0:0:0:
448,192,23994,1,0,0:0:0:0:
320,192,24216,1,0,0:0:0:0:
64,192,24327,1,0,0:0:0:0:
192,192,24549,1,0,0:0:0:0:
448,192,24660,1,0,0:0:0:0:
320,192,24883,1,0,0:0:0:0:
64,192,24994,1,0,0:0:0:0:
448,192,25216,1,0,0:0:0:0:
192,192,25327,1,0,0:0:0:0:
64,192,25549,1,0,0:0:0:0:
320,192,25660,1,0,0:0:0:0:
448,192,25883,1,0,0:0:0:0:
192,192,25994,1,0,0:0:0:0:
320,192,26216,1,0,0:0:0:0:
64,192,26327,1,0,0:0:0:0:
448,192,26549,1,0,0:0:0:0:
192,192,26660,1,0,0:0:0:0:
64,192,26660,1,0,0:0:0:0:
448,192,26883,1,0,0:0:0:0:
192,192,26994,1,0,0:0:0:0:
320,192,27105,1,0,0:0:0:0:
448,192,27216,1,0,0:0:0:0:
192,192,27327,1,0,0:0:0:0:
320,192,27549,1,0,0:0:0:0:
64,192,27660,1,0,0:0:0:0:
192,192,27772,1,0,0:0:0:0:
320,192,27883,1,0,0:0:0:0:
64,192,27994,1,0,0:0:0:0:
448,192,28216,1,0,0:0:0:0:
192,192,28327,1,0,0:0:0:0:
320,192,28549,1,0,0:0:0:0:
64,192,28660,1,0,0:0:0:0:
448,192,28883,1,0,0:0:0:0:
64,192,28994,128,0,29327:0:0:0:0:
192,192,28994,128,0,29327:0:0:0:0:
320,192,29327,1,0,0:0:0:0:
448,192,29327,1,0,0:0:0:0:
192,192,29549,1,0,0:0:0:0:
320,192,29660,1,0,0:0:0:0:
448,192,29660,1,0,0:0:0:0:
64,192,29883,1,0,0:0:0:0:
192,192,29994,1,0,0:0:0:0:
448,192,29994,1,0,0:0:0:0:
320,192,30216,1,0,0:0:0:0:
64,192,30327,1,0,0:0:0:0:
192,192,30327,1,0,0:0:0:0:
448,192,30549,1,0,0:0:0:0:
320,192,30660,1,0,0:0:0:0:
192,192,30660,1,0,0:0:0:0:
64,192,30883,1,0,0:0:0:0:
448,192,30994,1,0,0:0:0:0:
320,192,30994,1,0,0:0:0:0:
192,192,31216,1,0,0:0:0:0:
320,192,31327,1,0,0:0:0:0:
64,192,31327,1,0,0:0:0:0:
192,192,31549,1,0,0:0:0:0:
320,192,31660,1,0,0:0:0:0:
448,192,31660,1,0,0:0:0:0:
192,192,31772,1,0,0:0:0:0:
64,192,31772,1,0,0:0:0:0:
320,192,31883,1,0,0:0:0:0:
448,192,31883,1,0,0:0:0:0:
64,192,31994,1,0,0:0:0:0:
192,192,31994,1,0,0:0:0:0:
448,192,31994,1,0,0:0:0:0:
320,192,32216,1,0,0:0:0:0:
192,192,32327,1,0,0:0:0:0:
64,192,32327,1,0,0:0:0:0:
192,192,32549,1,0,0:0:0:0:
64,192,32660,1,0,0:0:0:0:
448,192,32660,1,0,0:0:0:0:
320,192,32660,1,0,0:0:0:0:
192,192,32772,1,0,0:0:0:0:
320,192,32883,1,0,0:0:0:0:
448,192,32994,1,0,0:0:0:0:
64,192,32994,1,0,0:0:0:0:
192,192,33105,1,0,0:0:0:0:
320,192,33216,1,0,0:0:0:0:
64,192,33327,1,0,0:0:0:0:
192,192,33327,1,0,0:0:0:0:
448,192,33327,1,0,0:0:0:0:
448,192,33994,1,0,0:0:0:0:
320,192,33994,1,0,0:0:0:0:
192,192,34105,1,0,0:0:0:0:
64,192,34105,1,0,0:0:0:0:
448,192,34216,1,0,0:0:0:0:
64,192,34327,1,0,0:0:0:0:
192,192,34327,1,0,0:0:0:0:
320,192,34438,1,0,0:0:0:0:
448,192,34438,1,0,0:0:0:0:
192,192,34549,1,0,0:0:0:0:
448,192,34660,1,0,0:0:0:0:
320,192,34660,1,0,0:0:0:0:
64,192,34660,1,0,0:0:0:0:
320,192,34883,1,0,0:0:0:0:
192,192,34883,1,0,0:0:0:0:
192,192,34994,1,0,0:0:0:0:
64,192,34994,1,0,0:0:0:0:
448,192,34994,1,0,0:0:0:0:
192,192,35216,1,0,0:0:0:0:
320,192,35216,1,0,0:0:0:0:
64,192,35327,1,0,0:0:0:0:
448,192,35327,1,0,0:0:0:0:
320,192,35327,1,0,0:0:0:0:
64,192,35549,1,0,0:0:0:0:
192,192,35549,1,0,0:0:0:0:
320,192,35660,1,0,0:0:0:0:
448,192,35660,1,0,0:0:0:0:
64,192,35660,1,0,0:0:0:0:
320,192,35883,1,0,0:0:0:0:
64,192,35883,1,0,0:0:0:0:
192,192,35994,1,0,0:0:0:0:
448,192,35994,1,0,0:0:0:0:
64,192,35994,1,0,0:0:0:0:
320,192,36216,1,0,0:0:0:0:
448,192,36216,1,0,0:0:0:0:
192,192,36327,1,0,0:0:0:0:
64,192,36327,1,0,0:0:0:0:
448,192,36327,1,0,0:0:0:0:
448,192,36549,1,0,0:0:0:0:
192,192,36549,1,0,0:0:0:0:
320,192,36660,1,0,0:0:0:0:
64,192,36660,1,0,0:0:0:0:
448,192,36660,1,0,0:0:0:0:
64,192,36883,1,0,0:0:0:0:
192,192,36883,1,0,0:0:0:0:
320,192,36994,1,0,0:0:0:0:
448,192,36994,1,0,0:0:0:0:
64,192,37105,1,0,0:0:0:0:
192,192,37105,1,0,0:0:0:0:
320,192,37216,1,0,0:0:0:0:
64,192,37327,1,0,0:0:0:0:
448,192,37327,1,0,0:0:0:0:
192,192,37327,1,0,0:0:0:0:
320,192,37549,1,0,0:0:0:0:
448,192,37549,1,0,0:0:0:0:
192,192,37660,1,0,0:0:0:0:
64,192,37660,1,0,0:0:0:0:
320,192,37772,1,0,0:0:0:0:
448,192,37772,1,0,0:0:0:0:
192,192,37883,1,0,0:0:0:0:
64,192,37994,1,0,0:0:0:0:
320,192,37994,1,0,0:0:0:0:
448,192,37994,1,0,0:0:0:0:
64,192,38216,1,0,0:0:0:0:
192,192,38216,1,0,0:0:0:0:
320,192,38327,1,0,0:0:0:0:
448,192,38327,1,0,0:0:0:0:
192,192,38438,1,0,0:0:0:0:
64,192,38438,1,0,0:0:0:0:
320,192,38549,1,0,0:0:0:0:
64,192,38660,1,0,0:0:0:0:
192,192,38660,1,0,0:0:0:0:
448,192,38660,1,0,0:0:0:0:
320,192,38883,1,0,0:0:0:0:
448,192,38883,1,0,0:0:0:0:
192,192,38994,1,0,0:0:0:0:
64,192,38994,1,0,0:0:0:0:
448,192,38994,1,0,0:0:0:0:
320,192,39216,1,0,0:0:0:0:
192,192,39216,1,0,0:0:0:0:
64,192,39327,1,0,0:0:0:0:
448,192,39327,1,0,0:0:0:0:
320,192,39327,1,0,0:0:0:0:
64,192,39549,1,0,0:0:0:0:
192,192,39549,1,0,0:0:0:0:
320,192,39660,1,0,0:0:0:0:
448,192,39660,1,0,0:0:0:0:
192,192,39660,1,0,0:0:0:0:
64,192,39772,1,0,0:0:0:0:
192,192,39883,1,0,0:0:0:0:
64,192,39994,1,0,0:0:0:0:
320,192,39994,1,0,0:0:0:0:
448,192,39994,1,0,0:0:0:0:
192,192,40216,1,0,0:0:0:0:
320,192,40216,1,0,0:0:0:0:
64,192,40327,1,0,0:0:0:0:
448,192,40327,1,0,0:0:0:0:
320,192,40327,1,0,0:0:0:0:
448,192,40549,1,0,0:0:0:0:
192,192,40549,1,0,0:0:0:0:
320,192,40660,1,0,0:0:0:0:
64,192,40660,1,0,0:0:0:0:
448,192,40660,1,0,0:0:0:0:
320,192,40883,1,0,0:0:0:0:
448,192,40883,1,0,0:0:0:0:
192,192,40994,1,0,0:0:0:0:
64,192,40994,1,0,0:0:0:0:
448,192,40994,1,0,0:0:0:0:
192,192,41216,1,0,0:0:0:0:
320,192,41216,1,0,0:0:0:0:
64,192,41327,1,0,0:0:0:0:
448,192,41327,1,0,0:0:0:0:
192,192,41327,1,0,0:0:0:0:
320,192,41549,1,0,0:0:0:0:
448,192,41549,1,0,0:0:0:0:
192,192,41660,1,0,0:0:0:0:
64,192,41660,1,0,0:0:0:0:
448,192,41660,1,0,0:0:0:0:
192,192,41883,1,0,0:0:0:0:
320,192,41883,1,0,0:0:0:0:
64,192,41994,1,0,0:0:0:0:
448,192,41994,1,0,0:0:0:0:
192,192,41994,1,0,0:0:0:0:
320,192,42216,1,0,0:0:0:0:
64,192,42327,1,0,0:0:0:0:
192,192,42327,1,0,0:0:0:0:
320,192,42438,1,0,0:0:0:0:
448,192,42438,1,0,0:0:0:0:
192,192,42549,1,0,0:0:0:0:
64,192,42549,1,0,0:0:0:0:
64,192,42660,1,0,0:0:0:0:
320,192,42660,1,0,0:0:0:0:
448,192,42660,1,0,0:0:0:0:
64,192,42883,1,0,0:0:0:0:
320,192,42883,1,0,0:0:0:0:
448,192,42883,1,0,0:0:0:0:
192,192,43105,1,0,0:0:0:0:
320,192,43216,1,0,0:0:0:0:
64,192,43327,1,0,0:0:0:0:
192,192,43327,1,0,0:0:0:0:
448,192,43327,1,0,0:0:0:0:
64,192,43549,1,0,0:0:0:0:
192,192,43549,1,0,0:0:0:0:
448,192,43549,1,0,0:0:0:0:
320,192,43772,1,0,0:0:0:0:
192,192,43883,1,0,0:0:0:0:
64,192,43994,1,0,0:0:0:0:
320,192,43994,1,0,0:0:0:0:
448,192,43994,1,0,0:0:0:0:
64,192,44327,1,0,0:0:0:0:
320,192,44327,1,0,0:0:0:0:
448,192,44327,1,0,0:0:0:0:
448,192,44660,1,0,0:0:0:0:
320,192,44660,1,0,0:0:0:0:
64,192,44660,1,0,0:0:0:0:
64,192,44994,128,0,45327:0:0:0:0:
320,192,44994,1,0,0:0:0:0:
448,192,44994,1,0,0:0:0:0:
192,192,45327,1,0,0:0:0:0:
320,192,45327,1,0,0:0:0:0:
448,192,45327,1,0,0:0:0:0:
64,192,45549,1,0,0:0:0:0:
320,192,45549,1,0,0:0:0:0:
192,192,45660,128,0,45994:0:0:0:0:
448,192,45660,128,0,45994:0:0:0:0:
320,192,45994,1,0,0:0:0:0:
64,192,45994,1,0,0:0:0:0:
192,192,46216,1,0,0:0:0:0:
64,192,46327,1,0,0:0:0:0:
320,192,46327,1,0,0:0:0:0:
448,192,46327,1,0,0:0:0:0:
192,192,46549,1,0,0:0:0:0:
64,192,46660,1,0,0:0:0:0:
320,192,46660,1,0,0:0:0:0:
448,192,46660,1,0,0:0:0:0:
192,192,46883,1,0,0:0:0:0:
64,192,46994,1,0,0:0:0:0:
320,192,46994,1,0,0:0:0:0:
448,192,46994,1,0,0:0:0:0:
64,192,47327,1,0,0:0:0:0:
320,192,47327,1,0,0:0:0:0:
448,192,47327,1,0,0:0:0:0:
192,192,47660,128,0,47883:0:0:0:0:
448,192,47660,128,0,47883:0:0:0:0:
192,192,47883,1,0,0:0:0:0:
320,192,47994,1,0,0:0:0:0:
64,192,47994,1,0,0:0:0:0:
448,192,47994,1,0,0:0:0:0:
64,192,48327,1,0,0:0:0:0:
192,192,48327,1,0,0:0:0:0:
448,192,48327,1,0,0:0:0:0:
320,192,48549,1,0,0:0:0:0:
64,192,48660,1,0,0:0:0:0:
192,192,48660,1,0,0:0:0:0:
448,192,48660,1,0,0:0:0:0:
64,192,48994,1,0,0:0:0:0:
192,192,48994,1,0,0:0:0:0:
448,192,48994,1,0,0:0:0:0:
320,192,49216,1,0,0:0:0:0:
64,192,49327,1,0,0:0:0:0:
192,192,49327,1,0,0:0:0:0:
448,192,49327,1,0,0:0:0:0:
64,192,49660,1,0,0:0:0:0:
192,192,49660,1,0,0:0:0:0:
448,192,49660,1,0,0:0:0:0:
64,192,49994,1,0,0:0:0:0:
192,192,49994,1,0,0:0:0:0:
448,192,49994,1,0,0:0:0:0:
448,192,50327,1,0,0:0:0:0:
64,192,50327,1,0,0:0:0:0:
192,192,50327,1,0,0:0:0:0:
320,192,50438,1,0,0:0:0:0:
192,192,50549,1,0,0:0:0:0:
320,192,50660,1,0,0:0:0:0:
64,192,50660,1,0,0:0:0:0:
448,192,50660,1,0,0:0:0:0:
192,192,50883,1,0,0:0:0:0:
448,192,50883,1,0,0:0:0:0:
320,192,50994,128,0,51327:0:0:0:0:
64,192,50994,128,0,51327:0:0:0:0:
192,192,51327,1,0,0:0:0:0:
448,192,51327,1,0,0:0:0:0:
448,192,51660,1,0,0:0:0:0:
192,192,51660,1,0,0:0:0:0:
64,192,51660,1,0,0:0:0:0:
448,192,51994,1,0,0:0:0:0:
192,192,51994,1,0,0:0:0:0:
64,192,51994,1,0,0:0:0:0:
320,192,52216,1,0,0:0:0:0:
448,192,52327,1,0,0:0:0:0:
192,192,52327,1,0,0:0:0:0:
64,192,52327,1,0,0:0:0:0:
448,192,52660,1,0,0:0:0:0:
192,192,52660,1,0,0:0:0:0:
64,192,52660,1,0,0:0:0:0:
64,192,52994,128,0,53216:0:0:0:0:
320,192,53216,1,0,0:0:0:0:
192,192,53327,1,0,0:0:0:0:
448,192,53327,1,0,0:0:0:0:
64,192,53327,1,0,0:0:0:0:
192,192,53660,1,0,0:0:0:0:
320,192,53660,1,0,0:0:0:0:
448,192,53994,1,0,0:0:0:0:
320,192,53994,1,0,0:0:0:0:
64,192,53994,1,0,0:0:0:0:
320,192,54327,1,0,0:0:0:0:
192,192,54327,1,0,0:0:0:0:
448,192,54660,1,0,0:0:0:0:
320,192,54660,1,0,0:0:0:0:
64,192,54660,1,0,0:0:0:0:
448,192,54994,1,0,0:0:0:0:
192,192,54994,1,0,0:0:0:0:
64,192,54994,1,0,0:0:0:0:
448,192,55327,1,0,0:0:0:0:
320,192,55327,1,0,0:0:0:0:
64,192,55327,1,0,0:0:0:0:
64,192,55660,1,0,0:0:0:0:
448,192,55660,1,0,0:0:0:0:
192,192,55660,1,0,0:0:0:0:
320,192,55883,1,0,0:0:0:0:
192,192,55994,1,0,0:0:0:0:
448,192,55994,1,0,0:0:0:0:
64,192,55994,1,0,0:0:0:0:
320,192,56216,1,0,0:0:0:0:
64,192,56327,1,0,0:0:0:0:
192,192,56327,1,0,0:0:0:0:
448,192,56327,1,0,0:0:0:0:
320,192,56549,1,0,0:0:0:0:
64,192,56660,1,0,0:0:0:0:
192,192,56660,1,0,0:0:0:0:
448,192,56660,1,0,0:0:0:0:
320,192,56883,1,0,0:0:0:0:
64,192,56994,1,0,0:0:0:0:
192,192,56994,1,0,0:0:0:0:
448,192,56994,1,0,0:0:0:0:
320,192,57216,1,0,0:0:0:0:
64,192,57327,1,0,0:0:0:0:
192,192,57327,1,0,0:0:0:0:
448,192,57327,1,0,0:0:0:0:
64,192,57660,1,0,0:0:0:0:
320,192,57660,1,0,0:0:0:0:
448,192,57660,1,0,0:0:0:0:
64,192,57994,1,0,0:0:0:0:
192,192,57994,1,0,0:0:0:0:
448,192,57994,1,0,0:0:0:0:
192,192,58327,128,0,58549:0:0:0:0:
448,192,58327,128,0,58549:0:0:0:0:
320,192,58660,1,0,0:0:0:0:
64,192,58660,1,0,0:0:0:0:
448,192,58660,1,0,0:0:0:0:
192,192,58883,1,0,0:0:0:0:
64,192,58994,1,0,0:0:0:0:
320,192,58994,1,0,0:0:0:0:
448,192,58994,1,0,0:0:0:0:
192,192,59216,1,0,0:0:0:0:
64,192,59327,1,0,0:0:0:0:
320,192,59327,1,0,0:0:0:0:
448,192,59327,1,0,0:0:0:0:
192,192,59549,1,0,0:0:0:0:
64,192,59660,1,0,0:0:0:0:
320,192,59660,1,0,0:0:0:0:
448,192,59660,1,0,0:0:0:0:
192,192,59883,1,0,0:0:0:0:
64,192,59994,1,0,0:0:0:0:
320,192,59994,1,0,0:0:0:0:
448,192,59994,1,0,0:0:0:0:
64,192,60327,1,0,0:0:0:0:
192,192,60327,1,0,0:0:0:0:
448,192,60327,1,0,0:0:0:0:
448,192,60660,1,0,0:0:0:0:
320,192,60660,1,0,0:0:0:0:
64,192,60660,1,0,0:0:0:0:
64,192,60994,1,0,0:0:0:0:
448,192,60994,1,0,0:0:0:0:
192,192,61105,1,0,0:0:0:0:
320,192,61216,1,0,0:0:0:0:
64,192,61327,1,0,0:0:0:0:
192,192,61327,1,0,0:0:0:0:
448,192,61327,1,0,0:0:0:0:
320,192,61549,1,0,0:0:0:0:
64,192,61660,1,0,0:0:0:0:
192,192,61660,1,0,0:0:0:0:
448,192,61660,1,0,0:0:0:0:
192,192,61883,1,0,0:0:0:0:
64,192,61994,1,0,0:0:0:0:
448,192,61994,1,0,0:0:0:0:
320,192,61994,1,0,0:0:0:0:
320,192,62216,1,0,0:0:0:0:
192,192,62327,1,0,0:0:0:0:
64,192,62327,1,0,0:0:0:0:
448,192,62327,1,0,0:0:0:0:
192,192,62549,1,0,0:0:0:0:
64,192,62660,1,0,0:0:0:0:
320,192,62660,1,0,0:0:0:0:
448,192,62660,1,0,0:0:0:0:
64,192,62994,1,0,0:0:0:0:
192,192,62994,1,0,0:0:0:0:
448,192,62994,1,0,0:0:0:0:
64,192,63327,1,0,0:0:0:0:
320,192,63327,1,0,0:0:0:0:
448,192,63327,1,0,0:0:0:0:
192,192,63660,1,0,0:0:0:0:
320,192,63660,1,0,0:0:0:0:
64,192,63994,128,0,64327:0:0:0:0:
192,192,63994,128,0,64327:0:0:0:0:
448,192,63994,1,0,0:0:0:0:
320,192,63994,1,0,0:0:0:0:
320,192,64327,1,0,0:0:0:0:
448,192,64327,1,0,0:0:0:0:
64,192,64660,1,0,0:0:0:0:
320,192,64660,128,0,64994:0:0:0:0:
448,192,64660,128,0,64994:0:0:0:0:
192,192,64660,1,0,0:0:0:0:
192,192,64994,1,0,0:0:0:0:
64,192,64994,1,0,0:0:0:0:
64,192,65327,1,0,0:0:0:0:
320,192,65327,1,0,0:0:0:0:
448,192,65327,1,0,0:0:0:0:
64,192,65660,1,0,0:0:0:0:
192,192,65660,1,0,0:0:0:0:
448,192,65660,1,0,0:0:0:0:
64,192,65994,1,0,0:0:0:0:
320,192,65994,1,0,0:0:0:0:
448,192,65994,1,0,0:0:0:0:
64,192,66327,128,0,66660:0:0:0:0:
320,192,66660,1,0,0:0:0:0:
448,192,66660,1,0,0:0:0:0:
192,192,67216,1,0,0:0:0:0:
448,192,67327,1,0,0:0:0:0:
64,192,67994,1,0,0:0:0:0:
320,192,67994,1,0,0:0:0:0:
448,192,68549,1,0,0:0:0:0:
192,192,68660,1,0,0:0:0:0:
320,192,69216,1,0,0:0:0:0:
64,192,69327,1,0,0:0:0:0:
192,192,69883,1,0,0:0:0:0:
448,192,69994,1,0,0:0:0:0:
64,192,70216,1,0,0:0:0:0:
320,192,70327,1,0,0:0:0:0:
192,192,70549,1,0,0:0:0:0:
64,192,70660,1,0,0:0:0:0:
448,192,70660,1,0,0:0:0:0:
320,192,70660,1,0,0:0:0:0:
64,192,70994,1,0,0:0:0:0:
192,192,70994,1,0,0:0:0:0:
448,192,70994,1,0,0:0:0:0:
64,192,71327,1,0,0:0:0:0:
320,192,71327,1,0,0:0:0:0:
448,192,71327,1,0,0:0:0:0:
192,192,71660,1,0,0:0:0:0:
64,192,71660,1,0,0:0:0:0:
448,192,71660,1,0,0:0:0:0:
64,192,71994,1,0,0:0:0:0:
320,192,71994,1,0,0:0:0:0:
448,192,71994,1,0,0:0:0:0:
192,192,72216,1,0,0:0:0:0:
320,192,72216,1,0,0:0:0:0:
64,192,72438,1,0,0:0:0:0:
192,192,72438,1,0,0:0:0:0:
64,192,72660,1,0,0:0:0:0:
320,192,72660,1,0,0:0:0:0:
448,192,72660,1,0,0:0:0:0:
192,192,72883,1,0,0:0:0:0:
320,192,72883,1,0,0:0:0:0:
192,192,73105,1,0,0:0:0:0:
64,192,73105,1,0,0:0:0:0:
64,192,73327,1,0,0:0:0:0:
320,192,73327,1,0,0:0:0:0:
448,192,73327,1,0,0:0:0:0:
192,192,73549,1,0,0:0:0:0:
320,192,73549,1,0,0:0:0:0:
64,192,73772,1,0,0:0:0:0:
192,192,73772,1,0,0:0:0:0:
320,192,73994,1,0,0:0:0:0:
448,192,73994,1,0,0:0:0:0:
64,192,73994,1,0,0:0:0:0:
192,192,74216,1,0,0:0:0:0:
320,192,74216,1,0,0:0:0:0:
192,192,74438,1,0,0:0:0:0:
64,192,74438,1,0,0:0:0:0:
320,192,74549,1,0,0:0:0:0:
64,192,74660,1,0,0:0:0:0:
448,192,74660,1,0,0:0:0:0:
320,192,75327,1,0,0:0:0:0:
192,192,75772,1,0,0:0:0:0:
320,192,75994,1,0,0:0:0:0:
448,192,75994,1,0,0:0:0:0:
64,192,76105,1,0,0:0:0:0:
192,192,76105,1,0,0:0:0:0:
320,192,76216,1,0,0:0:0:0:
448,192,76216,1,0,0:0:0:0:
192,192,76327,1,0,0:0:0:0:
64,192,76327,1,0,0:0:0:0:
448,192,76327,1,0,0:0:0:0:
320,192,76549,1,0,0:0:0:0:
192,192,76549,1,0,0:0:0:0:
64,192,76660,1,0,0:0:0:0:
320,192,76660,1,0,0:0:0:0:
448,192,76660,1,0,0:0:0:0:
192,192,76994,1,0,0:0:0:0:
64,192,76994,1,0,0:0:0:0:
320,192,77216,1,0,0:0:0:0:
448,192,77216,1,0,0:0:0:0:
192,192,77327,1,0,0:0:0:0:
64,192,77327,1,0,0:0:0:0:
448,192,77327,1,0,0:0:0:0:
320,192,77549,1,0,0:0:0:0:
64,192,77660,1,0,0:0:0:0:
192,192,77660,1,0,0:0:0:0:
448,192,77883,1,0,0:0:0:0:
320,192,77994,1,0,0:0:0:0:
192,192,77994,1,0,0:0:0:0:
64,192,78216,1,0,0:0:0:0:
320,192,78327,1,0,0:0:0:0:
448,192,78327,1,0,0:0:0:0:
192,192,78549,1,0,0:0:0:0:
320,192,78660,1,0,0:0:0:0:
448,192,78660,1,0,0:0:0:0:
64,192,78883,1,0,0:0:0:0:
192,192,78994,1,0,0:0:0:0:
320,192,78994,1,0,0:0:0:0:
448,192,79216,1,0,0:0:0:0:
64,192,79327,1,0,0:0:0:0:
192,192,79327,1,0,0:0:0:0:
320,192,79549,1,0,0:0:0:0:
192,192,79660,1,0,0:0:0:0:
64,192,79660,1,0,0:0:0:0:
448,192,79883,1,0,0:0:0:0:
320,192,79994,1,0,0:0:0:0:
192,192,79994,1,0,0:0:0:0:
64,192,80216,1,0,0:0:0:0:
320,192,80327,1,0,0:0:0:0:
448,192,80327,1,0,0:0:0:0:
192,192,80549,1,0,0:0:0:0:
320,192,80660,1,0,0:0:0:0:
448,192,80660,1,0,0:0:0:0:
64,192,80883,1,0,0:0:0:0:
192,192,80994,1,0,0:0:0:0:
320,192,80994,1,0,0:0:0:0:
448,192,81216,1,0,0:0:0:0:
192,192,81327,1,0,0:0:0:0:
64,192,81327,1,0,0:0:0:0:
320,192,81327,1,0,0:0:0:0:
192,192,81660,1,0,0:0:0:0:
320,192,81660,1,0,0:0:0:0:
448,192,81660,1,0,0:0:0:0:
64,192,81994,1,0,0:0:0:0:
192,192,81994,1,0,0:0:0:0:
448,192,81994,1,0,0:0:0:0:
64,192,82216,1,0,0:0:0:0:
192,192,82216,1,0,0:0:0:0:
320,192,82327,1,0,0:0:0:0:
448,192,82327,1,0,0:0:0:0:
192,192,82549,1,0,0:0:0:0:
320,192,82549,1,0,0:0:0:0:
64,192,82660,1,0,0:0:0:0:
192,192,82660,1,0,0:0:0:0:
448,192,82660,1,0,0:0:0:0:
320,192,82883,1,0,0:0:0:0:
448,192,82883,1,0,0:0:0:0:
192,192,82994,1,0,0:0:0:0:
64,192,82994,1,0,0:0:0:0:
448,192,83105,1,0,0:0:0:0:
192,192,83216,1,0,0:0:0:0:
64,192,83216,1,0,0:0:0:0:
320,192,83327,1,0,0:0:0:0:
448,192,83327,1,0,0:0:0:0:
192,192,83549,1,0,0:0:0:0:
448,192,83660,1,0,0:0:0:0:
320,192,83660,1,0,0:0:0:0:
320,192,83883,1,0,0:0:0:0:
192,192,83994,1,0,0:0:0:0:
64,192,83994,1,0,0:0:0:0:
448,192,84216,1,0,0:0:0:0:
64,192,84327,1,0,0:0:0:0:
192,192,84327,1,0,0:0:0:0:
448,192,84549,1,0,0:0:0:0:
320,192,84549,1,0,0:0:0:0:
192,192,84660,1,0,0:0:0:0:
64,192,84660,1,0,0:0:0:0:
192,192,84883,1,0,0:0:0:0:
320,192,84883,1,0,0:0:0:0:
320,192,84994,1,0,0:0:0:0:
448,192,84994,1,0,0:0:0:0:
64,192,84994,1,0,0:0:0:0:
192,192,85105,1,0,0:0:0:0:
320,192,85216,1,0,0:0:0:0:
448,192,85327,1,0,0:0:0:0:
64,192,85327,1,0,0:0:0:0:
192,192,85327,1,0,0:0:0:0:
320,192,85438,1,0,0:0:0:0:
192,192,85549,1,0,0:0:0:0:
64,192,85660,1,0,0:0:0:0:
320,192,85660,1,0,0:0:0:0:
448,192,85660,1,0,0:0:0:0:
192,192,85772,1,0,0:0:0:0:
320,192,85883,1,0,0:0:0:0:
64,192,85994,1,0,0:0:0:0:
192,192,85994,1,0,0:0:0:0:
320,192,86105,1,0,0:0:0:0:
448,192,86105,1,0,0:0:0:0:
192,192,86216,1,0,0:0:0:0:
64,192,86216,1,0,0:0:0:0:
320,192,86327,1,0,0:0:0:0:
448,192,86327,1,0,0:0:0:0:
192,192,86438,1,0,0:0:0:0:
64,192,86438,1,0,0:0:0:0:
320,192,86549,1,0,0:0:0:0:
448,192,86549,1,0,0:0:0:0:
448,192,86660,1,0,0:0:0:0:
64,192,86660,128,0,86883:0:0:0:0:
192,192,86660,128,0,86883:0:0:0:0:
64,192,86994,1,0,0:0:0:0:
448,192,86994,128,0,87216:0:0:0:0:
320,192,86994,128,0,87216:0:0:0:0:
448,192,87327,1,0,0:0:0:0:
64,192,87327,128,0,87549:0:0:0:0:
192,192,87327,128,0,87549:0:0:0:0:
64,192,87660,1,0,0:0:0:0:
320,192,87660,1,0,0:0:0:0:
448,192,87660,1,0,0:0:0:0:
192,192,87883,1,0,0:0:0:0:
64,192,87994,1,0,0:0:0:0:
320,192,87994,1,0,0:0:0:0:
448,192,87994,1,0,0:0:0:0:
192,192,88216,1,0,0:0:0:0:
320,192,88216,1,0,0:0:0:0:
64,192,88327,1,0,0:0:0:0:
192,192,88327,1,0,0:0:0:0:
448,192,88327,1,0,0:0:0:0:
320,192,88549,1,0,0:0:0:0:
64,192,88660,1,0,0:0:0:0:
192,192,88660,1,0,0:0:0:0:
448,192,88660,1,0,0:0:0:0:
320,192,88883,1,0,0:0:0:0:
192,192,88883,1,0,0:0:0:0:
64,192,88994,1,0,0:0:0:0:
320,192,88994,1,0,0:0:0:0:
448,192,88994,1,0,0:0:0:0:
192,192,89216,1,0,0:0:0:0:
320,192,89216,1,0,0:0:0:0:
64,192,89327,1,0,0:0:0:0:
320,192,89327,1,0,0:0:0:0:
448,192,89327,1,0,0:0:0:0:
192,192,89549,1,0,0:0:0:0:
320,192,89549,1,0,0:0:0:0:
64,192,89660,1,0,0:0:0:0:
192,192,89660,1,0,0:0:0:0:
448,192,89660,1,0,0:0:0:0:
320,192,89883,1,0,0:0:0:0:
64,192,89883,1,0,0:0:0:0:
192,192,89994,1,0,0:0:0:0:
64,192,89994,1,0,0:0:0:0:
448,192,89994,1,0,0:0:0:0:
320,192,90216,1,0,0:0:0:0:
448,192,90216,1,0,0:0:0:0:
192,192,90327,1,0,0:0:0:0:
64,192,90327,1,0,0:0:0:0:
448,192,90327,1,0,0:0:0:0:
320,192,90549,1,0,0:0:0:0:
64,192,90549,1,0,0:0:0:0:
448,192,90660,1,0,0:0:0:0:
192,192,90660,1,0,0:0:0:0:
64,192,90660,1,0,0:0:0:0:
320,192,90883,1,0,0:0:0:0:
448,192,90883,1,0,0:0:0:0:
192,192,90994,1,0,0:0:0:0:
64,192,90994,1,0,0:0:0:0:
448,192,90994,1,0,0:0:0:0:
320,192,91216,1,0,0:0:0:0:
192,192,91216,1,0,0:0:0:0:
64,192,91327,1,0,0:0:0:0:
448,192,91327,1,0,0:0:0:0:
320,192,91438,1,0,0:0:0:0:
192,192,91549,1,0,0:0:0:0:
64,192,91549,1,0,0:0:0:0:
320,192,91660,1,0,0:0:0:0:
448,192,91660,1,0,0:0:0:0:
64,192,91660,1,0,0:0:0:0:
192,192,91883,1,0,0:0:0:0:
64,192,91883,1,0,0:0:0:0:
64,192,91994,1,0,0:0:0:0:
320,192,91994,1,0,0:0:0:0:
448,192,91994,1,0,0:0:0:0:
192,192,92216,1,0,0:0:0:0:
320,192,92216,1,0,0:0:0:0:
64,192,92327,1,0,0:0:0:0:
192,192,92327,1,0,0:0:0:0:
448,192,92327,1,0,0:0:0:0:
320,192,92549,1,0,0:0:0:0:
448,192,92549,1,0,0:0:0:0:
192,192,92660,1,0,0:0:0:0:
64,192,92660,1,0,0:0:0:0:
448,192,92660,1,0,0:0:0:0:
192,192,92883,1,0,0:0:0:0:
320,192,92883,1,0,0:0:0:0:
64,192,92994,1,0,0:0:0:0:
448,192,92994,1,0,0:0:0:0:
192,192,92994,1,0,0:0:0:0:
320,192,93216,1,0,0:0:0:0:
448,192,93216,1,0,0:0:0:0:
192,192,93327,1,0,0:0:0:0:
64,192,93327,1,0,0:0:0:0:
448,192,93327,1,0,0:0:0:0:
320,192,93549,1,0,0:0:0:0:
192,192,93549,1,0,0:0:0:0:
64,192,93660,1,0,0:0:0:0:
448,192,93660,1,0,0:0:0:0:
192,192,93660,1,0,0:0:0:0:
320,192,93883,1,0,0:0:0:0:
448,192,93883,1,0,0:0:0:0:
64,192,93994,1,0,0:0:0:0:
192,192,93994,1,0,0:0:0:0:
448,192,93994,1,0,0:0:0:0:
320,192,94216,1,0,0:0:0:0:
64,192,94216,1,0,0:0:0:0:
192,192,94327,1,0,0:0:0:0:
448,192,94327,1,0,0:0:0:0:
320,192,94327,1,0,0:0:0:0:
192,192,94549,1,0,0:0:0:0:
64,192,94549,1,0,0:0:0:0:
320,192,94660,1,0,0:0:0:0:
448,192,94660,1,0,0:0:0:0:
64,192,94660,1,0,0:0:0:0:
192,192,94883,1,0,0:0:0:0:
448,192,94883,1,0,0:0:0:0:
64,192,94994,1,0,0:0:0:0:
320,192,94994,1,0,0:0:0:0:
448,192,94994,1,0,0:0:0:0:
320,192,95216,1,0,0:0:0:0:
448,192,95216,1,0,0:0:0:0:
192,192,95327,1,0,0:0:0:0:
64,192,95327,1,0,0:0:0:0:
448,192,95327,1,0,0:0:0:0:
320,192,95549,1,0,0:0:0:0:
192,192,95549,1,0,0:0:0:0:
64,192,95660,1,0,0:0:0:0:
320,192,95660,1,0,0:0:0:0:
448,192,95660,1,0,0:0:0:0:
192,192,95772,1,0,0:0:0:0:
320,192,95883,1,0,0:0:0:0:
64,192,95994,1,0,0:0:0:0:
192,192,95994,1,0,0:0:0:0:
448,192,95994,1,0,0:0:0:0:
320,192,96105,1,0,0:0:0:0:
192,192,96216,1,0,0:0:0:0:
64,192,96327,1,0,0:0:0:0:
448,192,96327,1,0,0:0:0:0:
320,192,96438,1,0,0:0:0:0:
192,192,96549,1,0,0:0:0:0:
64,192,96660,1,0,0:0:0:0:
320,192,96660,1,0,0:0:0:0:
448,192,96660,1,0,0:0:0:0:
192,192,96772,1,0,0:0:0:0:
320,192,96883,1,0,0:0:0:0:
64,192,96994,1,0,0:0:0:0:
192,192,96994,1,0,0:0:0:0:
448,192,96994,1,0,0:0:0:0:
320,192,97105,1,0,0:0:0:0:
192,192,97216,1,0,0:0:0:0:
64,192,97327,1,0,0:0:0:0:
320,192,97327,128,0,97549:0:0:0:0:
448,192,97327,128,0,97549:0:0:0:0:
64,192,97660,128,0,97883:0:0:0:0:
192,192,97660,128,0,97883:0:0:0:0:
448,192,97660,1,0,0:0:0:0:
320,192,97994,128,0,98216:0:0:0:0:
448,192,97994,128,0,98216:0:0:0:0:
64,192,97994,1,0,0:0:0:0:
64,192,98327,1,0,0:0:0:0:
192,192,98327,1,0,0:0:0:0:
64,192,98660,1,0,0:0:0:0:
192,192,98660,1,0,0:0:0:0:
448,192,98660,128,0,99994:0:0:0:0:
64,192,98883,1,0,0:0:0:0:
64,192,98994,1,0,0:0:0:0:
192,192,99216,1,0,0:0:0:0:
192,192,99327,1,0,0:0:0:0:
64,192,99549,1,0,0:0:0:0:
64,192,99660,1,0,0:0:0:0:
192,192,99883,1,0,0:0:0:0:
64,192,99994,128,0,100660:0:0:0:0:
192,192,99994,1,0,0:0:0:0:
320,192,100216,1,0,0:0:0:0:
320,192,100327,1,0,0:0:0:0:
448,192,100549,1,0,0:0:0:0:
320,192,100660,128,0,101327:0:0:0:0:
448,192,100660,1,0,0:0:0:0:
192,192,100883,1,0,0:0:0:0:
192,192,100994,1,0,0:0:0:0:
64,192,101216,1,0,0:0:0:0:
64,192,101327,128,0,102660:0:0:0:0:
448,192,101327,1,0,0:0:0:0:
320,192,101549,1,0,0:0:0:0:
320,192,101660,1,0,0:0:0:0:
448,192,101883,1,0,0:0:0:0:
448,192,101994,1,0,0:0:0:0:
320,192,102216,1,0,0:0:0:0:
320,192,102327,1,0,0:0:0:0:
448,192,102549,1,0,0:0:0:0:
192,192,102660,1,0,0:0:0:0:
320,192,102660,1,0,0:0:0:0:
192,192,102883,1,0,0:0:0:0:
64,192,102994,1,0,0:0:0:0:
320,192,102994,1,0,0:0:0:0:
448,192,102994,1,0,0:0:0:0:
320,192,103216,1,0,0:0:0:0:
448,192,103216,1,0,0:0:0:0:
64,192,103327,1,0,0:0:0:0:
192,192,103327,1,0,0:0:0:0:
448,192,103327,1,0,0:0:0:0:
192,192,103549,1,0,0:0:0:0:
320,192,103549,1,0,0:0:0:0:
448,192,103660,1,0,0:0:0:0:
64,192,103660,1,0,0:0:0:0:
320,192,103772,1,0,0:0:0:0:
192,192,103883,1,0,0:0:0:0:
64,192,103994,128,0,105327:0:0:0:0:
320,192,103994,1,0,0:0:0:0:
448,192,103994,1,0,0:0:0:0:
448,192,104216,1,0,0:0:0:0:
448,192,104327,1,0,0:0:0:0:
320,192,104549,1,0,0:0:0:0:
320,192,104660,1,0,0:0:0:0:
448,192,104883,1,0,0:0:0:0:
448,192,104994,1,0,0:0:0:0:
320,192,105216,1,0,0:0:0:0:
448,192,105327,128,0,105994:0:0:0:0:
192,192,105327,1,0,0:0:0:0:
192,192,105549,1,0,0:0:0:0:
192,192,105660,1,0,0:0:0:0:
64,192,105883,1,0,0:0:0:0:
192,192,105994,128,0,106660:0:0:0:0:
64,192,105994,1,0,0:0:0:0:
448,192,106216,1,0,0:0:0:0:
320,192,106327,1,0,0:0:0:0:
448,192,106438,1,0,0:0:0:0:
320,192,106549,1,0,0:0:0:0:
448,192,106660,128,0,107994:0:0:0:0:
64,192,106660,1,0,0:0:0:0:
192,192,106883,1,0,0:0:0:0:
192,192,106994,1,0,0:0:0:0:
64,192,107216,1,0,0:0:0:0:
192,192,107327,1,0,0:0:0:0:
64,192,107549,1,0,0:0:0:0:
192,192,107660,1,0,0:0:0:0:
64,192,107772,1,0,0:0:0:0:
192,192,107883,1,0,0:0:0:0:
320,192,107994,1,0,0:0:0:0:
64,192,107994,1,0,0:0:0:0:
192,192,108327,1,0,0:0:0:0:
448,192,108327,1,0,0:0:0:0:
64,192,108327,1,0,0:0:0:0:
64,192,108660,1,0,0:0:0:0:
448,192,108660,1,0,0:0:0:0:
320,192,108660,1,0,0:0:0:0:
320,192,108883,1,0,0:0:0:0:
192,192,108994,1,0,0:0:0:0:
64,192,108994,1,0,0:0:0:0:
448,192,108994,1,0,0:0:0:0:
448,192,109327,1,0,0:0:0:0:
320,192,109327,1,0,0:0:0:0:
64,192,109327,1,0,0:0:0:0:
192,192,109438,1,0,0:0:0:0:
320,192,109549,1,0,0:0:0:0:
64,192,109660,1,0,0:0:0:0:
192,192,109660,1,0,0:0:0:0:
448,192,109660,1,0,0:0:0:0:
320,192,109883,1,0,0:0:0:0:
448,192,109883,1,0,0:0:0:0:
192,192,109994,1,0,0:0:0:0:
64,192,109994,1,0,0:0:0:0:
448,192,109994,1,0,0:0:0:0:
320,192,110105,1,0,0:0:0:0:
192,192,110216,1,0,0:0:0:0:
64,192,110327,1,0,0:0:0:0:
448,192,110327,1,0,0:0:0:0:
320,192,110438,1,0,0:0:0:0:
192,192,110549,1,0,0:0:0:0:
64,192,110660,1,0,0:0:0:0:
320,192,110660,1,0,0:0:0:0:
448,192,110660,1,0,0:0:0:0:
192,192,110883,1,0,0:0:0:0:
64,192,110883,1,0,0:0:0:0:
320,192,110994,1,0,0:0:0:0:
448,192,110994,1,0,0:0:0:0:
64,192,110994,1,0,0:0:0:0:
192,192,111105,1,0,0:0:0:0:
320,192,111216,1,0,0:0:0:0:
64,192,111327,1,0,0:0:0:0:
448,192,111327,1,0,0:0:0:0:
320,192,111438,1,0,0:0:0:0:
192,192,111549,1,0,0:0:0:0:
64,192,111660,1,0,0:0:0:0:
320,192,111660,1,0,0:0:0:0:
448,192,111660,1,0,0:0:0:0:
320,192,111883,1,0,0:0:0:0:
448,192,111883,1,0,0:0:0:0:
64,192,111994,1,0,0:0:0:0:
192,192,111994,1,0,0:0:0:0:
448,192,111994,1,0,0:0:0:0:
320,192,112105,1,0,0:0:0:0:
192,192,112216,1,0,0:0:0:0:
64,192,112327,1,0,0:0:0:0:
448,192,112327,1,0,0:0:0:0:
320,192,112327,1,0,0:0:0:0:
192,192,112549,1,0,0:0:0:0:
64,192,112549,1,0,0:0:0:0:
64,192,112660,1,0,0:0:0:0:
320,192,112660,1,0,0:0:0:0:
448,192,112660,1,0,0:0:0:0:
192,192,112883,1,0,0:0:0:0:
320,192,112883,1,0,0:0:0:0:
64,192,112994,1,0,0:0:0:0:
320,192,112994,1,0,0:0:0:0:
448,192,112994,1,0,0:0:0:0:
192,192,113105,1,0,0:0:0:0:
320,192,113216,1,0,0:0:0:0:
64,192,113327,1,0,0:0:0:0:
192,192,113327,1,0,0:0:0:0:
320,192,113438,1,0,0:0:0:0:
448,192,113438,1,0,0:0:0:0:
64,192,113549,1,0,0:0:0:0:
448,192,113660,1,0,0:0:0:0:
320,192,113660,1,0,0:0:0:0:
192,192,113772,1,0,0:0:0:0:
64,192,113772,1,0,0:0:0:0:
448,192,113883,1,0,0:0:0:0:
192,192,113994,1,0,0:0:0:0:
64,192,113994,1,0,0:0:0:0:
320,192,114105,1,0,0:0:0:0:
448,192,114105,1,0,0:0:0:0:
64,192,114216,1,0,0:0:0:0:
448,192,114327,1,0,0:0:0:0:
320,192,114327,1,0,0:0:0:0:
192,192,114438,1,0,0:0:0:0:
64,192,114438,1,0,0:0:0:0:
320,192,114549,1,0,0:0:0:0:
192,192,114660,1,0,0:0:0:0:
448,192,114660,1,0,0:0:0:0:
64,192,114660,1,0,0:0:0:0:
320,192,114883,1,0,0:0:0:0:
448,192,114883,1,0,0:0:0:0:
192,192,114994,1,0,0:0:0:0:
64,192,114994,1,0,0:0:0:0:
448,192,114994,1,0,0:0:0:0:
320,192,115105,1,0,0:0:0:0:
192,192,115216,1,0,0:0:0:0:
64,192,115216,1,0,0:0:0:0:
320,192,115327,1,0,0:0:0:0:
448,192,115327,1,0,0:0:0:0:
64,192,115549,1,0,0:0:0:0:
192,192,115549,1,0,0:0:0:0:
320,192,115660,1,0,0:0:0:0:
448,192,115660,1,0,0:0:0:0:
192,192,115883,1,0,0:0:0:0:
320,192,115883,1,0,0:0:0:0:
64,192,115994,1,0,0:0:0:0:
448,192,115994,1,0,0:0:0:0:
320,192,115994,1,0,0:0:0:0:
192,192,116216,1,0,0:0:0:0:
448,192,116216,1,0,0:0:0:0:
320,192,116327,1,0,0:0:0:0:
64,192,116327,1,0,0:0:0:0:
448,192,116438,1,0,0:0:0:0:
64,192,116549,1,0,0:0:0:0:
192,192,116549,1,0,0:0:0:0:
320,192,116660,1,0,0:0:0:0:
448,192,116660,1,0,0:0:0:0:
64,192,116883,1,0,0:0:0:0:
192,192,116883,1,0,0:0:0:0:
320,192,116994,1,0,0:0:0:0:
448,192,116994,1,0,0:0:0:0:
64,192,117105,1,0,0:0:0:0:
320,192,117216,1,0,0:0:0:0:
192,192,117327,1,0,0:0:0:0:
64,192,117327,1,0,0:0:0:0:
448,192,117327,1,0,0:0:0:0:
320,192,117438,1,0,0:0:0:0:
192,192,117549,1,0,0:0:0:0:
64,192,117660,1,0,0:0:0:0:
448,192,117660,1,0,0:0:0:0:
320,192,117772,1,0,0:0:0:0:
192,192,117883,1,0,0:0:0:0:
448,192,117994,1,0,0:0:0:0:
64,192,117994,1,0,0:0:0:0:
320,192,117994,1,0,0:0:0:0:
192,192,118105,1,0,0:0:0:0:
320,192,118216,1,0,0:0:0:0:
64,192,118327,1,0,0:0:0:0:
192,192,118327,1,0,0:0:0:0:
448,192,118327,1,0,0:0:0:0:
320,192,118438,1,0,0:0:0:0:
192,192,118549,1,0,0:0:0:0:
64,192,118660,1,0,0:0:0:0:
320,192,118660,128,0,118883:0:0:0:0:
448,192,118660,128,0,118883:0:0:0:0:
64,192,118994,128,0,119216:0:0:0:0:
192,192,118994,128,0,119216:0:0:0:0:
448,192,118994,1,0,0:0:0:0:
448,192,119327,128,0,119660:0:0:0:0:
320,192,119327,128,0,119660:0:0:0:0:
64,192,119327,1,0,0:0:0:0:
64,192,119660,1,0,0:0:0:0:
192,192,119660,1,0,0:0:0:0:
448,192,119994,1,0,0:0:0:0:
192,192,119994,1,0,0:0:0:0:
320,192,120105,1,0,0:0:0:0:
64,192,120105,1,0,0:0:0:0:
64,192,120327,1,0,0:0:0:0:
320,192,120327,1,0,0:0:0:0:
192,192,120438,1,0,0:0:0:0:
448,192,120438,1,0,0:0:0:0:
64,192,120660,1,0,0:0:0:0:
448,192,120660,1,0,0:0:0:0:
320,192,120772,1,0,0:0:0:0:
192,192,120883,1,0,0:0:0:0:
64,192,120994,1,0,0:0:0:0:
448,192,120994,1,0,0:0:0:0:
320,192,121105,1,0,0:0:0:0:
192,192,121216,1,0,0:0:0:0:
448,192,121327,1,0,0:0:0:0:
320,192,121327,1,0,0:0:0:0:
64,192,121327,1,0,0:0:0:0:
192,192,121438,1,0,0:0:0:0:
64,192,121438,1,0,0:0:0:0:
448,192,121549,1,0,0:0:0:0:
64,192,121660,1,0,0:0:0:0:
192,192,121660,1,0,0:0:0:0:
320,192,121772,1,0,0:0:0:0:
448,192,121772,1,0,0:0:0:0:
192,192,121883,1,0,0:0:0:0:
64,192,121994,1,0,0:0:0:0:
320,192,121994,1,0,0:0:0:0:
448,192,121994,1,0,0:0:0:0:
192,192,122327,1,0,0:0:0:0:
320,192,122660,1,0,0:0:0:0:
448,192,122660,1,0,0:0:0:0:
192,192,122772,1,0,0:0:0:0:
64,192,122772,1,0,0:0:0:0:
448,192,122883,1,0,0:0:0:0:
320,192,122994,1,0,0:0:0:0:
192,192,122994,1,0,0:0:0:0:
64,192,123105,1,0,0:0:0:0:
448,192,123105,1,0,0:0:0:0:
320,192,123216,1,0,0:0:0:0:
64,192,123327,1,0,0:0:0:0:
192,192,123327,1,0,0:0:0:0:
320,192,123438,1,0,0:0:0:0:
448,192,123438,1,0,0:0:0:0:
64,192,123549,1,0,0:0:0:0:
320,192,123660,1,0,0:0:0:0:
448,192,123660,1,0,0:0:0:0:
64,192,123772,1,0,0:0:0:0:
192,192,123772,1,0,0:0:0:0:
448,192,123883,1,0,0:0:0:0:
64,192,123994,1,0,0:0:0:0:
192,192,123994,1,0,0:0:0:0:
320,192,124105,1,0,0:0:0:0:
448,192,124105,1,0,0:0:0:0:
64,192,124216,1,0,0:0:0:0:
192,192,124327,1,0,0:0:0:0:
320,192,124327,1,0,0:0:0:0:
64,192,124438,1,0,0:0:0:0:
448,192,124438,1,0,0:0:0:0:
192,192,124549,1,0,0:0:0:0:
320,192,124660,1,0,0:0:0:0:
448,192,124660,1,0,0:0:0:0:
192,192,124772,1,0,0:0:0:0:
64,192,124772,1,0,0:0:0:0:
448,192,124883,1,0,0:0:0:0:
192,192,124994,1,0,0:0:0:0:
64,192,124994,1,0,0:0:0:0:
320,192,125105,1,0,0:0:0:0:
448,192,125105,1,0,0:0:0:0:
64,192,125216,1,0,0:0:0:0:
320,192,125327,1,0,0:0:0:0:
448,192,125327,1,0,0:0:0:0:
192,192,125438,1,0,0:0:0:0:
64,192,125438,1,0,0:0:0:0:
448,192,125549,1,0,0:0:0:0:
320,192,125660,1,0,0:0:0:0:
192,192,125660,1,0,0:0:0:0:
64,192,125772,1,0,0:0:0:0:
448,192,125772,1,0,0:0:0:0:
320,192,125883,1,0,0:0:0:0:
64,192,125994,1,0,0:0:0:0:
192,192,125994,1,0,0:0:0:0:
320,192,126105,1,0,0:0:0:0:
448,192,126105,1,0,0:0:0:0:
64,192,126216,1,0,0:0:0:0:
320,192,126327,1,0,0:0:0:0:
448,192,126327,1,0,0:0:0:0:
192,192,126438,1,0,0:0:0:0:
64,192,126438,1,0,0:0:0:0:
448,192,126549,1,0,0:0:0:0:
64,192,126660,1,0,0:0:0:0:
192,192,126660,1,0,0:0:0:0:
320,192,126772,1,0,0:0:0:0:
448,192,126772,1,0,0:0:0:0:
192,192,126883,1,0,0:0:0:0:
64,192,126883,1,0,0:0:0:0:
448,192,126994,1,0,0:0:0:0:
320,192,126994,1,0,0:0:0:0:
192,192,127105,1,0,0:0:0:0:
64,192,127105,1,0,0:0:0:0:
320,192,127216,1,0,0:0:0:0:
448,192,127216,1,0,0:0:0:0:
192,192,127327,1,0,0:0:0:0:
64,192,127327,1,0,0:0:0:0:
320,192,127438,1,0,0:0:0:0:
448,192,127438,1,0,0:0:0:0:
192,192,127549,1,0,0:0:0:0:
64,192,127549,1,0,0:0:0:0:
320,192,127660,1,0,0:0:0:0:
448,192,127660,1,0,0:0:0:0:
64,192,127772,1,0,0:0:0:0:
192,192,127772,1,0,0:0:0:0:
320,192,127883,1,0,0:0:0:0:
64,192,127994,1,0,0:0:0:0:
448,192,127994,1,0,0:0:0:0:
320,192,128105,1,0,0:0:0:0:
192,192,128105,1,0,0:0:0:0:
64,192,128216,1,0,0:0:0:0:
448,192,128216,1,0,0:0:0:0:
320,192,128327,1,0,0:0:0:0:
192,192,128327,1,0,0:0:0:0:
64,192,128438,1,0,0:0:0:0:
448,192,128438,1,0,0:0:0:0:
192,192,128549,1,0,0:0:0:0:
320,192,128549,1,0,0:0:0:0:
64,192,128660,1,0,0:0:0:0:
448,192,128660,1,0,0:0:0:0:
320,192,128772,1,0,0:0:0:0:
192,192,128772,1,0,0:0:0:0:
64,192,128883,1,0,0:0:0:0:
448,192,128883,1,0,0:0:0:0:
192,192,128994,1,0,0:0:0:0:
320,192,129105,1,0,0:0:0:0:
64,192,129105,1,0,0:0:0:0:
448,192,129216,1,0,0:0:0:0:
192,192,129216,1,0,0:0:0:0:
320,192,129327,1,0,0:0:0:0:
64,192,129327,1,0,0:0:0:0:
192,192,129438,1,0,0:0:0:0:
448,192,129438,1,0,0:0:0:0:
320,192,129549,1,0,0:0:0:0:
64,192,129549,1,0,0:0:0:0:
192,192,129660,1,0,0:0:0:0:
448,192,129660,1,0,0:0:0:0:
320,192,129772,1,0,0:0:0:0:
64,192,129772,1,0,0:0:0:0:
448,192,129883,1,0,0:0:0:0:
64,192,129994,1,0,0:0:0:0:
192,192,129994,1,0,0:0:0:0:
320,192,130105,1,0,0:0:0:0:
448,192,130105,1,0,0:0:0:0:
192,192,130216,1,0,0:0:0:0:
64,192,130216,1,0,0:0:0:0:
448,192,130327,1,0,0:0:0:0:
320,192,130327,1,0,0:0:0:0:
192,192,130438,1,0,0:0:0:0:
64,192,130438,1,0,0:0:0:0:
320,192,130549,1,0,0:0:0:0:
448,192,130549,1,0,0:0:0:0:
64,192,130660,1,0,0:0:0:0:
192,192,130660,1,0,0:0:0:0:
448,192,130660,1,0,0:0:0:0:
64,192,130994,1,0,0:0:0:0:
320,192,130994,1,0,0:0:0:0:
448,192,130994,1,0,0:0:0:0:
64,192,131327,1,0,0:0:0:0:
192,192,131327,1,0,0:0:0:0:
448,192,131327,1,0,0:0:0:0:
320,192,131660,128,0,131994:0:0:0:0:
448,192,131660,128,0,131994:0:0:0:0:
64,192,131994,1,0,0:0:0:0:
192,192,131994,1,0,0:0:0:0:
192,192,132216,1,0,0:0:0:0:
64,192,132216,1,0,0:0:0:0:
320,192,132327,1,0,0:0:0:0:
448,192,132327,1,0,0:0:0:0:
64,192,132327,1,0,0:0:0:0:
320,192,132549,1,0,0:0:0:0:
192,192,132549,1,0,0:0:0:0:
448,192,132660,1,0,0:0:0:0:
64,192,132660,1,0,0:0:0:0:
192,192,132660,1,0,0:0:0:0:
448,192,132883,1,0,0:0:0:0:
320,192,132883,1,0,0:0:0:0:
192,192,132994,1,0,0:0:0:0:
64,192,132994,1,0,0:0:0:0:
448,192,132994,1,0,0:0:0:0:
192,192,133216,1,0,0:0:0:0:
448,192,133216,1,0,0:0:0:0:
320,192,133327,1,0,0:0:0:0:
64,192,133327,1,0,0:0:0:0:
448,192,133327,1,0,0:0:0:0:
192,192,133549,1,0,0:0:0:0:
64,192,133549,1,0,0:0:0:0:
320,192,133660,1,0,0:0:0:0:
448,192,133660,1,0,0:0:0:0:
64,192,133660,1,0,0:0:0:0:
64,192,133883,1,0,0:0:0:0:
320,192,133883,1,0,0:0:0:0:
192,192,133994,1,0,0:0:0:0:
448,192,133994,1,0,0:0:0:0:
64,192,133994,1,0,0:0:0:0:
448,192,134216,1,0,0:0:0:0:
320,192,134216,1,0,0:0:0:0:
192,192,134327,1,0,0:0:0:0:
64,192,134327,1,0,0:0:0:0:
448,192,134438,1,0,0:0:0:0:
320,192,134549,1,0,0:0:0:0:
448,192,134660,1,0,0:0:0:0:
64,192,134660,1,0,0:0:0:0:
192,192,134660,1,0,0:0:0:0:
192,192,134883,1,0,0:0:0:0:
64,192,134883,1,0,0:0:0:0:
320,192,134994,1,0,0:0:0:0:
448,192,134994,1,0,0:0:0:0:
192,192,135105,1,0,0:0:0:0:
64,192,135105,1,0,0:0:0:0:
320,192,135216,1,0,0:0:0:0:
448,192,135327,1,0,0:0:0:0:
192,192,135327,1,0,0:0:0:0:
64,192,135327,1,0,0:0:0:0:
448,192,135549,1,0,0:0:0:0:
320,192,135549,1,0,0:0:0:0:
192,192,135660,1,0,0:0:0:0:
64,192,135660,1,0,0:0:0:0:
320,192,135772,1,0,0:0:0:0:
448,192,135772,1,0,0:0:0:0:
192,192,135883,1,0,0:0:0:0:
448,192,135994,1,0,0:0:0:0:
320,192,135994,1,0,0:0:0:0:
64,192,135994,1,0,0:0:0:0:
192,192,136216,1,0,0:0:0:0:
64,192,136216,1,0,0:0:0:0:
320,192,136327,1,0,0:0:0:0:
448,192,136327,1,0,0:0:0:0:
64,192,136327,1,0,0:0:0:0:
192,192,136549,1,0,0:0:0:0:
320,192,136549,1,0,0:0:0:0:
448,192,136660,1,0,0:0:0:0:
64,192,136660,1,0,0:0:0:0:
192,192,136660,1,0,0:0:0:0:
448,192,136883,1,0,0:0:0:0:
320,192,136883,1,0,0:0:0:0:
192,192,136994,1,0,0:0:0:0:
64,192,136994,1,0,0:0:0:0:
320,192,136994,1,0,0:0:0:0:
448,192,137105,1,0,0:0:0:0:
320,192,137216,1,0,0:0:0:0:
448,192,137327,1,0,0:0:0:0:
192,192,137327,1,0,0:0:0:0:
64,192,137327,1,0,0:0:0:0:
320,192,137549,1,0,0:0:0:0:
192,192,137549,1,0,0:0:0:0:
448,192,137660,1,0,0:0:0:0:
64,192,137660,1,0,0:0:0:0:
192,192,137660,1,0,0:0:0:0:
64,192,137883,1,0,0:0:0:0:
320,192,137883,1,0,0:0:0:0:
192,192,137994,1,0,0:0:0:0:
448,192,137994,1,0,0:0:0:0:
64,192,137994,1,0,0:0:0:0:
192,192,138216,1,0,0:0:0:0:
64,192,138216,1,0,0:0:0:0:
320,192,138327,1,0,0:0:0:0:
448,192,138327,1,0,0:0:0:0:
64,192,138327,1,0,0:0:0:0:
320,192,138549,1,0,0:0:0:0:
192,192,138549,1,0,0:0:0:0:
448,192,138660,1,0,0:0:0:0:
64,192,138660,1,0,0:0:0:0:
320,192,138660,1,0,0:0:0:0:
192,192,138883,1,0,0:0:0:0:
64,192,138883,1,0,0:0:0:0:
320,192,138994,1,0,0:0:0:0:
448,192,138994,1,0,0:0:0:0:
64,192,138994,1,0,0:0:0:0:
320,192,139216,1,0,0:0:0:0:
192,192,139216,1,0,0:0:0:0:
448,192,139327,1,0,0:0:0:0:
64,192,139327,1,0,0:0:0:0:
320,192,139327,1,0,0:0:0:0:
192,192,139549,1,0,0:0:0:0:
448,192,139660,1,0,0:0:0:0:
320,192,139660,1,0,0:0:0:0:
192,192,139772,1,0,0:0:0:0:
64,192,139772,1,0,0:0:0:0:
320,192,139883,1,0,0:0:0:0:
448,192,139883,1,0,0:0:0:0:
448,192,139994,1,0,0:0:0:0:
192,192,139994,1,0,0:0:0:0:
64,192,139994,1,0,0:0:0:0:
448,192,140216,1,0,0:0:0:0:
192,192,140216,1,0,0:0:0:0:
64,192,140216,1,0,0:0:0:0:
320,192,140438,1,0,0:0:0:0:
192,192,140549,1,0,0:0:0:0:
448,192,140660,1,0,0:0:0:0:
320,192,140660,1,0,0:0:0:0:
64,192,140660,1,0,0:0:0:0:
448,192,140883,1,0,0:0:0:0:
320,192,140883,1,0,0:0:0:0:
64,192,140883,1,0,0:0:0:0:
192,192,141105,1,0,0:0:0:0:
320,192,141216,1,0,0:0:0:0:
448,192,141327,1,0,0:0:0:0:
192,192,141327,1,0,0:0:0:0:
64,192,141327,128,0,141994:0:0:0:0:
320,192,141994,1,0,0:0:0:0:
448,192,141994,1,0,0:0:0:0:
192,192,142105,1,0,0:0:0:0:
64,192,142105,1,0,0:0:0:0:
448,192,142216,1,0,0:0:0:0:
320,192,142216,1,0,0:0:0:0:
192,192,142327,1,0,0:0:0:0:
64,192,142327,1,0,0:0:0:0:
320,192,142438,1,0,0:0:0:0:
448,192,142438,1,0,0:0:0:0:
192,192,142549,1,0,0:0:0:0:
64,192,142660,1,0,0:0:0:0:
320,192,142660,1,0,0:0:0:0:
448,192,142660,1,0,0:0:0:0:
192,192,142883,1,0,0:0:0:0:
320,192,142883,1,0,0:0:0:0:
64,192,142994,1,0,0:0:0:0:
320,192,142994,1,0,0:0:0:0:
448,192,142994,1,0,0:0:0:0:
448,192,143216,1,0,0:0:0:0:
320,192,143216,1,0,0:0:0:0:
64,192,143327,1,0,0:0:0:0:
192,192,143327,1,0,0:0:0:0:
448,192,143327,1,0,0:0:0:0:
320,192,143438,1,0,0:0:0:0:
192,192,143549,1,0,0:0:0:0:
64,192,143549,1,0,0:0:0:0:
64,192,143660,1,0,0:0:0:0:
320,192,143660,1,0,0:0:0:0:
448,192,143660,1,0,0:0:0:0:
192,192,143883,1,0,0:0:0:0:
320,192,143883,1,0,0:0:0:0:
64,192,143994,1,0,0:0:0:0:
320,192,143994,1,0,0:0:0:0:
448,192,143994,1,0,0:0:0:0:
192,192,144216,1,0,0:0:0:0:
320,192,144216,1,0,0:0:0:0:
64,192,144327,1,0,0:0:0:0:
192,192,144327,1,0,0:0:0:0:
448,192,144327,1,0,0:0:0:0:
320,192,144549,1,0,0:0:0:0:
448,192,144549,1,0,0:0:0:0:
192,192,144660,1,0,0:0:0:0:
64,192,144660,1,0,0:0:0:0:
448,192,144660,1,0,0:0:0:0:
320,192,144772,1,0,0:0:0:0:
192,192,144883,1,0,0:0:0:0:
64,192,144994,1,0,0:0:0:0:
448,192,144994,1,0,0:0:0:0:
320,192,144994,1,0,0:0:0:0:
192,192,145105,1,0,0:0:0:0:
320,192,145216,1,0,0:0:0:0:
64,192,145327,1,0,0:0:0:0:
192,192,145327,1,0,0:0:0:0:
448,192,145327,1,0,0:0:0:0:
320,192,145549,1,0,0:0:0:0:
448,192,145549,1,0,0:0:0:0:
192,192,145660,1,0,0:0:0:0:
64,192,145660,1,0,0:0:0:0:
320,192,145772,1,0,0:0:0:0:
448,192,145772,1,0,0:0:0:0:
192,192,145883,1,0,0:0:0:0:
64,192,145883,1,0,0:0:0:0:
64,192,145994,1,0,0:0:0:0:
320,192,145994,1,0,0:0:0:0:
448,192,145994,1,0,0:0:0:0:
64,192,146216,1,0,0:0:0:0:
192,192,146216,1,0,0:0:0:0:
320,192,146327,1,0,0:0:0:0:
448,192,146327,1,0,0:0:0:0:
192,192,146438,1,0,0:0:0:0:
64,192,146438,1,0,0:0:0:0:
320,192,146549,1,0,0:0:0:0:
448,192,146549,1,0,0:0:0:0:
448,192,146660,1,0,0:0:0:0:
192,192,146660,1,0,0:0:0:0:
64,192,146660,1,0,0:0:0:0:
320,192,146883,1,0,0:0:0:0:
448,192,146883,1,0,0:0:0:0:
448,192,146994,1,0,0:0:0:0:
320,192,146994,1,0,0:0:0:0:
64,192,146994,1,0,0:0:0:0:
192,192,147216,1,0,0:0:0:0:
320,192,147216,1,0,0:0:0:0:
192,192,147327,1,0,0:0:0:0:
320,192,147327,1,0,0:0:0:0:
64,192,147549,1,0,0:0:0:0:
192,192,147549,1,0,0:0:0:0:
64,192,147660,1,0,0:0:0:0:
192,192,147660,1,0,0:0:0:0:
448,192,147660,1,0,0:0:0:0:
320,192,147772,1,0,0:0:0:0:
192,192,147883,1,0,0:0:0:0:
64,192,147994,1,0,0:0:0:0:
320,192,147994,1,0,0:0:0:0:
448,192,147994,1,0,0:0:0:0:
64,192,148216,1,0,0:0:0:0:
192,192,148216,1,0,0:0:0:0:
64,192,148327,1,0,0:0:0:0:
320,192,148327,1,0,0:0:0:0:
448,192,148327,1,0,0:0:0:0:
320,192,148549,1,0,0:0:0:0:
448,192,148549,1,0,0:0:0:0:
448,192,148660,1,0,0:0:0:0:
192,192,148660,1,0,0:0:0:0:
64,192,148660,1,0,0:0:0:0:
320,192,148883,1,0,0:0:0:0:
192,192,148883,1,0,0:0:0:0:
64,192,148994,1,0,0:0:0:0:
320,192,148994,1,0,0:0:0:0:
448,192,148994,1,0,0:0:0:0:
192,192,149105,1,0,0:0:0:0:
320,192,149216,1,0,0:0:0:0:
64,192,149327,1,0,0:0:0:0:
192,192,149327,1,0,0:0:0:0:
448,192,149327,1,0,0:0:0:0:
320,192,149549,1,0,0:0:0:0:
448,192,149549,1,0,0:0:0:0:
192,192,149660,1,0,0:0:0:0:
448,192,149660,1,0,0:0:0:0:
64,192,149660,1,0,0:0:0:0:
192,192,149883,1,0,0:0:0:0:
320,192,149883,1,0,0:0:0:0:
64,192,149994,1,0,0:0:0:0:
320,192,149994,1,0,0:0:0:0:
448,192,149994,1,0,0:0:0:0:
64,192,150216,1,0,0:0:0:0:
192,192,150216,1,0,0:0:0:0:
64,192,150327,1,0,0:0:0:0:
320,192,150327,1,0,0:0:0:0:
448,192,150327,1,0,0:0:0:0:
192,192,150438,1,0,0:0:0:0:
320,192,150549,1,0,0:0:0:0:
64,192,150660,1,0,0:0:0:0:
192,192,150660,1,0,0:0:0:0:
448,192,150660,1,0,0:0:0:0:
320,192,150883,1,0,0:0:0:0:
448,192,150883,1,0,0:0:0:0:
64,192,150994,1,0,0:0:0:0:
192,192,151105,1,0,0:0:0:0:
320,192,151105,1,0,0:0:0:0:
448,192,151216,1,0,0:0:0:0:
64,192,151327,1,0,0:0:0:0:
192,192,151327,1,0,0:0:0:0:
320,192,151327,1,0,0:0:0:0:
320,192,151549,1,0,0:0:0:0:
448,192,151549,1,0,0:0:0:0:
64,192,151660,1,0,0:0:0:0:
192,192,151772,1,0,0:0:0:0:
448,192,151772,1,0,0:0:0:0:
320,192,151883,1,0,0:0:0:0:
64,192,151994,1,0,0:0:0:0:
192,192,151994,1,0,0:0:0:0:
448,192,151994,1,0,0:0:0:0:
320,192,152105,1,0,0:0:0:0:
192,192,152216,1,0,0:0:0:0:
64,192,152327,1,0,0:0:0:0:
320,192,152327,1,0,0:0:0:0:
448,192,152327,1,0,0:0:0:0:
192,192,152383,1,0,0:0:0:0:
320,192,152438,1,0,0:0:0:0:
448,192,152494,1,0,0:0:0:0:
64,192,152494,1,0,0:0:0:0:
192,192,152549,1,0,0:0:0:0:
320,192,152605,1,0,0:0:0:0:
448,192,152660,1,0,0:0:0:0:
64,192,152660,1,0,0:0:0:0:
192,192,152660,1,0,0:0:0:0:
320,192,152994,1,0,0:0:0:0:
192,192,152994,1,0,0:0:0:0:
192,192,153327,1,0,0:0:0:0:
64,192,153327,128,0,158660:0:0:0:0:
320,192,153327,1,0,0:0:0:0:
448,192,153327,128,0,158660:0:0:0:0:
