osu file format v14

[General]
AudioFilename: audio.mp3
AudioLeadIn: 0
PreviewTime: 238038
Countdown: 0
SampleSet: Soft
StackLeniency: 0.7
Mode: 2
LetterboxInBreaks: 0
WidescreenStoryboard: 0

[Editor]
DistanceSpacing: 1.6
BeatDivisor: 4
GridSize: 8
TimelineZoom: 3.899998

[Metadata]
Title:Noel (long ver.)
TitleUnicode:Noël (long ver.)
Artist:Morimori Atsushi vs. uma
ArtistUnicode:モリモリあつし vs. uma
Creator:Verti
Version:Magie de Noel
Source:VOEZ
Tags:electronic instrumental featured artist fa Christmas C87 Comiket 87 Un Deux Trois... Astral Sky vs. 非可逆リズム Re: End of a Dream Re M3-39 ASRR-0002 realazy mappers' guild mg mpg video game rhythm
BeatmapID:3041759
BeatmapSetID:1483009

[Difficulty]
HPDrainRate:6
CircleSize:4.2
OverallDifficulty:9.7
ApproachRate:9.7
SliderMultiplier:2
SliderTickRate:2

[Events]
//Background and Video events
0,0,"108991376_p0.jpg",0,0
//Break Periods
//Storyboard Layer 0 (Background)
//Storyboard Layer 1 (Fail)
//Storyboard Layer 2 (Pass)
//Storyboard Layer 3 (Foreground)
//Storyboard Layer 4 (Overlay)
//Storyboard Sound Samples

[TimingPoints]
561,272.727272727273,4,2,1,25,1,0
833,272.727272727273,3,2,1,25,1,0
4106,-100,4,2,1,25,0,0
6834,-100,4,2,1,35,0,0
7379,-100,4,2,1,45,0,0
10652,-100,4,2,1,60,0,0
11197,-100,4,2,1,45,0,0
11470,-100,4,2,1,60,0,0
13924,-100,4,2,1,70,0,0
23743,-100,4,2,1,70,0,0
27015,-100,4,2,1,35,0,0
33561,-100,4,2,1,45,0,0
36834,-100,4,2,1,55,0,0
39561,-100,4,2,1,45,0,0
40106,-100,4,2,1,70,0,0
53197,-100,4,2,1,70,0,0
66288,-100,4,2,1,55,0,0
72834,-100,4,2,1,65,0,0
76106,-100,4,2,1,75,0,0
76652,-100,4,2,1,55,0,0
76924,-100,4,2,1,75,0,0
78561,-100,4,2,1,60,0,0
79379,-100,4,2,1,45,0,0
91106,-100,4,2,1,50,0,0
91243,-100,4,2,1,55,0,0
91379,-100,4,2,1,60,0,0
91515,-100,4,2,1,65,0,0
91652,-100,4,2,1,70,0,0
105561,-100,4,2,1,50,0,0
112106,-100,4,2,1,60,0,0
118652,-100,4,2,1,55,0,0
125197,-100,4,2,1,65,0,0
128470,-100,4,2,1,75,0,0
129015,-100,4,2,1,55,0,0
129288,-100,4,2,1,75,0,0
130924,-100,4,2,1,35,0,0
131197,-100,4,2,1,45,0,0
131470,-100,4,2,1,55,0,0
131743,-100,4,2,1,65,0,0
132288,-100,4,2,1,35,0,0
144015,-100,4,2,1,45,0,0
144561,-100,4,2,1,65,0,0
144834,-100,4,2,1,85,0,0
154652,-100,4,2,1,75,0,0
156288,-100,4,2,1,90,0,0
157924,-100,4,2,1,45,0,0
164743,-100,4,2,1,55,0,0
167743,-100,4,2,1,65,0,0
171015,-100,4,2,1,70,0,0
180834,-100,4,2,1,70,0,0
183288,-100,4,2,1,60,0,0
184106,-100,4,2,1,50,0,0
190652,-100,4,2,1,60,0,0
197197,-100,4,2,1,55,0,0
203743,-100,4,2,1,65,0,0
207561,-100,4,2,1,45,0,0
210288,-100,4,2,1,65,0,0
211924,-100,4,2,1,50,0,0
224197,-100,4,2,1,60,0,0
224743,-100,4,2,1,70,0,0
225015,-100,4,2,1,60,0,0
225834,-100,4,2,1,70,0,0
228288,-100,4,2,1,90,0,0
238106,-100,4,2,1,90,0,0
247924,-100,4,2,1,80,0,0
249561,-100,4,2,1,95,0,0
251197,-100,4,2,1,35,0,0
261288,-100,4,2,1,40,0,0
261561,-100,4,2,1,45,0,0
261834,-100,4,2,1,50,0,0
262106,-100,4,2,1,55,0,0
262652,-100,4,2,1,60,0,0
263470,-100,4,2,1,65,0,0
265106,-100,4,2,1,70,0,0
265924,-100,4,2,1,55,0,0
272743,-100,4,2,1,65,0,0
275743,-100,4,2,1,75,0,0
279288,-100,4,2,1,95,0,0
288834,-100,4,2,1,75,0,0
291288,-100,4,2,1,100,0,0
291834,-100,4,2,1,80,0,0
292106,-100,4,2,1,30,0,0
292379,-100,4,2,1,40,0,0
292652,-100,4,2,1,50,0,0
292924,-100,4,2,1,60,0,0
293197,-100,4,2,1,70,0,0
293470,-100,4,2,1,80,0,0
293743,-100,4,2,1,90,0,0
294561,-100,4,2,1,100,0,0
295106,-100,4,2,1,80,0,0
295379,-100,4,2,1,75,0,0

[Colours]
Combo1 : 0,0,183
Combo2 : 0,128,255
Combo3 : 229,229,229
Combo4 : 0,202,202

[HitObjects]
341,277,561,6,0,L|341:157,1,100
200,136,833,2,0,L|360:296,2,200,2|0|0,0:0|0:0|0:0,0:0:0:0:
448,64,1651,1,2,0:0:0:0:
200,184,1923,5,2,0:0:0:0:
320,128,2060,2,0,L|320:48,2,50
200,112,2333,1,0,0:0:0:0:
408,64,2469,1,2,0:0:0:0:
208,232,2742,5,2,0:0:0:0:
88,168,2878,2,0,L|88:112,2,50
208,88,3151,1,0,0:0:0:0:
0,48,3287,1,2,0:0:0:0:
400,64,3833,1,2,0:0:0:0:
200,152,4105,6,0,L|360:312,2,200,2|0|0,0:0|0:0|0:0,0:0:0:0:
304,176,4787,1,0,0:0:0:0:
448,360,4923,6,0,L|448:256,1,100,2|0,0:0|0:0,0:0:0:0:
216,64,5196,2,0,L|104:64,1,100
216,136,5469,2,0,L|328:136,1,100
104,184,5742,5,2,0:0:0:0:
304,96,6014,1,0,0:0:0:0:
104,248,6287,2,0,L|104:352,1,100
304,160,6560,1,2,0:0:0:0:
160,176,6833,6,0,L|104:176,1,50
280,96,6969,2,0,L|336:96,1,50
104,248,7105,2,0,P|40:216|104:168,1,150,2|0,0:0|0:0,0:0:0:0:
304,32,7378,6,0,P|376:96|304:136,1,200,4|0,0:2|0:0,0:0:0:0:
112,48,7923,1,0,0:0:0:0:
248,56,8060,1,0,0:0:0:0:
40,48,8196,1,4,0:2:0:0:
360,128,8742,1,0,0:0:0:0:
104,176,9014,6,0,P|24:128|104:64,1,200,4|0,0:2|0:0,0:0:0:0:
280,48,9560,1,4,0:2:0:0:
144,224,9696,1,0,0:0:0:0:
352,120,9833,6,0,L|424:120,1,50,4|0,0:2|0:0,0:0:0:0:
184,112,9969,2,0,L|128:112,1,50
360,192,10105,5,0,0:0:0:0:
384,194,10139,1,0,0:0:0:0:
405,182,10173,1,0,0:0:0:0:
415,160,10207,1,0,0:0:0:0:
410,136,10241,1,0,0:0:0:0:
392,119,10275,1,0,0:0:0:0:
367,117,10309,1,0,0:0:0:0:
176,128,10378,5,0,0:0:0:0:
151,130,10412,1,0,0:0:0:0:
130,118,10446,1,0,0:0:0:0:
120,96,10480,1,0,0:0:0:0:
125,72,10514,1,0,0:0:0:0:
143,55,10548,1,0,0:0:0:0:
168,53,10582,1,0,0:0:0:0:
368,48,10651,6,0,L|296:48,1,50,6|0,0:0|0:0,0:0:0:0:
120,184,10787,2,0,L|48:184,1,50
272,216,10923,1,2,0:0:0:0:
328,216,10992,1,0,0:0:0:0:
272,216,11060,1,0,0:0:0:0:
216,216,11128,1,0,0:0:0:0:
384,112,11196,1,8,0:3:0:0:
440,152,11264,1,0,0:0:0:0:
440,216,11333,1,0,0:0:0:0:
384,248,11401,1,0,0:0:0:0:
184,80,11469,6,0,L|272:80,1,50,2|0,0:0|0:0,0:0:0:0:
408,40,11605,2,0,L|480:40,1,50
264,152,11742,1,2,0:0:0:0:
208,152,11810,1,0,0:0:0:0:
264,152,11878,1,0,0:0:0:0:
320,152,11946,1,0,0:0:0:0:
128,176,12014,2,0,L|80:176,2,25,2|0|0,0:0|0:0|0:0,0:0:0:0:
328,80,12151,2,0,L|400:80,1,50,10|0,0:0|0:0,0:0:0:0:
160,280,12287,6,0,P|88:224|160:168,1,200,10|0,0:0|0:0,0:0:0:0:
256,168,12696,1,0,0:0:0:0:
464,168,12833,2,0,L|464:64,1,100,2|2,0:0|0:0,0:0:0:0:
328,120,13104,5,0,1:0:0:0:
464,232,13242,1,0,0:0:0:0:
216,144,13378,2,0,L|166:144,1,50
392,152,13514,2,0,L|456:152,1,50
232,272,13651,5,2,0:0:0:0:
207,266,13685,1,0,0:0:0:0:
189,250,13719,1,2,0:0:0:0:
181,227,13753,1,0,0:0:0:0:
186,202,13787,1,2,0:0:0:0:
202,184,13821,1,0,0:0:0:0:
225,176,13855,1,2,0:0:0:0:
392,88,13923,6,0,L|392:200,1,100,10|0,0:0|0:0,0:0:0:0:
256,80,14196,2,0,L|368:80,1,100,10|0,0:0|0:0,0:0:0:0:
144,304,14469,2,0,L|144:200,1,100,10|0,0:0|0:0,0:0:0:0:
352,144,14741,6,0,L|464:144,1,100,10|0,0:0|0:0,0:0:0:0:
248,56,15014,2,0,L|368:56,1,100,10|0,0:0|0:0,0:0:0:0:
128,168,15287,2,0,L|128:64,1,100,10|0,0:0|0:0,0:0:0:0:
336,272,15559,6,0,L|336:168,1,100,10|0,0:0|0:0,0:0:0:0:
200,176,15833,2,0,L|200:64,1,100,10|0,0:0|0:0,0:0:0:0:
408,120,16105,2,0,L|512:120,1,100,10|0,0:0|0:0,0:0:0:0:
308,288,16378,5,10,0:0:0:0:
296,288,16395,2,0,L|296:192,1,87.5
80,168,16651,2,0,L|80:64,1,100,10|0,0:0|0:0,0:0:0:0:
296,64,16923,2,0,L|408:64,1,100,10|0,0:0|0:0,0:0:0:0:
192,272,17196,6,0,L|192:160,1,100,10|0,0:0|0:0,0:0:0:0:
328,168,17469,2,0,L|328:56,1,100,10|0,0:0|0:0,0:0:0:0:
120,120,17742,2,0,L|240:120,1,100,10|0,0:0|0:0,0:0:0:0:
16,184,18014,6,0,L|16:72,1,100,10|0,0:0|0:0,0:0:0:0:
224,288,18287,2,0,L|352:288,1,100,10|0,0:0|0:0,0:0:0:0:
112,184,18560,2,0,L|112:72,1,100,10|0,0:0|0:0,0:0:0:0:
320,184,18832,6,0,L|320:64,1,100,10|0,0:0|0:0,0:0:0:0:
184,48,19105,2,0,L|184:160,1,100,10|0,0:0|0:0,0:0:0:0:
384,280,19378,2,0,L|272:280,1,100,10|0,0:0|0:0,0:0:0:0:
482,194,19651,5,10,0:0:0:0:
496,192,19668,2,0,L|496:96,1,87.5
288,80,19923,2,0,L|392:80,1,100,10|0,0:0|0:0,0:0:0:0:
184,232,20196,1,8,0:0:0:0:
288,152,20333,2,0,L|368:152,1,50,8|8,0:0|0:0,0:0:0:0:
136,176,20469,6,0,L|136:64,1,100,14|0,0:2|0:0,0:0:0:0:
272,32,20742,2,0,L|272:136,1,100,10|0,0:0|0:0,0:0:0:0:
64,280,21014,2,0,L|64:160,1,100,10|0,0:0|0:0,0:0:0:0:
272,184,21287,6,0,L|160:184,1,100,10|0,0:0|0:0,0:0:0:0:
384,168,21560,2,0,L|384:64,1,100,10|0,0:0|0:0,0:0:0:0:
168,88,21833,1,8,0:0:0:0:
272,120,21969,2,0,L|344:120,1,50,8|8,0:0|0:0,0:0:0:0:
112,176,22105,6,0,L|0:176,1,100,14|0,0:0|0:0,0:0:0:0:
224,264,22378,2,0,L|224:160,1,100,10|0,0:0|0:0,0:0:0:0:
432,104,22651,2,0,L|432:-8,1,100,10|0,0:0|0:0,0:0:0:0:
237,74,22923,5,10,0:0:0:0:
224,72,22940,1,0,0:0:0:0:
328,72,23060,2,0,L|400:72,1,50
168,264,23196,5,0,0:0:0:0:
143,259,23230,1,0,0:0:0:0:
123,245,23264,1,0,0:0:0:0:
113,222,23298,1,0,0:0:0:0:
113,198,23332,1,0,0:0:0:0:
125,176,23366,1,0,0:0:0:0:
146,162,23400,1,0,0:0:0:0:
352,240,23469,5,0,0:0:0:0:
376,235,23503,1,0,0:0:0:0:
396,221,23537,1,0,0:0:0:0:
406,198,23571,1,0,0:0:0:0:
406,174,23605,1,0,0:0:0:0:
394,152,23639,1,0,0:0:0:0:
373,138,23673,1,0,0:0:0:0:
152,112,23742,6,0,L|152:8,1,100,4|0,0:0|0:0,0:0:0:0:
288,120,24014,2,0,L|288:224,1,100
80,88,24287,1,8,0:0:0:0:
184,80,24423,2,0,L|248:80,1,50
24,184,24560,6,0,L|24:80,1,100,4|0,0:0|0:0,0:0:0:0:
160,144,24832,2,0,L|272:144,1,100
136,216,25105,1,8,0:0:0:0:
272,56,25242,2,0,L|360:56,1,50
168,152,25378,6,0,L|88:152,2,66.6666666666667,4|0|0,0:0|0:0|0:0,0:0:0:0:
256,160,25651,2,0,L|344:160,2,66.6666666666667
104,64,25923,2,0,L|16:64,2,66.6666666666667
344,168,26196,6,0,L|448:168,1,100,4|0,0:0|0:0,0:0:0:0:
376,96,26401,1,0,0:0:0:0:
320,96,26469,1,0,0:0:0:0:
376,96,26537,1,0,0:0:0:0:
432,96,26605,1,0,0:0:0:0:
208,112,26742,2,0,L|88:112,1,100
352,160,27014,6,0,P|424:104|352:48,1,200,6|0,0:1|0:0,0:0:0:0:
198,138,27560,1,0,0:0:0:0:
78,66,27696,1,0,0:0:0:0:
134,66,27764,1,0,0:0:0:0:
190,66,27833,1,2,0:0:0:0:
352,64,28105,5,0,0:0:0:0:
180,106,28378,1,0,0:0:0:0:
352,64,28651,2,0,L|144:64,2,200,2|0|0,0:0|0:0|0:0,0:0:0:0:
180,190,29469,2,0,P|108:126|180:86,1,200,2|0,0:0|0:0,0:0:0:0:
336,96,30014,6,0,L|224:96,1,100
350,91,30287,2,0,P|422:155|350:187,1,200,2|0,0:0|0:0,0:0:0:0:
232,112,30832,1,0,0:0:0:0:
88,200,31105,6,0,P|16:160|88:104,1,200,2|0,0:0|0:0,0:0:0:0:
256,128,31651,1,0,0:0:0:0:
421,143,31923,2,0,P|493:103|421:47,1,200,2|0,0:0|0:0,0:0:0:0:
272,176,32469,5,0,0:0:0:0:
112,96,32742,2,0,L|352:96,1,200,2|0,0:0|0:0,0:0:0:0:
192,168,33287,1,0,0:0:0:0:
72,192,33560,5,2,0:0:0:0:
280,192,33833,5,0,3:0:0:0:
298,168,33867,1,0,0:0:0:0:
302,137,33901,1,0,3:0:0:0:
291,109,33935,1,0,0:0:0:0:
266,91,33969,1,0,3:0:0:0:
208,72,34051,1,0,0:0:0:0:
168,40,34105,2,0,L|104:40,2,57.1428571428571,0|0|0,3:0|0:0|0:0,3:0:0:0:
344,168,34378,5,2,0:0:0:0:
161,255,34651,1,0,0:0:0:0:
49,223,34787,1,0,0:0:0:0:
161,215,34923,1,0,0:0:0:0:
273,183,35059,1,0,0:0:0:0:
49,175,35196,1,2,0:0:0:0:
256,272,35469,6,0,L|256:232,7,25
256,272,35742,2,0,L|256:208,3,50
200,40,36014,5,2,0:0:0:0:
416,184,36287,5,0,3:0:0:0:
440,183,36321,1,0,3:0:0:0:
461,169,36355,1,0,3:0:0:0:
471,147,36389,1,0,3:0:0:0:
468,122,36423,1,0,3:0:0:0:
453,103,36457,1,0,3:0:0:0:
429,94,36491,1,0,3:0:0:0:
240,192,36560,5,0,3:0:0:0:
215,191,36594,1,0,3:0:0:0:
194,177,36628,1,0,3:0:0:0:
184,155,36662,1,0,3:0:0:0:
187,130,36696,1,0,3:0:0:0:
202,111,36730,1,0,3:0:0:0:
226,102,36764,1,0,3:0:0:0:
432,96,36833,6,0,L|432:208,1,100,6|0,0:0|0:0,0:0:0:0:
296,88,37105,2,0,L|400:88,1,100,8|0,0:0|0:0,0:0:0:0:
176,256,37378,2,0,L|344:256,1,150,8|8,0:0|0:0,0:0:0:0:
136,168,37651,6,0,L|24:168,1,100,10|0,0:0|0:0,0:0:0:0:
256,96,37923,1,8,0:0:0:0:
144,96,38060,1,8,0:0:0:0:
256,32,38196,1,8,0:0:0:0:
56,24,38333,2,0,L|0:24,1,50,8|8,0:0|0:0,0:0:0:0:
200,96,38469,5,10,0:0:0:0:
312,96,38605,1,8,0:0:0:0:
200,168,38742,1,10,0:0:0:0:
416,192,38878,5,8,0:0:0:0:
312,168,39014,1,10,0:0:0:0:
416,120,39151,1,8,0:0:0:0:
208,232,39287,6,0,L|120:232,1,50,14|0,0:0|0:0,0:0:0:0:
368,160,39423,2,0,L|440:160,1,50
208,184,39560,5,0,0:0:0:0:
184,183,39594,1,0,0:0:0:0:
163,169,39628,1,0,0:0:0:0:
153,147,39662,1,0,0:0:0:0:
156,122,39696,1,0,0:0:0:0:
171,103,39730,1,0,0:0:0:0:
195,94,39764,1,0,0:0:0:0:
400,200,39833,5,0,0:0:0:0:
424,199,39867,1,0,0:0:0:0:
445,185,39901,1,0,0:0:0:0:
455,163,39935,1,0,0:0:0:0:
452,138,39969,1,0,0:0:0:0:
437,119,40003,1,0,0:0:0:0:
413,110,40037,1,0,0:0:0:0:
192,256,40105,6,0,P|120:208|192:144,1,200,4|2,0:0|0:0,0:0:0:0:
288,144,40514,1,8,0:0:0:0:
88,88,40651,1,2,1:2:0:0:
192,64,40787,1,0,0:0:0:0:
240,64,40855,1,0,0:0:0:0:
88,88,40923,5,10,0:0:0:0:
288,112,41060,2,0,P|360:160|280:208,1,200,8|8,0:0|0:0,0:0:0:0:
240,216,41401,1,8,0:0:0:0:
64,136,41469,2,0,L|64:24,1,100,2|0,1:2|0:0,0:0:0:0:
264,192,41742,6,0,L|64:192,1,200,10|2,0:0|0:0,0:0:0:0:
304,104,42151,1,8,0:0:0:0:
64,256,42287,2,0,L|64:136,1,100,2|0,1:2|0:0,0:0:0:0:
288,144,42560,6,0,L|288:32,1,100,10|8,0:0|0:0,0:0:0:0:
160,32,42833,1,0,0:0:0:0:
384,160,42969,2,0,L|328:160,1,50,8|8,0:0|0:0,0:0:0:0:
176,72,43105,1,0,1:0:0:0:
384,88,43242,1,0,0:0:0:0:
160,200,43378,6,0,P|88:152|168:96,1,200,6|0,0:0|0:0,0:0:0:0:
240,88,43787,1,8,0:0:0:0:
456,72,43923,2,0,L|456:176,1,100,0|0,1:0|0:0,0:0:0:0:
240,128,44196,5,14,0:0:0:0:
456,136,44333,2,0,L|456:248,1,100,8|0,0:0|0:0,0:0:0:0:
240,208,44605,2,0,L|296:208,1,50,8|8,0:0|0:0,0:0:0:0:
448,152,44742,2,0,L|448:48,1,100,0|0,1:0|0:0,0:0:0:0:
224,176,45014,6,0,P|160:120|240:80,1,200,6|0,0:0|0:0,0:0:0:0:
352,64,45422,1,8,0:0:0:0:
152,64,45560,2,0,L|152:176,1,100,0|0,1:0|0:0,0:0:0:0:
392,192,45833,6,0,L|496:192,2,100,14|8|0,0:0|0:0|0:0,0:0:0:0:
192,136,46242,2,0,L|128:136,1,50,0|8,0:0|0:0,0:0:0:0:
360,192,46378,2,0,L|304:192,1,50,0|0,1:0|1:0,0:0:0:0:
160,200,46514,2,0,L|88:200,1,50,0|0,1:0|1:0,0:0:0:0:
360,80,46651,6,0,P|432:128|360:192,1,200,14|2,0:0|0:0,0:0:0:0:
272,72,47060,1,8,0:0:0:0:
48,176,47196,2,0,L|48:40,1,100,2|0,1:2|0:0,0:0:0:0:
272,112,47469,6,0,L|272:232,1,100,10|8,0:0|0:0,0:0:0:0:
128,40,47742,1,2,0:0:0:0:
352,208,47878,2,0,L|416:208,1,50,8|8,0:0|0:0,0:0:0:0:
240,160,48014,2,0,L|112:160,1,100,2|0,1:2|0:0,0:0:0:0:
368,136,48287,6,0,P|440:80|368:32,1,200,14|2,0:0|0:0,0:0:0:0:
272,24,48696,1,8,0:0:0:0:
56,232,48833,1,0,1:0:0:0:
184,224,48969,1,0,0:0:0:0:
392,216,49105,6,0,L|392:104,1,100,14|8,0:0|0:0,0:0:0:0:
184,72,49378,1,14,0:0:0:0:
72,88,49514,2,0,L|136:88,1,50,8|8,0:0|0:0,0:0:0:0:
296,136,49651,2,0,L|424:136,1,100,6|8,1:2|0:0,0:0:0:0:
176,192,49923,6,0,L|80:192,2,66.6666666666667,14|0|0,0:0|0:0|0:0,0:0:0:0:
360,160,50196,1,2,0:0:0:0:
280,128,50287,1,0,0:0:0:0:
200,96,50378,1,0,0:0:0:0:
376,56,50469,2,0,L|448:56,2,66.6666666666667,2|0|0,0:0|0:0|0:0,0:0:0:0:
192,192,50741,5,10,0:0:0:0:
272,160,50832,1,0,0:0:0:0:
352,128,50922,1,0,0:0:0:0:
192,264,51014,2,0,L|144:272,2,25,2|0|0,0:0|0:0|0:0,0:0:0:0:
352,208,51151,2,0,L|408:208,1,50
192,128,51287,5,2,0:0:0:0:
167,128,51321,1,0,0:0:0:0:
146,115,51355,1,0,0:0:0:0:
136,93,51389,1,0,0:0:0:0:
140,69,51423,1,0,0:0:0:0:
157,51,51457,1,0,0:0:0:0:
181,46,51491,1,0,0:0:0:0:
352,144,51560,5,12,0:0:0:0:
160,152,52378,5,0,0:0:0:0:
360,152,52651,2,0,L|448:152,2,66.6666666666667,2|2|2,0:0|0:0|0:0,0:0:0:0:
184,72,52923,2,0,L|96:72,2,66.6666666666667,2|2|2,0:0|0:0|0:0,0:0:0:0:
360,216,53196,6,0,L|360:328,1,100,14|0,0:0|0:0,0:0:0:0:
224,176,53469,2,0,L|224:64,1,100,8|0,0:0|0:0,0:0:0:0:
432,176,53742,2,0,L|432:64,1,100,0|0,1:0|0:0,0:0:0:0:
296,48,54014,6,0,L|408:48,1,100,8|0,0:0|0:0,0:0:0:0:
192,192,54287,2,0,L|312:192,1,100,8|8,0:0|0:0,0:0:0:0:
88,312,54560,2,0,L|88:176,1,100,2|0,1:2|0:0,0:0:0:0:
224,160,54833,6,0,L|224:48,1,100,10|0,0:0|0:0,0:0:0:0:
88,192,55105,2,0,L|24:192,2,50,10|2|2,0:0|0:0|0:0,0:0:0:0:
288,192,55378,2,0,L|400:192,1,100,0|0,1:0|0:0,0:0:0:0:
256,152,55651,6,0,L|152:152,1,100,10|0,0:0|0:0,0:0:0:0:
360,80,55923,2,0,L|224:80,1,100,8|8,0:0|0:0,0:0:0:0:
464,80,56196,2,0,L|464:184,1,100,0|0,1:0|0:0,0:0:0:0:
256,176,56469,6,0,L|128:176,1,100,10|0,0:0|0:0,0:0:0:0:
368,88,56742,2,0,L|256:88,1,100,8|0,0:0|0:0,0:0:0:0:
472,136,57014,2,0,L|472:240,1,100,0|0,1:0|0:0,0:0:0:0:
336,152,57287,6,0,L|464:152,1,100,8|0,0:0|0:0,0:0:0:0:
232,264,57560,2,0,L|376:264,1,100,8|8,0:0|0:0,0:0:0:0:
112,248,57833,2,0,L|112:136,1,100,2|0,1:2|0:0,0:0:0:0:
248,120,58105,6,0,L|368:120,1,100,10|0,0:0|0:0,0:0:0:0:
208,40,58378,2,0,L|144:40,2,50,10|2|2,0:0|0:0|0:0,0:0:0:0:
408,272,58651,2,0,L|512:272,1,100,2|0,1:2|0:0,0:0:0:0:
304,168,58923,6,0,L|416:168,1,100,10|8,0:0|0:0,0:0:0:0:
200,168,59196,2,0,L|200:64,1,100,0|0,1:0|0:0,0:0:0:0:
64,160,59469,2,0,L|64:280,1,100,0|0,1:0|0:0,0:0:0:0:
272,104,59742,6,0,L|392:104,1,100,14|0,0:0|0:0,0:0:0:0:
240,272,60014,2,0,L|240:160,1,100,8|0,0:0|0:0,0:0:0:0:
40,144,60287,2,0,L|40:264,1,100,0|0,1:0|0:0,0:0:0:0:
176,112,60560,6,0,L|56:112,1,100,8|0,0:0|0:0,0:0:0:0:
280,184,60833,2,0,L|176:184,1,100,8|8,0:0|0:0,0:0:0:0:
384,272,61105,2,0,L|384:168,1,100,2|0,1:2|0:0,0:0:0:0:
248,112,61378,6,0,L|248:224,1,100,10|0,0:0|0:0,0:0:0:0:
384,336,61651,2,0,L|440:336,2,50,10|2|2,0:0|0:0|0:0,0:0:0:0:
176,184,61923,2,0,L|176:72,1,100,2|0,1:2|0:0,0:0:0:0:
312,40,62196,6,0,L|312:152,1,100,10|0,0:0|0:0,0:0:0:0:
112,256,62469,2,0,L|248:256,1,100,8|8,0:0|0:0,0:0:0:0:
16,280,62742,2,0,L|16:176,1,100,0|0,1:0|0:0,0:0:0:0:
224,144,63014,6,0,L|328:144,1,100,10|0,0:0|0:0,0:0:0:0:
120,288,63287,2,0,L|120:184,1,100,8|0,0:0|0:0,0:0:0:0:
328,184,63560,2,0,L|432:184,1,100,0|0,1:0|0:0,0:0:0:0:
296,320,63833,6,0,L|416:320,1,100,8|0,0:0|0:0,0:0:0:0:
176,208,64105,2,0,L|72:208,1,100,8|8,0:0|0:0,0:0:0:0:
296,96,64378,2,0,L|176:96,1,100,2|0,1:2|0:0,0:0:0:0:
336,200,64651,6,0,L|440:200,1,100,10|0,0:0|0:0,0:0:0:0:
232,48,64923,2,0,L|168:48,2,50,10|2|2,0:0|0:0|0:0,0:0:0:0:
440,264,65196,2,0,L|440:160,1,100,2|0,1:2|0:0,0:0:0:0:
232,112,65469,6,0,L|448:112,2,200,8|8|8,0:0|0:0|0:0,0:0:0:0:
377,259,66287,6,0,L|376:160,1,100,6|0,1:2|0:0,0:0:0:0:
264,136,66560,2,0,L|162:136,2,100,2|0|0,0:0|0:0|0:0,0:0:0:0:
377,175,66969,1,0,0:0:0:0:
262,83,67105,6,0,L|264:184,1,100,2|0,0:0|0:0,0:0:0:0:
147,90,67378,2,0,L|144:192,1,100,2|0,0:0|0:0,0:0:0:0:
262,205,67651,2,0,L|264:312,1,100,2|0,0:0|0:0,0:0:0:0:
56,192,67923,6,0,L|58:88,1,100,8|0,0:0|0:0,0:0:0:0:
184,96,68196,2,0,L|287:94,1,100,2|0,0:0|0:0,0:0:0:0:
168,152,68469,2,0,L|64:152,1,100
296,259,68742,6,0,L|408:264,1,100,2|0,0:0|0:0,0:0:0:0:
269,158,69014,1,8,0:0:0:0:
384,151,69151,2,0,L|411:151,2,25,8|0|0,0:0|0:0|0:0,0:0:0:0:
248,104,69287,2,0,L|147:105,1,100,8|8,0:0|0:0,0:0:0:0:
207,50,69492,1,0,0:0:0:0:
384,90,69560,6,0,L|488:96,1,100,10|0,0:0|0:0,0:0:0:0:
350,178,69833,2,0,L|249:178,1,100,2|0,0:0|0:0,0:0:0:0:
368,232,70105,2,0,L|473:231,1,100
262,232,70378,6,0,L|264:128,1,100,10|0,0:0|0:0,0:0:0:0:
147,117,70651,2,0,L|152:256,1,100
256,90,70923,2,0,L|360:96,1,100
144,232,71196,6,0,L|33:232,1,100,10|0,0:0|0:0,0:0:0:0:
176,176,71469,1,2,0:0:0:0:
48,152,71605,1,2,0:0:0:0:
112,136,71673,1,0,0:0:0:0:
176,112,71742,1,0,0:0:0:0:
49,97,71878,1,8,0:0:0:0:
248,96,72014,6,0,L|350:95,1,100,10|0,0:0|0:0,0:0:0:0:
215,178,72287,2,0,L|215:280,1,100,10|2,0:0|0:0,0:0:0:0:
100,171,72560,2,0,L|96:72,1,100,10|0,0:0|0:0,0:0:0:0:
296,240,72833,6,0,L|408:240,1,100,14|0,0:0|0:0,0:0:0:0:
168,80,73105,2,0,L|64:80,1,100,10|0,0:0|0:0,0:0:0:0:
288,88,73378,2,0,L|184:88,1,100,10|0,0:0|0:0,0:0:0:0:
392,176,73651,6,0,L|496:176,1,100,14|0,0:0|0:0,0:0:0:0:
280,144,73923,2,0,L|168:144,1,100,10|8,0:0|0:0,0:0:0:0:
384,288,74196,2,0,L|384:160,1,100,10|8,0:0|0:0,0:0:0:0:
176,160,74469,6,0,L|56:160,1,100,14|0,0:0|0:0,0:0:0:0:
280,64,74742,2,0,L|400:64,1,100,10|0,0:0|0:0,0:0:0:0:
280,128,75014,2,0,L|168:128,1,100,10|0,0:0|0:0,0:0:0:0:
384,224,75287,6,0,L|384:112,1,100,14|0,0:0|0:0,0:0:0:0:
320,224,75492,1,8,0:0:0:0:
144,160,75560,2,0,L|32:160,1,100,10|8,0:0|0:0,0:0:0:0:
256,96,75833,2,0,L|320:96,1,50,10|8,0:0|0:0,0:0:0:0:
104,48,75969,2,0,L|56:48,2,25,8|0|0,0:0|0:0|0:0,0:0:0:0:
256,160,76105,6,0,L|256:96,1,50,8|0,1:2|0:0,0:0:0:0:
192,80,76242,2,0,L|120:80,1,50
344,184,76378,2,0,L|408:184,1,50
192,120,76514,2,0,L|128:120,1,50
320,240,76651,2,0,L|320:168,1,50,8|0,0:3|0:0,0:0:0:0:
248,176,76787,2,0,L|248:112,1,50
400,88,76923,6,0,L|450:88,1,50,2|0,0:2|0:0,0:0:0:0:
208,56,77060,2,0,L|144:56,1,50
360,208,77196,1,10,0:0:0:0:
416,176,77264,1,0,0:0:0:0:
416,120,77333,1,0,0:0:0:0:
360,160,77401,1,0,0:0:0:0:
192,176,77469,1,0,0:0:0:0:
167,178,77503,1,0,0:0:0:0:
146,166,77537,1,0,0:0:0:0:
136,144,77571,1,0,0:0:0:0:
141,120,77605,1,0,0:0:0:0:
159,103,77639,1,0,0:0:0:0:
184,101,77673,1,0,0:0:0:0:
360,256,77742,6,0,L|360:200,1,50
296,200,77878,2,0,L|232:200,1,50
184,200,78014,2,0,L|184:128,1,50,2|0,0:0|0:0,0:0:0:0:
360,256,78151,2,0,L|416:256,1,50,2|0,0:0|0:0,0:0:0:0:
208,320,78287,2,0,L|152:320,1,50,2|0,0:0|0:0,0:0:0:0:
360,208,78423,2,0,L|424:208,1,50,2|0,0:0|0:0,0:0:0:0:
208,160,78560,6,0,P|160:112|208:64,1,150,10|0,0:0|0:0,0:0:0:0:
264,64,78833,2,0,L|384:64,1,100
160,120,79105,2,0,L|88:120,1,50,2|0,0:0|0:0,0:0:0:0:
304,96,79242,2,0,L|360:96,1,50,2|0,0:0|0:0,0:0:0:0:
152,232,79378,6,0,P|80:176|152:120,1,200,4|0,0:1|0:0,0:0:0:0:
320,184,79923,1,0,0:0:0:0:
424,96,80060,1,0,0:0:0:0:
368,88,80128,1,0,0:0:0:0:
312,80,80196,1,2,0:0:0:0:
144,160,80469,6,0,L|352:160,1,200
176,96,81014,2,0,L|384:96,2,200,2|0|0,0:0|0:0|0:0,0:0:0:0:
344,224,81833,2,0,P|416:160|344:112,1,200,2|0,0:0|0:0,0:0:0:0:
248,144,82378,6,0,L|360:144,1,100,2|0,0:0|0:0,0:0:0:0:
224,232,82651,2,0,P|152:184|224:128,1,200,2|2,0:0|0:0,0:0:0:0:
352,184,83196,1,0,0:0:0:0:
488,104,83469,2,0,L|288:104,1,200,2|2,0:0|0:0,0:0:0:0:
160,200,84014,5,0,0:0:0:0:
24,152,84287,2,0,L|232:152,1,200,2|2,0:0|0:0,0:0:0:0:
320,184,84833,1,0,0:0:0:0:
424,48,85106,6,0,P|496:112|424:168,1,200,2|2,0:0|0:0,0:0:0:0:
280,184,85651,1,0,0:0:0:0:
128,80,85923,6,0,L|352:80,2,200,2|0|0,0:0|0:0|0:0,0:0:0:0:
296,184,86742,2,0,P|368:128|296:72,1,200,2|0,0:0|0:0,0:0:0:0:
136,56,87287,1,0,0:0:0:0:
296,184,87560,6,0,L|80:184,2,200,2|0|0,0:0|0:0|0:0,0:0:0:0:
88,120,88378,2,0,L|288:120,1,200,2|0,0:0|0:0,0:0:0:0:
80,56,88923,2,0,L|80:160,1,100
296,312,89196,6,0,L|416:312,1,100,14|0,0:0|0:0,0:0:0:0:
264,176,89469,2,0,L|264:288,1,100,2|0,0:0|0:0,0:0:0:0:
392,120,89742,2,0,L|496:120,1,100,2|0,0:0|0:0,0:0:0:0:
256,192,90014,6,0,L|144:192,1,100,2|0,0:0|0:0,0:0:0:0:
280,136,90287,2,0,L|176:136,1,100,2|0,0:0|0:0,0:0:0:0:
408,64,90560,2,0,L|448:64,2,25,2|0|0,0:0|0:0|0:0,0:0:0:0:
200,96,90696,2,0,L|112:96,1,50,8|8,0:0|0:0,0:0:0:0:
336,168,90833,6,0,L|448:168,1,100,10|0,0:0|0:0,0:0:0:0:
224,160,91105,2,0,L|112:160,1,100,10|8,0:0|0:0,0:0:0:0:
328,256,91378,2,0,L|240:256,1,50,10|8,0:0|0:0,0:0:0:0:
136,256,91514,2,0,L|80:256,1,50,8|8,0:0|0:0,0:0:0:0:
256,96,91651,6,0,L|352:96,1,50,10|0,0:0|0:0,0:0:0:0:
120,184,91787,2,0,L|70:184,1,50
312,191,91924,1,0,0:0:0:0:
335,183,91958,1,0,0:0:0:0:
351,165,91992,1,0,0:0:0:0:
356,140,92026,1,0,0:0:0:0:
348,117,92060,1,0,0:0:0:0:
330,101,92094,1,0,0:0:0:0:
306,96,92128,1,0,0:0:0:0:
120,184,92196,2,0,L|16:184,1,100,10|2,0:0|0:0,0:0:0:0:
280,256,92469,6,0,P|352:208|280:144,1,200,14|2,0:0|0:0,0:0:0:0:
184,144,92878,1,8,0:0:0:0:
392,88,93014,1,0,1:0:0:0:
256,96,93151,6,0,L|256:160,2,50,2|2|10,0:0|0:0|0:0,0:0:0:0:
464,48,93423,1,8,0:0:0:0:
256,208,93560,2,0,L|144:208,1,100,2|8,0:0|0:0,0:0:0:0:
208,152,93764,1,8,0:0:0:0:
392,188,93833,2,0,L|392:84,1,100,2|0,1:2|0:0,0:0:0:0:
256,80,94105,6,0,L|368:80,1,100,10|0,0:0|0:0,0:0:0:0:
152,264,94378,2,0,L|280:264,1,100,2|2,0:0|0:0,0:0:0:0:
48,192,94651,2,0,L|48:80,1,100,2|2,1:2|0:0,0:0:0:0:
112,192,94855,1,2,0:0:0:0:
304,176,94923,6,0,L|408:176,1,100,8|8,0:0|0:0,0:0:0:0:
192,88,95196,2,0,L|56:88,1,100,2|8,0:0|0:0,0:0:0:0:
144,24,95401,1,8,0:0:0:0:
312,240,95469,2,0,L|200:240,1,100,2|2,1:2|0:0,0:0:0:0:
424,184,95742,6,6,P|496:128|424:72,1,200,6|2,0:0|0:0,0:0:0:0:
224,80,96151,1,8,0:0:0:0:
432,48,96287,1,0,1:0:0:0:
432,104,96560,5,14,0:0:0:0:
224,128,96696,1,8,0:0:0:0:
320,120,96833,1,2,0:0:0:0:
208,184,96969,2,0,L|258:184,1,50,8|8,0:0|0:0,0:0:0:0:
416,168,97105,1,0,1:0:0:0:
208,168,97378,6,0,L|408:168,1,200,14|2,0:0|0:0,0:0:0:0:
288,120,97787,1,8,0:0:0:0:
488,104,97923,1,0,1:0:0:0:
280,136,98196,6,0,L|480:136,1,200,14|2,0:0|0:0,0:0:0:0:
48,112,98742,2,0,L|128:112,1,50,0|0,1:0|1:0,0:0:0:0:
248,48,98878,2,0,L|304:48,1,50,0|0,1:0|1:0,0:0:0:0:
136,188,99014,6,0,P|64:140|136:76,1,200,14|2,0:0|0:0,0:0:0:0:
256,76,99423,2,0,L|328:76,1,50,8|8,0:0|0:0,0:0:0:0:
136,288,99560,2,0,L|136:176,1,100,2|0,1:2|0:0,0:0:0:0:
344,176,99833,6,0,L|344:72,1,100,10|8,0:0|0:0,0:0:0:0:
136,184,100105,2,0,L|24:184,1,100,2|8,0:0|0:0,0:0:0:0:
88,136,100310,1,8,0:0:0:0:
288,184,100378,2,0,L|288:72,1,100,2|0,1:2|0:0,0:0:0:0:
80,208,100651,6,0,L|80:312,1,100,14|0,0:0|0:0,0:0:0:0:
216,184,100923,2,0,L|112:184,1,100,2|8,0:0|0:0,0:0:0:0:
352,96,101196,2,0,L|240:96,1,100,2|2,1:2|0:0,0:0:0:0:
464,240,101469,6,0,L|360:240,1,100,14|8,0:0|0:0,0:0:0:0:
144,208,101742,2,0,L|16:208,1,100,2|8,0:0|0:0,0:0:0:0:
256,80,102014,2,0,L|360:80,1,100,2|0,1:2|0:0,0:0:0:0:
136,168,102287,6,0,L|40:168,2,66.6666666666667,14|0|0,0:0|0:0|0:0,0:0:0:0:
332,108,102560,1,2,0:0:0:0:
249,108,102651,1,0,0:0:0:0:
166,108,102742,1,0,0:0:0:0:
337,40,102833,2,0,L|409:40,2,66.6666666666667,2|0|0,0:0|0:0|0:0,0:0:0:0:
165,38,103105,1,10,0:0:0:0:
249,38,103196,1,0,0:0:0:0:
333,176,103287,1,0,0:0:0:0:
161,168,103378,6,0,L|121:168,2,25,2|0|0,0:0|0:0|0:0,0:0:0:0:
337,104,103514,2,0,L|393:104,1,50
161,168,103651,1,2,0:0:0:0:
129,161,103685,1,0,0:0:0:0:
104,144,103719,1,0,0:0:0:0:
92,115,103753,1,0,0:0:0:0:
92,85,103787,1,0,0:0:0:0:
107,58,103821,1,0,0:0:0:0:
133,40,103855,1,0,0:0:0:0:
337,40,103923,5,14,0:0:0:0:
224,184,105014,6,0,L|136:184,2,66.6666666666667,2|2|2,0:0|0:0|0:0,0:0:0:0:
408,56,105287,2,0,L|480:56,2,66.6666666666667,2|2|2,0:0|0:0|0:0,0:0:0:0:
227,120,105560,6,0,L|120:120,1,100,14|0,0:0|0:0,0:0:0:0:
256,270,105833,2,0,L|256:170,1,100
377,177,106105,2,0,L|477:177,1,100
377,113,106378,6,0,L|256:113,1,100
406,49,106651,2,0,L|406:149,1,100
208,160,106923,2,0,L|106:164,1,100,2|0,0:0|0:0,0:0:0:0:
306,270,107196,6,0,L|413:270,1,100,2|0,0:0|0:0,0:0:0:0:
270,120,107469,2,0,L|205:120,2,50,2|2|2,0:0|0:0|0:0,0:0:0:0:
473,184,107742,2,0,L|473:78,1,100,2|0,0:0|0:0,0:0:0:0:
356,173,108014,6,0,L|246:173,1,100,2|0,0:0|0:0,0:0:0:0:
384,63,108287,2,0,L|284:63,1,100
413,120,108560,1,0,0:0:0:0:
413,142,108594,1,0,0:0:0:0:
413,165,108628,1,0,0:0:0:0:
413,187,108662,1,0,0:0:0:0:
413,209,108696,1,0,0:0:0:0:
413,232,108730,1,0,0:0:0:0:
413,254,108764,1,0,0:0:0:0:
234,84,108833,6,0,L|127:84,1,100,2|0,0:0|0:0,0:0:0:0:
263,177,109105,2,0,L|160:178,1,100
263,234,109378,2,0,L|376:235,1,100
227,149,109651,6,0,L|225:40,1,100
348,56,109923,2,0,L|448:56,1,100
248,249,110196,2,0,L|127:249,1,100,2|0,0:0|0:0,0:0:0:0:
344,135,110469,6,0,L|347:242,1,100,2|0,0:0|0:0,0:0:0:0:
220,113,110742,2,0,L|170:113,2,50,2|2|2,0:0|0:0|0:0,0:0:0:0:
413,192,111014,2,0,L|413:84,1,100,2|0,0:0|0:0,0:0:0:0:
184,71,111287,6,0,L|84:71,1,100,2|0,0:0|0:0,0:0:0:0:
212,135,111560,2,0,L|318:135,1,100
70,192,111833,1,0,0:0:0:0:
70,169,111867,1,0,0:0:0:0:
70,147,111901,1,0,0:0:0:0:
70,125,111935,1,0,0:0:0:0:
70,102,111969,1,0,0:0:0:0:
70,80,112003,1,0,0:0:0:0:
70,58,112037,1,0,0:0:0:0:
256,304,112105,6,0,L|256:192,1,100,14|0,0:0|0:0,0:0:0:0:
120,184,112378,2,0,L|120:72,1,100
336,96,112651,2,0,L|448:96,1,100,0|0,1:0|0:0,0:0:0:0:
304,176,112923,6,0,L|304:64,1,100,8|0,0:0|0:0,0:0:0:0:
104,192,113196,2,0,L|104:80,1,100,8|0,0:0|0:0,0:0:0:0:
248,64,113469,2,0,L|128:64,1,100,2|0,1:2|0:0,0:0:0:0:
344,184,113742,6,0,L|344:64,1,100,10|0,0:0|0:0,0:0:0:0:
208,128,114014,2,0,L|136:128,2,50,10|2|2,0:0|0:0|0:0,0:0:0:0:
408,272,114287,2,0,L|512:272,1,100,2|0,1:2|0:0,0:0:0:0:
288,176,114560,6,0,L|176:176,1,100,10|0,0:0|0:0,0:0:0:0:
392,88,114833,2,0,L|272:88,1,100,8|8,0:0|0:0,0:0:0:0:
496,184,115105,2,0,L|496:80,1,100,0|0,1:0|0:0,0:0:0:0:
288,272,115378,6,0,L|288:160,1,100,10|0,0:0|0:0,0:0:0:0:
416,136,115651,2,0,L|416:248,1,100,8|0,0:0|0:0,0:0:0:0:
216,192,115923,2,0,L|216:80,1,100,0|0,1:2|0:0,0:0:0:0:
352,40,116196,6,0,L|464:40,1,100,8|0,0:0|0:0,0:0:0:0:
248,272,116469,2,0,L|368:272,1,100,8|8,0:0|0:0,0:0:0:0:
208,232,116742,2,0,L|208:128,1,100,2|0,1:2|0:0,0:0:0:0:
416,184,117014,6,0,L|416:64,1,100,10|0,0:0|0:0,0:0:0:0:
280,48,117287,1,10,0:0:0:0:
330,48,117355,1,2,0:0:0:0:
380,48,117423,1,2,0:0:0:0:
168,192,117560,2,0,L|168:72,1,100,2|0,1:2|0:0,0:0:0:0:
376,112,117833,5,8,0:0:0:0:
152,248,118105,1,8,0:0:0:0:
496,192,118378,1,10,0:0:0:0:
152,184,118651,6,0,L|152:80,1,100,6|0,1:2|0:0,0:0:0:0:
376,80,118923,2,0,L|488:80,1,100,2|0,0:0|0:0,0:0:0:0:
376,16,119196,2,0,L|264:16,1,100
480,240,119469,6,0,L|480:104,1,100,2|0,0:0|0:0,0:0:0:0:
344,160,119742,2,0,L|344:264,1,100,2|0,0:0|0:0,0:0:0:0:
208,168,120014,2,0,L|208:64,1,100,2|0,0:0|0:0,0:0:0:0:
440,320,120287,6,0,L|440:216,1,100,2|0,1:2|0:0,0:0:0:0:
232,272,120560,2,0,L|112:272,1,100,2|0,0:0|0:0,0:0:0:0:
232,336,120833,2,0,L|352:336,1,100
128,192,121105,6,0,L|128:88,1,100,2|0,0:0|0:0,0:0:0:0:
264,176,121378,1,8,0:0:0:0:
128,256,121514,2,0,L|80:256,2,25,8|0|8,0:0|0:0|0:0,0:0:0:0:
288,112,121651,2,0,L|352:112,1,50,8|0,0:0|0:0,0:0:0:0:
128,192,121787,2,0,L|64:192,1,50,8|0,0:0|0:0,0:0:0:0:
288,176,121923,6,0,L|400:176,1,100,2|0,1:2|0:0,0:0:0:0:
184,264,122196,2,0,L|72:264,1,100,2|0,0:0|0:0,0:0:0:0:
184,200,122469,2,0,L|288:200,1,100
72,296,122742,6,0,L|72:176,1,100,2|0,1:2|0:0,0:0:0:0:
208,128,123014,2,0,L|208:264,1,100,2|0,0:0|0:0,0:0:0:0:
344,112,123287,2,0,L|344:232,1,100,2|0,0:0|0:0,0:0:0:0:
144,56,123560,6,0,L|144:160,1,100,2|0,1:2|0:0,0:0:0:0:
280,144,123833,1,2,0:0:0:0:
176,144,123969,2,0,L|120:144,2,33.3333333333333
288,240,124105,2,0,L|408:240,1,100
176,296,124378,6,0,L|176:176,1,100,2|0,1:2|0:0,0:0:0:0:
384,80,124651,2,0,L|504:80,1,100,2|0,1:2|0:0,0:0:0:0:
280,48,124923,2,0,L|280:160,1,100,2|0,1:2|0:0,0:0:0:0:
488,264,125196,6,0,L|488:144,1,100,14|0,0:0|0:0,0:0:0:0:
280,96,125469,2,0,L|160:96,1,100,10|0,0:0|0:0,0:0:0:0:
284,160,125742,2,0,L|396:160,1,100,10|0,0:0|0:0,0:0:0:0:
184,280,126014,6,0,L|184:168,1,100,14|0,0:0|0:0,0:0:0:0:
424,80,126287,2,0,L|320:80,1,100,10|8,0:0|0:0,0:0:0:0:
456,96,126560,2,0,L|456:224,1,100,10|8,0:0|0:0,0:0:0:0:
240,80,126833,6,0,L|120:80,1,100,14|0,0:0|0:0,0:0:0:0:
344,296,127105,2,0,L|456:296,1,100,10|0,0:0|0:0,0:0:0:0:
344,232,127378,2,0,L|224:232,1,100,10|0,0:0|0:0,0:0:0:0:
448,176,127651,6,0,L|448:72,1,100,14|0,0:0|0:0,0:0:0:0:
248,64,127923,2,0,L|368:64,1,100,10|0,0:0|0:0,0:0:0:0:
144,184,128196,2,0,L|80:184,1,50,10|8,0:0|0:0,0:0:0:0:
296,128,128333,2,0,L|344:128,2,25
144,144,128469,5,10,0:0:0:0:
88,112,128537,1,0,0:0:0:0:
88,56,128605,1,0,0:0:0:0:
144,104,128673,1,0,0:0:0:0:
320,184,128742,2,0,L|392:184,1,50
200,96,128878,2,0,L|144:96,1,50
320,128,129014,2,0,L|352:128,2,25,8|0|0,0:3|0:0|0:0,0:0:0:0:
144,48,129151,2,0,L|88:48,1,50
272,64,129287,5,2,0:0:0:0:
328,64,129355,1,0,0:0:0:0:
272,64,129423,1,0,0:0:0:0:
216,64,129492,1,0,0:0:0:0:
408,280,129560,1,2,0:0:0:0:
464,256,129628,1,0,0:0:0:0:
464,200,129696,1,0,0:0:0:0:
408,232,129764,1,0,0:0:0:0:
224,200,129833,5,2,0:0:0:0:
199,199,129867,1,0,0:0:0:0:
178,185,129901,1,0,0:0:0:0:
168,163,129935,1,0,0:0:0:0:
171,138,129969,1,0,0:0:0:0:
186,119,130003,1,0,0:0:0:0:
210,110,130037,1,0,0:0:0:0:
384,136,130105,6,0,L|312:136,1,50
264,128,130242,2,0,L|264:64,1,50
432,48,130378,2,0,L|488:48,1,50,2|0,0:0|0:0,0:0:0:0:
304,32,130514,2,0,L|240:32,1,50,2|0,0:0|0:0,0:0:0:0:
440,192,130651,2,0,L|496:192,1,50,2|0,0:0|0:0,0:0:0:0:
272,184,130787,2,0,L|200:184,1,50,2|0,0:0|0:0,0:0:0:0:
440,144,130923,6,0,P|504:96|440:16,1,200,2|2,0:0|0:0,0:0:0:0:
384,16,131264,1,0,0:0:0:0:
200,272,131333,2,0,L|200:216,1,50
264,216,131469,2,0,L|264:152,1,50,2|0,0:0|0:0,0:0:0:0:
88,136,131605,2,0,L|152:136,1,50
336,160,131742,5,6,0:1:0:0:
152,88,132287,5,0,0:0:0:0:
312,96,132560,2,0,L|112:96,2,200,2|0|0,0:0|0:0|0:0,0:0:0:0:
96,176,133378,6,0,P|24:128|96:72,1,200,2|0,0:0|0:0,0:0:0:0:
264,208,133923,1,2,0:0:0:0:
136,120,134128,2,0,L|216:120,1,50,0|2,0:0|0:0,0:0:0:0:
448,184,134742,1,0,0:0:0:0:
280,208,135014,6,0,P|216:160|280:88,1,200,2|0,0:0|0:0,0:0:0:0:
440,152,135560,1,2,0:0:0:0:
264,224,135833,2,0,L|464:224,2,200,2|2|2,0:0|0:0|0:0,0:0:0:0:
408,288,136651,2,0,P|496:192|336:40,1,400,2|0,0:0|0:0,0:0:0:0:
144,120,137469,5,0,0:0:0:0:
344,128,137742,1,2,0:0:0:0:
144,184,138014,2,0,L|144:288,1,100,2|2,0:0|0:0,0:0:0:0:
376,192,138287,6,0,L|192:96,2,200,2|2|2,0:0|0:0|0:0,0:0:0:0:
192,176,139105,2,0,P|136:120|208:48,1,200,2|2,0:0|0:0,0:0:0:0:
368,112,139651,1,2,0:0:0:0:
192,96,139923,2,0,L|392:32,1,200,2|2,0:0|0:0,0:0:0:0:
208,160,140469,5,2,0:0:0:0:
376,144,140742,2,0,L|184:64,1,200,2|2,0:0|0:0,0:0:0:0:
360,104,141287,1,2,0:0:0:0:
136,232,141560,5,2,0:0:0:0:
360,96,142105,2,0,L|360:200,1,100,2|0,0:0|0:0,0:0:0:0:
224,104,142378,2,0,L|168:104,2,50,2|0|2,0:0|0:0|0:0,0:0:0:0:
432,104,142651,6,0,P|496:160|432:232,1,200,2|0,0:0|0:0,0:0:0:0:
224,168,143060,1,0,0:0:0:0:
432,48,143196,1,2,0:0:0:0:
176,176,144014,6,0,L|256:176,1,50
400,136,144151,2,0,L|472:136,1,50
240,72,144287,2,0,L|160:72,1,50
400,64,144423,2,0,L|480:64,1,50
192,128,144560,1,2,0:0:0:0:
158,142,144594,1,0,0:0:0:0:
136,170,144628,1,0,0:0:0:0:
128,205,144662,1,0,0:0:0:0:
138,240,144696,1,0,0:0:0:0:
162,266,144730,1,0,0:0:0:0:
196,279,144764,1,0,0:0:0:0:
400,200,144833,6,0,L|400:80,1,100,14|0,0:0|0:0,0:0:0:0:
264,176,145105,2,0,L|264:320,1,100,8|0,0:0|0:0,0:0:0:0:
472,272,145378,2,0,L|472:168,1,100,8|0,0:0|0:0,0:0:0:0:
336,104,145651,6,0,L|448:104,1,100,10|0,0:0|0:0,0:0:0:0:
384,48,145855,1,8,0:0:0:0:
200,104,145923,2,0,L|64:104,1,100,10|0,0:2|0:0,0:0:0:0:
240,168,146196,2,0,L|240:272,1,100,10|0,0:0|0:0,0:0:0:0:
440,176,146469,6,0,L|440:64,1,100,10|0,0:0|0:0,0:0:0:0:
304,56,146742,2,0,L|424:56,1,100,8|0,0:0|0:0,0:0:0:0:
200,272,147014,2,0,L|96:272,1,100,10|0,0:0|0:0,0:0:0:0:
152,216,147219,1,0,0:0:0:0:
352,168,147287,6,0,L|464:168,1,100,10|0,0:0|0:0,0:0:0:0:
320,304,147560,2,0,L|320:200,1,100,8|0,0:2|0:0,0:0:0:0:
112,112,147833,2,0,L|112:224,1,100,10|0,0:0|0:0,0:0:0:0:
320,96,148105,6,0,L|440:96,1,100,14|0,0:0|0:0,0:0:0:0:
280,248,148378,2,0,L|176:248,1,100,8|0,0:0|0:0,0:0:0:0:
400,240,148651,2,0,L|400:120,1,100,10|0,0:0|0:0,0:0:0:0:
288,136,148923,6,0,L|416:136,1,100,10|0,0:0|0:0,0:0:0:0:
336,80,149128,1,8,0:0:0:0:
128,184,149196,2,0,L|16:184,1,100,10|0,0:0|0:0,0:0:0:0:
232,120,149469,2,0,L|232:8,1,100,10|0,0:0|0:0,0:0:0:0:
432,248,149742,5,14,0:0:0:0:
232,184,149878,2,0,L|232:248,2,50
32,152,150151,1,14,0:0:0:0:
232,128,150287,2,0,L|232:64,2,50
432,168,150560,5,14,0:0:0:0:
232,192,150696,2,0,L|232:248,2,50
32,176,150969,1,14,0:0:0:0:
232,128,151105,2,0,L|232:56,2,50,2|0|2,0:0|0:0|0:0,0:0:0:0:
440,176,151378,6,0,L|440:72,1,100,8|8,0:0|0:0,0:0:0:0:
232,200,151651,2,0,L|128:200,1,100,14|0,0:0|0:0,0:0:0:0:
336,168,151923,2,0,L|336:56,1,100,2|0,0:0|0:0,0:0:0:0:
128,48,152196,6,0,L|128:160,1,100,10|0,0:0|0:0,0:0:0:0:
336,272,152469,2,0,L|440:272,1,100,10|0,0:0|0:0,0:0:0:0:
216,88,152742,2,0,L|320:88,1,100,10|0,0:0|0:0,0:0:0:0:
104,184,153014,6,0,L|104:72,1,100,14|0,0:0|0:0,0:0:0:0:
240,48,153287,2,0,L|352:48,1,100,10|0,0:0|0:0,0:0:0:0:
136,264,153560,2,0,L|136:144,1,100,10|0,0:0|0:0,0:0:0:0:
272,120,153833,6,0,L|160:120,1,100,14|0,0:0|0:0,0:0:0:0:
384,192,154105,2,0,L|384:80,1,100,10|0,0:0|0:0,0:0:0:0:
248,24,154378,2,0,L|352:24,1,100,14|0,0:0|0:0,0:0:0:0:
144,144,154651,5,14,0:0:0:0:
344,96,155196,5,2,0:0:0:0:
248,72,155333,1,2,0:0:0:0:
445,144,155469,2,0,L|495:145,2,50,10|0|0,0:0|0:0|0:0,0:0:0:0:
248,72,155742,1,10,0:0:0:0:
288,80,156151,1,2,0:0:0:0:
496,216,156287,5,8,0:0:0:0:
296,264,156423,2,0,L|296:152,1,100,8|8,0:0|0:0,0:0:0:0:
432,120,156696,2,0,L|432:232,1,100,8|8,0:0|0:0,0:0:0:0:
224,120,156969,1,8,0:0:0:0:
432,56,157105,6,0,L|368:56,1,50,8|0,0:0|0:0,0:0:0:0:
200,184,157242,2,0,L|120:184,1,50
344,112,157378,2,0,L|392:112,2,25
176,240,157514,2,0,L|120:240,1,50
344,184,157651,1,0,0:0:0:0:
368,179,157685,1,0,0:0:0:0:
388,165,157719,1,0,0:0:0:0:
398,142,157753,1,0,0:0:0:0:
398,118,157787,1,0,0:0:0:0:
386,96,157821,1,0,0:0:0:0:
365,82,157855,1,0,0:0:0:0:
176,192,157923,6,0,P|104:136|176:88,1,200,6|2,0:0|0:0,0:0:0:0:
336,48,158469,2,0,L|160:184,2,200,2|2|2,0:0|0:0|0:0,0:0:0:0:
168,152,159287,1,2,0:0:0:0:
328,184,159560,6,0,L|176:32,2,200,2|2|2,0:0|0:0|0:0,0:0:0:0:
168,168,160378,2,0,P|96:112|168:56,1,200,2|2,0:0|0:0,0:0:0:0:
352,160,160923,2,0,L|280:160,1,50,10|8,0:0|0:0,0:0:0:0:
136,184,161060,2,0,L|72:184,1,50,8|8,0:0|0:0,0:0:0:0:
320,216,161196,6,0,P|376:176|320:136,1,150
144,136,161469,2,0,P|72:96|144:56,1,200,6|2,0:0|0:0,0:0:0:0:
304,120,162014,6,0,L|136:240,2,200,2|2|2,0:0|0:0|0:0,0:0:0:0:
144,168,162833,2,0,P|72:104|144:56,1,200,2|2,0:0|0:0,0:0:0:0:
296,96,163378,1,2,0:0:0:0:
136,280,163651,6,0,L|136:176,1,100,10|0,0:0|0:0,0:0:0:0:
370,184,163923,2,0,L|368:80,1,100,10|0,0:0|0:0,0:0:0:0:
136,280,164196,2,0,L|86:280,1,50,10|8,0:0|0:0,0:0:0:0:
320,184,164333,2,0,L|408:184,1,50,8|8,0:0|0:0,0:0:0:0:
168,80,164469,6,0,P|120:136|168:184,1,150
320,256,164742,2,0,L|320:144,1,100,6|0,1:2|0:0,0:0:0:0:
184,144,165014,2,0,L|184:248,1,100,2|0,1:2|0:0,0:0:0:0:
48,128,165287,6,0,L|48:240,1,100,2|0,1:2|0:0,0:0:0:0:
184,80,165560,2,0,L|80:80,1,100,2|0,1:2|0:0,0:0:0:0:
296,160,165833,2,0,L|192:160,1,100,0|8,1:2|0:0,0:0:0:0:
248,96,166037,1,8,0:0:0:0:
448,176,166105,6,0,L|448:64,1,100,2|0,1:2|0:0,0:0:0:0:
312,200,166378,2,0,L|312:304,1,100,2|0,1:2|0:0,0:0:0:0:
176,200,166651,2,0,L|176:96,1,100,2|0,1:2|0:0,0:0:0:0:
376,88,166923,6,0,L|312:88,1,50,2|0,1:2|0:0,0:0:0:0:
160,72,167060,2,0,L|104:72,1,50
312,152,167196,2,0,L|360:152,2,25,2|0|0,0:0|0:0|0:0,0:0:0:0:
128,128,167333,2,0,L|56:128,1,50
280,232,167469,1,2,0:0:0:0:
304,226,167503,1,0,0:0:0:0:
323,211,167537,1,0,0:0:0:0:
334,188,167571,1,0,0:0:0:0:
334,163,167605,1,0,0:0:0:0:
324,141,167639,1,0,0:0:0:0:
304,125,167673,1,0,0:0:0:0:
96,192,167742,6,0,L|96:88,1,100,10|0,0:0|0:0,0:0:0:0:
296,64,168014,2,0,L|184:64,1,100,8|8,0:0|0:0,0:0:0:0:
408,184,168287,2,0,L|408:72,1,100,14|8,0:0|0:0,0:0:0:0:
344,176,168492,1,8,0:0:0:0:
144,192,168560,6,0,L|144:88,1,100,10|0,0:0|0:0,0:0:0:0:
344,48,168833,2,0,L|232:48,1,100,10|8,0:0|0:0,0:0:0:0:
448,56,169105,2,0,L|448:160,1,100,14|8,0:0|0:0,0:0:0:0:
384,56,169310,1,8,0:0:0:0:
216,280,169378,5,8,0:0:0:0:
200,232,169446,1,0,0:0:0:0:
206,183,169514,1,0,0:0:0:0:
232,141,169582,1,0,0:0:0:0:
273,113,169650,1,0,0:0:0:0:
322,106,169718,1,0,0:0:0:0:
168,56,169787,2,0,L|88:56,1,50
320,48,169923,2,0,L|384:48,1,50
168,120,170060,2,0,L|112:120,1,50
327,196,170196,6,0,P|386:156|328:105,1,150,2|0,0:0|0:0,0:0:0:0:
144,187,170469,2,0,L|77:188,2,66.6666666666667,2|2|2,0:0|0:0|0:0,0:0:0:0:
320,168,170742,1,10,0:0:0:0:
136,88,171014,6,0,L|136:200,1,100,14|0,0:0|0:0,0:0:0:0:
272,80,171287,2,0,L|160:80,1,100,10|0,0:0|0:0,0:0:0:0:
384,304,171560,2,0,L|384:200,1,100,10|0,0:0|0:0,0:0:0:0:
176,144,171833,6,0,L|64:144,1,100,10|0,0:0|0:0,0:0:0:0:
280,56,172105,2,0,L|160:56,1,100,10|0,0:0|0:0,0:0:0:0:
400,168,172378,2,0,L|400:64,1,100,10|0,0:0|0:0,0:0:0:0:
192,272,172651,6,0,L|192:168,1,100,10|0,0:0|0:0,0:0:0:0:
328,176,172924,2,0,L|328:64,1,100,10|0,0:0|0:0,0:0:0:0:
120,120,173196,2,0,L|16:120,1,100,10|0,0:0|0:0,0:0:0:0:
248,288,173469,5,10,0:0:0:0:
232,288,173486,2,0,L|232:192,1,87.5
448,168,173742,2,0,L|448:64,1,100,10|0,0:0|0:0,0:0:0:0:
232,64,174014,2,0,L|120:64,1,100,10|0,0:0|0:0,0:0:0:0:
336,280,174287,6,0,L|336:168,1,100,10|0,0:0|0:0,0:0:0:0:
200,152,174560,2,0,L|200:40,1,100,10|0,0:0|0:0,0:0:0:0:
400,120,174833,2,0,L|400:224,1,100,10|0,0:0|0:0,0:0:0:0:
200,208,175105,6,0,L|96:208,1,100,10|0,0:0|0:0,0:0:0:0:
312,80,175378,2,0,L|192:80,1,100,10|0,0:0|0:0,0:0:0:0:
352,216,175651,2,0,L|352:320,1,100,10|0,0:0|0:0,0:0:0:0:
144,192,175923,6,0,L|144:80,1,100,10|0,0:0|0:0,0:0:0:0:
344,128,176196,2,0,L|464:128,1,100,10|0,0:0|0:0,0:0:0:0:
232,280,176469,2,0,L|112:280,1,100,10|0,0:0|0:0,0:0:0:0:
352,56,176742,5,10,2:0:0:0:
368,56,176759,2,0,L|368:152,1,87.5,0|0,0:0|2:0,0:0:0:0:
160,104,177014,2,0,L|48:104,1,100,10|0,0:0|0:0,0:0:0:0:
256,192,177287,2,0,L|384:192,1,100,8|8,0:0|0:0,0:0:0:0:
296,136,177492,1,8,0:0:0:0:
144,240,177560,6,0,L|144:136,1,100,14|8,0:0|0:0,0:0:0:0:
344,64,177833,2,0,L|232:64,1,100,10|8,0:0|0:0,0:0:0:0:
448,64,178105,2,0,L|448:176,1,100,10|8,0:0|0:0,0:0:0:0:
248,120,178378,6,0,L|360:120,1,100,10|0,0:0|0:0,0:0:0:0:
144,208,178651,2,0,L|144:96,1,100,10|0,0:0|0:0,0:0:0:0:
344,40,178923,2,0,L|224:40,1,100,10|0,0:0|0:0,0:0:0:0:
296,104,179128,1,0,0:0:0:0:
464,64,179196,6,0,L|464:176,1,100,10|8,0:0|0:0,0:0:0:0:
248,168,179469,2,0,L|352:168,1,100,10|8,0:0|0:0,0:0:0:0:
144,304,179742,2,0,L|144:200,1,100,10|8,0:0|0:0,0:0:0:0:
352,88,180014,6,0,L|280:88,1,50,10|0,0:0|0:0,0:0:0:0:
112,80,180151,2,0,L|56:80,1,50
264,136,180287,2,0,L|304:136,2,25,2|0|0,0:0|0:0|0:0,0:0:0:0:
96,144,180423,2,0,L|24:144,1,50
264,200,180560,1,2,0:0:0:0:
288,199,180594,1,0,0:0:0:0:
309,185,180628,1,0,0:0:0:0:
319,163,180662,1,0,0:0:0:0:
316,138,180696,1,0,0:0:0:0:
301,119,180730,1,0,0:0:0:0:
277,110,180764,1,0,0:0:0:0:
96,208,180833,5,14,0:0:0:0:
296,40,181378,1,8,0:0:0:0:
176,32,181514,2,0,L|112:32,1,50,8|8,0:0|0:0,0:0:0:0:
296,96,181651,2,0,L|496:96,2,200,14|0|8,0:0|0:0|0:0,0:0:0:0:
168,128,182333,2,0,L|88:128,1,50,8|8,0:0|0:0,0:0:0:0:
296,64,182469,1,14,0:0:0:0:
120,232,182742,5,0,0:0:0:0:
120,160,182833,1,0,0:0:0:0:
192,104,182923,1,0,0:0:0:0:
264,128,183014,1,0,0:0:0:0:
264,48,183105,1,0,0:0:0:0:
192,0,183196,1,0,0:0:0:0:
392,184,183287,6,0,P|464:128|392:72,1,200,14|0,0:0|0:0,0:0:0:0:
353,68,183628,1,0,0:0:0:0:
304,64,183696,1,0,0:0:0:0:
168,64,183833,1,0,0:0:0:0:
304,128,183969,1,2,0:0:0:0:
96,264,184105,6,0,P|24:208|96:152,1,200,14|0,0:0|0:0,0:0:0:0:
192,144,184514,1,0,0:0:0:0:
88,144,184651,2,0,L|88:248,1,100,2|0,0:0|0:0,0:0:0:0:
224,216,184923,6,0,P|304:160|224:112,1,200,2|0,0:0|0:0,0:0:0:0:
144,104,185333,1,0,0:0:0:0:
248,96,185469,2,0,L|248:208,1,100,2|0,0:0|0:0,0:0:0:0:
112,272,185742,6,0,P|32:208|112:144,1,200,2|0,0:0|0:0,0:0:0:0:
200,128,186151,1,2,0:0:0:0:
64,104,186287,1,2,0:0:0:0:
200,64,186423,1,2,0:0:0:0:
400,240,186560,6,0,P|504:176|392:128,1,300,2|0,0:0|0:0,0:0:0:0:
256,56,187105,1,2,0:0:0:0:
392,48,187242,1,2,0:0:0:0:
184,184,187378,6,0,P|112:128|184:72,1,200,2|0,0:0|0:0,0:0:0:0:
280,112,187787,1,0,0:0:0:0:
176,208,187923,2,0,L|176:312,1,100,2|0,0:0|0:0,0:0:0:0:
312,272,188196,6,0,P|384:216|312:152,1,200,2|0,0:0|0:0,0:0:0:0:
224,128,188605,1,0,0:0:0:0:
328,104,188742,2,0,L|328:208,1,100,2|0,0:0|0:0,0:0:0:0:
192,192,189014,6,0,P|120:136|192:80,1,200,2|0,0:0|0:0,0:0:0:0:
320,40,189423,1,0,0:0:0:0:
184,32,189560,1,2,0:0:0:0:
320,104,189696,1,2,0:0:0:0:
112,256,189833,6,0,P|0:208|112:144,1,300,2|0,0:0|0:0,0:0:0:0:
240,112,190378,1,2,0:0:0:0:
104,80,190514,1,2,0:0:0:0:
312,264,190651,6,0,L|312:152,1,100,8|0,0:0|0:0,0:0:0:0:
176,176,190923,2,0,L|176:72,1,100,8|0,0:0|0:0,0:0:0:0:
384,64,191196,2,0,L|256:64,1,100,2|0,1:2|0:0,0:0:0:0:
488,288,191469,6,0,L|488:168,1,100,10|0,0:0|0:0,0:0:0:0:
352,184,191742,2,0,L|452:184,1,100,8|0,0:0|0:0,0:0:0:0:
248,56,192014,6,0,L|128:56,1,100,2|0,1:2|0:0,0:0:0:0:
352,264,192287,6,0,P|424:200|352:152,1,200,10|8,0:0|0:0,0:0:0:0:
224,128,192696,1,2,0:0:0:0:
360,80,192833,1,2,1:2:0:0:
224,64,192969,1,2,0:0:0:0:
424,288,193105,6,0,L|424:184,1,100,10|0,0:0|0:0,0:0:0:0:
288,176,193378,2,0,L|408:176,1,100,8|8,0:0|0:0,0:0:0:0:
176,192,193651,2,0,L|176:88,1,100,2|2,1:2|0:0,0:0:0:0:
384,288,193923,6,0,L|384:184,1,100,10|0,0:0|0:0,0:0:0:0:
248,128,194196,2,0,L|248:248,1,100,8|0,0:0|0:0,0:0:0:0:
448,88,194469,2,0,L|448:200,1,100,2|0,1:2|0:0,0:0:0:0:
240,304,194742,6,0,L|240:192,1,100,10|0,0:0|0:0,0:0:0:0:
376,144,195014,2,0,L|376:40,1,100,8|8,0:0|0:0,0:0:0:0:
168,88,195287,2,0,L|48:88,1,100,2|0,1:2|0:0,0:0:0:0:
272,176,195560,6,0,P|352:120|272:72,1,200,10|8,0:0|0:0,0:0:0:0:
160,40,195969,1,2,0:0:0:0:
296,24,196105,1,2,1:2:0:0:
160,104,196242,1,2,0:0:0:0:
368,264,196378,5,10,0:0:0:0:
160,192,196651,1,10,0:0:0:0:
368,112,196923,1,10,0:0:0:0:
160,184,197196,6,0,L|160:80,1,100,6|0,1:2|0:0,0:0:0:0:
368,80,197468,2,0,L|480:80,1,100,2|0,0:0|0:0,0:0:0:0:
368,16,197741,2,0,L|256:16,1,100
472,240,198014,6,0,L|472:104,1,100,2|0,0:0|0:0,0:0:0:0:
336,160,198287,2,0,L|336:264,1,100,2|0,0:0|0:0,0:0:0:0:
200,168,198559,2,0,L|200:64,1,100,2|0,0:0|0:0,0:0:0:0:
400,328,198832,6,0,L|504:328,1,100,2|0,1:2|0:0,0:0:0:0:
296,256,199105,2,0,L|176:256,1,100,2|0,0:0|0:0,0:0:0:0:
296,184,199378,2,0,L|424:184,1,100
192,176,199651,6,0,L|192:56,1,100,2|0,0:0|0:0,0:0:0:0:
328,96,199923,1,8,0:0:0:0:
192,240,200060,2,0,L|144:240,2,25,8|0|8,0:0|0:0|0:0,0:0:0:0:
344,160,200196,2,0,L|416:160,1,50,8|0,0:0|0:0,0:0:0:0:
192,176,200333,2,0,L|128:176,1,50,10|0,0:0|0:0,0:0:0:0:
344,224,200469,6,0,L|464:224,1,100,2|0,1:2|0:0,0:0:0:0:
240,104,200742,2,0,L|96:104,1,100,2|0,0:0|0:0,0:0:0:0:
240,40,201014,2,0,L|344:40,1,100
144,296,201287,6,0,L|144:192,1,100,2|0,1:2|0:0,0:0:0:0:
272,224,201560,1,2,0:0:0:0:
272,168,201651,1,0,0:0:0:0:
200,144,201742,1,2,0:0:0:0:
312,88,201833,2,0,L|416:88,1,100,2|0,0:0|0:0,0:0:0:0:
216,88,202105,6,0,L|216:192,1,100,2|0,1:2|0:0,0:0:0:0:
352,72,202378,1,2,0:0:0:0:
216,32,202514,2,0,L|160:32,2,33.3333333333333
352,120,202651,2,0,L|472:120,1,100,0|8,0:0|0:0,0:0:0:0:
248,216,202924,6,0,L|136:216,1,100,2|0,1:2|0:0,0:0:0:0:
360,80,203197,2,0,L|480:80,1,100,2|0,1:2|0:0,0:0:0:0:
360,160,203469,2,0,L|256:160,1,100,2|0,1:2|0:0,0:0:0:0:
464,264,203742,6,0,L|464:144,1,100,14|0,0:0|0:0,0:0:0:0:
256,96,204015,2,0,L|136:96,1,100,10|0,0:0|0:0,0:0:0:0:
260,160,204288,2,0,L|372:160,1,100,10|0,0:0|0:0,0:0:0:0:
160,280,204560,6,0,L|160:168,1,100,14|0,0:0|0:0,0:0:0:0:
400,80,204833,2,0,L|288:80,1,100,10|8,0:0|0:0,0:0:0:0:
432,96,205106,2,0,L|432:224,1,100,10|8,0:0|0:0,0:0:0:0:
216,80,205379,6,0,L|96:80,1,100,14|0,0:0|0:0,0:0:0:0:
320,296,205651,2,0,L|432:296,1,100,10|0,0:0|0:0,0:0:0:0:
320,232,205923,2,0,L|200:232,1,100,10|0,0:0|0:0,0:0:0:0:
432,176,206196,6,0,L|432:64,1,100,14|0,0:0|0:0,0:0:0:0:
224,48,206469,2,0,L|336:48,1,100,10|8,0:0|0:0,0:0:0:0:
120,184,206742,2,0,L|56:184,1,50,10|8,0:0|0:0,0:0:0:0:
272,128,206878,2,0,L|320:128,2,25,8|0|0,0:0|0:0|0:0,0:0:0:0:
120,112,207014,6,0,L|48:112,1,50,8|0,0:0|0:0,0:0:0:0:
272,264,207151,1,0,0:0:0:0:
298,222,207219,1,0,0:0:0:0:
302,172,207287,1,0,0:0:0:0:
282,127,207355,1,0,0:0:0:0:
244,96,207423,1,0,0:0:0:0:
195,87,207491,1,0,0:0:0:0:
376,96,207560,2,0,L|448:96,1,50,8|0,0:3|0:0,0:0:0:0:
248,184,207696,2,0,L|176:184,1,50
248,184,207833,6,0,L|304:184,1,50
120,120,207969,2,0,L|48:120,1,50
248,152,208105,6,0,L|302:153,1,50,8|0,0:0|0:0,0:0:0:0:
254,209,208242,2,0,L|198:209,1,50
392,112,208378,2,0,L|440:112,2,25,8|0|0,0:0|0:0|0:0,0:0:0:0:
216,72,208514,2,0,L|136:72,1,50
328,304,208651,5,8,0:0:0:0:
349,259,208719,1,0,0:0:0:0:
348,210,208787,1,0,0:0:0:0:
323,166,208855,1,0,0:0:0:0:
282,140,208923,1,2,0:0:0:0:
233,135,208991,1,0,0:0:0:0:
424,40,209060,6,0,L|488:40,1,50,2|0,0:0|0:0,0:0:0:0:
272,32,209196,2,0,L|184:32,1,50,2|0,0:0|0:0,0:0:0:0:
424,104,209333,2,0,L|488:104,1,50,2|0,0:0|0:0,0:0:0:0:
272,96,209469,5,6,0:1:0:0:
472,48,209742,1,2,0:0:0:0:
128,160,210014,1,2,0:0:0:0:
472,48,210287,6,0,L|272:48,1,200,10|0,0:0|0:0,0:0:0:0:
408,128,210696,1,10,0:0:0:0:
296,128,210833,1,10,0:0:0:0:
408,128,210969,1,2,0:0:0:0:
200,280,211105,6,0,L|200:168,1,100,8|0,0:0|0:0,0:0:0:0:
336,184,211378,2,0,L|336:80,1,100
208,56,211651,2,0,L|88:56,1,100,10|0,0:0|0:0,0:0:0:0:
336,248,211923,6,0,P|408:192|336:136,1,200,6|0,0:1|0:0,0:0:0:0:
176,168,212469,1,0,0:0:0:0:
336,248,212742,2,0,L|136:248,2,200,2|0|0,0:0|0:0|0:0,0:0:0:0:
176,224,213560,6,0,P|104:176|176:112,1,200,2|0,0:0|0:0,0:0:0:0:
328,144,214105,1,2,0:0:0:0:
248,176,214242,1,0,0:0:0:0:
312,160,214310,1,0,0:0:0:0:
376,144,214378,1,2,0:0:0:0:
112,216,214923,5,0,0:0:0:0:
280,208,215196,2,0,P|352:152|280:96,1,200,2|0,0:0|0:0,0:0:0:0:
128,72,215742,1,0,0:0:0:0:
296,224,216014,2,0,L|296:16,1,200,2|0,0:0|0:0,0:0:0:0:
128,96,216560,1,0,0:0:0:0:
328,224,216833,6,0,B|128:224|128:224|128:16,1,400,2|0,0:0|0:0,0:0:0:0:
328,136,217651,1,0,0:0:0:0:
160,144,217923,1,2,0:0:0:0:
328,96,218196,2,0,L|456:96,1,100,2|2,0:0|0:0,0:0:0:0:
216,208,218469,6,0,L|16:208,2,200,2|2|2,0:0|0:0|0:0,0:0:0:0:
384,112,219287,2,0,L|144:112,2,200,2|2|2,0:0|0:0|0:0,0:0:0:0:
232,192,220105,6,0,P|160:144|232:80,1,200,2|2,0:0|0:0,0:0:0:0:
384,56,220651,1,2,0:0:0:0:
224,112,220923,2,0,L|424:112,2,200,2|2|2,0:0|0:0|0:0,0:0:0:0:
384,72,221742,5,2,0:0:0:0:
216,176,222287,1,0,0:0:0:0:
352,136,222423,1,0,0:0:0:0:
216,240,222560,2,0,L|163:239,2,50,2|0|2,0:0|0:0|0:0,0:0:0:0:
352,72,222833,1,2,0:0:0:0:
200,192,223242,1,0,0:0:0:0:
328,304,223378,6,0,P|504:160|320:24,1,500,2|0,0:0|0:0,0:0:0:0:
144,56,224196,2,0,L|216:56,1,50
368,56,224333,2,0,L|432:56,1,50
224,136,224469,2,0,L|144:136,1,50,2|0,0:0|0:0,0:0:0:0:
368,128,224605,2,0,L|432:128,1,50,2|0,0:0|0:0,0:0:0:0:
224,200,224742,1,2,0:0:0:0:
200,190,224776,1,0,0:0:0:0:
183,172,224810,1,0,0:0:0:0:
176,149,224844,1,0,0:0:0:0:
179,124,224878,1,0,0:0:0:0:
192,103,224912,1,0,0:0:0:0:
213,90,224946,1,0,0:0:0:0:
392,248,225014,6,0,P|496:192|392:104,1,300,6|0,0:0|0:0,0:0:0:0:
200,240,225560,2,0,L|96:240,1,100,10|0,0:0|0:0,0:0:0:0:
304,80,225833,6,0,L|416:80,1,100,14|0,0:0|0:0,0:0:0:0:
200,176,226105,2,0,L|72:176,1,100,14|0,0:0|0:0,0:0:0:0:
304,144,226378,2,0,L|408:144,1,100,14|0,0:0|0:0,0:0:0:0:
200,264,226651,6,0,L|312:264,1,100,10|8,0:0|0:0,0:0:0:0:
88,200,226923,2,0,L|88:88,1,100,8|8,0:0|0:0,0:0:0:0:
320,144,227196,1,10,0:0:0:0:
345,139,227230,1,0,0:0:0:0:
365,125,227264,1,8,0:0:0:0:
375,102,227298,1,0,0:0:0:0:
375,78,227332,1,8,0:0:0:0:
363,56,227366,1,0,0:0:0:0:
342,42,227400,1,8,0:0:0:0:
144,48,227469,6,0,L|32:48,1,100,14|0,0:0|0:0,0:0:0:0:
256,200,227742,2,0,L|360:200,1,100,14|2,0:0|0:0,0:0:0:0:
152,240,228014,1,14,0:0:0:0:
127,234,228048,1,0,0:0:0:0:
108,219,228082,1,0,0:0:0:0:
97,196,228116,1,0,0:0:0:0:
97,171,228150,1,0,0:0:0:0:
107,149,228184,1,0,0:0:0:0:
127,133,228218,1,0,0:0:0:0:
336,272,228287,6,0,L|448:272,1,100,14|0,0:0|0:0,0:0:0:0:
224,96,228560,2,0,L|344:96,1,100,8|0,0:0|0:0,0:0:0:0:
128,312,228833,2,0,L|128:192,1,100,10|0,0:0|0:0,0:0:0:0:
336,136,229105,6,0,L|208:136,1,100,10|0,0:0|0:0,0:0:0:0:
440,128,229378,2,0,L|440:240,1,100,10|0,0:0|0:0,0:0:0:0:
240,56,229651,2,0,L|240:160,1,100,10|0,0:0|0:0,0:0:0:0:
40,200,229923,5,14,0:0:0:0:
240,192,230060,2,0,L|240:256,2,50
440,184,230333,1,14,0:0:0:0:
240,192,230469,2,0,L|240:256,2,50
40,184,230742,5,14,0:0:0:0:
240,192,230878,2,0,L|240:256,2,50
440,184,231151,1,14,0:0:0:0:
240,184,231287,2,0,L|240:104,2,50,2|0|2,0:0|0:0|0:0,0:0:0:0:
440,240,231560,6,0,L|440:344,1,100,10|8,0:0|0:0,0:0:0:0:
240,248,231833,2,0,L|352:248,1,100,14|0,0:0|0:0,0:0:0:0:
136,304,232105,2,0,L|136:168,1,100,10|0,0:0|0:0,0:0:0:0:
344,152,232378,6,0,L|344:280,1,100,10|0,0:0|0:0,0:0:0:0:
144,184,232651,2,0,L|264:184,1,100,10|0,0:0|0:0,0:0:0:0:
40,288,232923,2,0,L|40:176,1,100,10|0,0:0|0:0,0:0:0:0:
248,160,233196,6,0,L|248:264,1,100,14|0,0:0|0:0,0:0:0:0:
448,176,233469,2,0,L|448:72,1,100,10|0,0:0|0:0,0:0:0:0:
248,96,233742,2,0,L|368:96,1,100,10|0,0:0|0:0,0:0:0:0:
152,184,234014,6,0,L|32:184,1,100,14|0,0:0|0:0,0:0:0:0:
256,184,234287,2,0,L|144:184,1,100,10|0,0:0|0:0,0:0:0:0:
368,288,234560,2,0,L|368:184,1,100,14|0,0:0|0:0,0:0:0:0:
168,112,234833,6,0,L|168:224,1,100,10|0,0:0|0:0,0:0:0:0:
368,120,235105,2,0,L|488:120,1,100,10|0,0:0|0:0,0:0:0:0:
264,48,235378,2,0,L|384:48,1,100,10|10,0:0|0:0,0:0:0:0:
304,112,235583,1,8,0:0:0:0:
144,184,235651,6,0,L|72:184,1,50,10|0,0:0|0:0,0:0:0:0:
264,104,235787,2,0,L|328:104,1,50,2|0,0:0|0:0,0:0:0:0:
144,248,235923,2,0,L|144:144,1,100,10|8,0:0|0:0,0:0:0:0:
280,200,236196,1,8,0:0:0:0:
144,312,236333,2,0,L|80:312,1,50,10|8,0:0|0:0,0:0:0:0:
320,272,236469,6,0,L|320:160,1,100,12|8,0:0|0:0,0:0:0:0:
120,168,236742,2,0,L|240:168,1,100,8|8,0:0|0:0,0:0:0:0:
16,288,237014,2,0,L|16:168,1,100,8|8,0:0|0:0,0:0:0:0:
240,192,237287,6,0,L|296:192,1,50,8|0,0:0|0:0,0:0:0:0:
240,192,237423,2,0,L|184:192,1,50
400,128,237560,2,0,L|448:128,2,25
208,80,237696,2,0,L|144:80,1,50
400,192,237833,1,0,0:0:0:0:
424,189,237867,1,0,0:0:0:0:
446,177,237901,1,0,0:0:0:0:
459,156,237935,1,0,0:0:0:0:
463,132,237969,1,0,0:0:0:0:
456,108,238003,1,0,0:0:0:0:
440,90,238037,1,0,0:0:0:0:
208,192,238105,6,0,L|104:192,1,100,14|0,0:0|0:0,0:0:0:0:
320,296,238378,2,0,L|320:184,1,100,10|2,0:0|0:0,0:0:0:0:
120,112,238651,2,0,L|248:112,1,100,10|0,0:0|0:0,0:0:0:0:
24,296,238923,6,0,L|24:184,1,100,10|0,0:0|0:0,0:0:0:0:
224,192,239196,2,0,L|224:88,1,100,10|0,0:0|0:0,0:0:0:0:
424,184,239469,2,0,L|424:296,1,100,10|0,0:0|0:0,0:0:0:0:
224,120,239742,6,0,L|448:120,1,200,10|10,0:0|0:0,0:0:0:0:
224,64,240151,1,2,0:0:0:0:
336,64,240287,1,10,0:0:0:0:
224,64,240423,1,2,0:0:0:0:
448,256,240560,6,0,L|448:136,1,100,10|0,0:0|0:0,0:0:0:0:
384,256,240764,1,8,0:0:0:0:
184,208,240833,2,0,L|64:208,1,100,8|0,0:0|0:0,0:0:0:0:
288,176,241105,2,0,L|288:64,1,100,8|0,0:0|0:0,0:0:0:0:
80,296,241378,6,0,L|80:176,1,100,14|0,0:0|0:0,0:0:0:0:
288,224,241651,2,0,L|400:224,1,100,10|2,0:0|0:0,0:0:0:0:
176,80,241923,2,0,L|176:192,1,100,10|0,0:0|0:0,0:0:0:0:
392,80,242196,6,0,L|320:80,1,50,10|2,0:0|0:0,0:0:0:0:
176,32,242333,2,0,L|96:32,1,50
304,144,242469,2,0,L|304:248,1,100,10|0,0:0|0:0,0:0:0:0:
88,96,242742,2,0,L|184:96,1,50,10|2,0:0|0:0,0:0:0:0:
344,88,242878,2,0,L|294:88,1,50,2|0,0:0|0:0,0:0:0:0:
96,200,243014,5,14,0:0:0:0:
296,192,243151,2,0,L|296:256,2,50
496,184,243424,1,14,0:0:0:0:
296,192,243560,2,0,L|296:256,2,50
96,184,243833,5,14,0:0:0:0:
296,192,243969,2,0,L|296:256,2,50
496,184,244242,1,14,0:0:0:0:
296,96,244378,2,0,L|224:96,1,50
416,24,244514,2,0,L|480:24,1,50,2|0,0:0|0:0,0:0:0:0:
296,192,244651,6,0,L|184:192,1,100,10|8,0:0|0:0,0:0:0:0:
400,256,244923,2,0,L|400:144,1,100,14|0,0:0|0:0,0:0:0:0:
192,96,245196,2,0,L|304:96,1,100,10|0,0:0|0:0,0:0:0:0:
88,176,245469,6,0,L|24:176,2,50,10|2|0,0:0|0:0|0:0,0:0:0:0:
288,160,245742,2,0,L|424:160,1,100,10|0,0:0|0:0,0:0:0:0:
192,88,246014,2,0,L|312:88,1,100,2|8,0:0|0:0,0:0:0:0:
240,40,246219,1,8,0:0:0:0:
56,296,246287,6,0,L|56:176,1,100,10|8,0:0|0:0,0:0:0:0:
256,120,246560,2,0,L|256:16,1,100,10|8,0:0|0:0,0:0:0:0:
120,120,246833,1,10,0:0:0:0:
256,184,246969,2,0,L|336:184,1,50,8|8,0:0|0:0,0:0:0:0:
104,224,247105,6,0,L|40:224,1,50,10|0,0:0|0:0,0:0:0:0:
256,248,247242,2,0,L|328:248,1,50
104,288,247378,2,0,L|56:288,2,25,2|0|0,0:0|0:0|0:0,0:0:0:0:
256,312,247514,2,0,L|328:312,1,50
104,176,247651,1,2,0:0:0:0:
79,173,247685,1,0,0:0:0:0:
57,161,247719,1,0,0:0:0:0:
43,141,247753,1,0,0:0:0:0:
39,116,247787,1,0,0:0:0:0:
46,93,247821,1,0,0:0:0:0:
62,74,247855,1,0,0:0:0:0:
272,160,247923,5,14,0:0:0:0:
353,104,248469,1,2,0:0:0:0:
249,96,248605,1,2,0:0:0:0:
446,99,248742,2,0,L|495:101,2,50,10|2|2,0:0|0:0|0:0,0:0:0:0:
252,141,249014,1,8,0:0:0:0:
128,288,249423,5,2,0:0:0:0:
328,232,249560,2,0,L|328:120,1,100,10|8,0:0|0:0,0:0:0:0:
128,72,249833,2,0,L|16:72,1,100,8|8,0:0|0:0,0:0:0:0:
240,192,250105,2,0,L|240:80,1,100,8|8,0:0|0:0,0:0:0:0:
32,120,250378,6,0,L|112:120,1,50,8|0,0:0|0:0,0:0:0:0:
264,248,250514,2,0,L|336:248,1,50
136,136,250651,2,0,L|96:136,2,25,2|0|0,0:0|0:0|0:0,0:0:0:0:
320,112,250787,2,0,L|384:112,1,50
184,288,250923,5,2,0:0:0:0:
159,284,250957,1,0,0:0:0:0:
141,267,250991,1,0,0:0:0:0:
134,243,251025,1,0,0:0:0:0:
141,220,251059,1,0,0:0:0:0:
159,203,251093,1,0,0:0:0:0:
184,200,251127,1,0,0:0:0:0:
400,160,251196,5,2,0:0:0:0:
224,96,251469,1,0,0:0:0:0:
224,96,251742,1,2,0:0:0:0:
400,160,252014,1,2,0:0:0:0:
217,219,252287,1,2,0:0:0:0:
112,160,252423,2,0,L|184:160,1,50
217,219,252560,2,0,L|329:219,1,100
208,96,252833,5,2,0:0:0:0:
392,208,253105,1,2,0:0:0:0:
496,168,253242,2,0,L|416:168,1,50
392,168,253378,2,0,L|280:168,1,100
392,112,253651,1,2,0:0:0:0:
168,152,253923,1,0,0:0:0:0:
368,112,254196,1,2,0:0:0:0:
248,288,254469,6,0,L|248:184,1,100,2|0,0:0|0:0,0:0:0:0:
112,176,254742,2,0,L|112:64,1,100
248,96,255014,2,0,L|248:200,1,100
384,176,255287,6,0,L|384:72,1,100,2|0,0:0|0:0,0:0:0:0:
248,152,255560,2,0,L|136:152,1,100,2|0,0:0|0:0,0:0:0:0:
248,216,255833,2,0,L|352:216,1,100,2|0,0:0|0:0,0:0:0:0:
144,288,256105,6,0,L|144:176,1,100,2|0,0:0|0:0,0:0:0:0:
280,112,256378,2,0,L|280:216,1,100,2|0,0:0|0:0,0:0:0:0:
144,232,256651,2,0,L|256:232,1,100,2|2,0:0|0:0,0:0:0:0:
40,128,256923,5,2,0:0:0:0:
240,192,257196,2,0,L|240:72,1,100
104,72,257469,2,0,L|104:184,1,100,2|0,0:0|0:0,0:0:0:0:
240,248,257742,6,0,L|352:248,1,100,2|0,0:0|0:0,0:0:0:0:
208,184,258014,2,0,L|208:80,1,100,2|0,0:0|0:0,0:0:0:0:
344,48,258287,2,0,L|240:48,1,100,2|2,0:0|0:0,0:0:0:0:
448,152,258560,5,2,0:0:0:0:
248,168,258833,1,0,0:0:0:0:
448,216,259105,2,0,L|448:320,1,100,2|0,0:0|0:0,0:0:0:0:
312,112,259378,6,0,L|432:112,1,100,2|0,0:0|0:0,0:0:0:0:
280,192,259651,2,0,L|280:312,1,100,2|0,0:0|0:0,0:0:0:0:
144,192,259923,2,0,L|256:192,1,100,2|2,0:0|0:0,0:0:0:0:
48,104,260196,5,2,0:0:0:0:
248,96,260469,1,0,0:0:0:0:
48,176,260742,2,0,L|48:296,1,100,2|0,0:0|0:0,0:0:0:0:
184,184,261014,6,0,L|184:304,1,100,2|0,0:0|0:0,0:0:0:0:
320,184,261287,2,0,L|320:80,1,100,2|0,0:0|0:0,0:0:0:0:
104,80,261560,2,0,L|0:80,1,100,2|0,0:0|0:0,0:0:0:0:
208,88,261833,6,0,L|208:200,1,100,2|0,0:0|0:0,0:0:0:0:
408,72,262105,2,0,L|408:184,1,100,2|0,0:0|0:0,0:0:0:0:
208,32,262378,2,0,L|328:32,1,100,2|2,0:0|0:0,0:0:0:0:
104,160,262651,5,10,0:0:0:0:
256,240,263060,1,2,0:0:0:0:
120,208,263196,2,0,L|120:104,1,100,2|2,0:0|0:0,0:0:0:0:
320,80,263469,5,8,0:0:0:0:
120,272,263742,2,0,L|184:272,1,50,2|0,0:0|0:0,0:0:0:0:
344,144,263878,2,0,L|424:144,1,50,2|0,0:0|0:0,0:0:0:0:
192,184,264014,2,0,L|192:72,1,100,2|2,0:0|0:0,0:0:0:0:
400,56,264287,5,10,0:0:0:0:
256,296,264696,1,2,0:0:0:0:
392,200,264833,2,0,L|392:96,1,100,2|2,0:0|0:0,0:0:0:0:
192,96,265105,5,8,0:0:0:0:
392,136,265378,2,0,L|336:136,1,50
160,152,265514,2,0,L|88:152,1,50
320,256,265651,1,2,0:0:0:0:
344,253,265685,1,0,0:0:0:0:
364,239,265719,1,0,0:0:0:0:
375,216,265753,1,0,0:0:0:0:
373,191,265787,1,0,0:0:0:0:
359,171,265821,1,0,0:0:0:0:
337,160,265855,1,0,0:0:0:0:
111,146,265923,5,2,0:0:0:0:
311,82,266196,1,2,0:0:0:0:
111,74,266468,1,2,0:0:0:0:
212,159,266741,1,2,0:0:0:0:
310,81,267014,1,2,0:0:0:0:
110,75,267287,1,2,0:0:0:0:
311,18,267559,5,2,0:0:0:0:
496,32,267832,1,2,0:0:0:0:
312,72,268105,1,2,0:0:0:0:
112,160,268377,1,2,0:0:0:0:
312,104,268650,1,2,0:0:0:0:
104,40,268923,6,8,L|176:40,1,50,10|8,0:0|0:0,0:0:0:0:
328,72,269060,2,0,L|392:72,1,50,8|8,0:0|0:0,0:0:0:0:
192,160,269196,1,0,0:0:0:0:
392,136,269469,1,14,0:0:0:0:
192,80,269742,1,2,0:0:0:0:
392,86,270015,5,2,0:0:0:0:
294,164,270288,1,2,0:0:0:0:
193,79,270561,1,2,0:0:0:0:
393,87,270833,1,2,0:0:0:0:
193,151,271106,1,2,0:0:0:0:
392,160,271378,1,2,0:0:0:0:
48,104,271651,6,0,L|48:216,1,100,10|0,0:0|0:0,0:0:0:0:
296,88,271923,2,0,L|416:88,1,100,10|0,0:0|0:0,0:0:0:0:
192,144,272196,2,8,L|248:144,1,50,10|8,0:0|0:0,0:0:0:0:
408,144,272333,2,0,L|480:144,1,50,8|8,0:0|0:0,0:0:0:0:
256,264,272469,6,0,L|136:264,1,100
360,216,272742,2,0,L|360:320,1,100,14|0,1:2|0:0,0:0:0:0:
224,184,273014,2,0,L|224:72,1,100,2|0,1:2|0:0,0:0:0:0:
88,200,273287,6,0,L|88:304,1,100,2|0,1:2|0:0,0:0:0:0:
296,160,273560,2,0,L|296:48,1,100,2|0,1:2|0:0,0:0:0:0:
160,136,273833,1,2,1:2:0:0:
296,224,273969,2,0,L|360:224,1,50,8|8,0:0|0:0,0:0:0:0:
160,208,274105,6,0,L|48:208,1,100,14|0,1:2|0:0,0:0:0:0:
200,304,274378,2,0,L|200:200,1,100,2|0,1:2|0:0,0:0:0:0:
408,144,274651,2,0,L|408:32,1,100,2|0,1:2|0:0,0:0:0:0:
200,144,274923,6,0,L|296:144,1,50,2|0,1:2|0:0,0:0:0:0:
408,200,275060,2,0,L|472:200,1,50
232,216,275196,2,0,L|192:216,2,25
408,264,275333,2,0,L|464:264,1,50
232,288,275469,1,0,0:0:0:0:
207,283,275503,1,0,0:0:0:0:
187,269,275537,1,0,0:0:0:0:
177,246,275571,1,0,0:0:0:0:
177,222,275605,1,0,0:0:0:0:
189,200,275639,1,0,0:0:0:0:
210,186,275673,1,0,0:0:0:0:
408,200,275742,6,0,L|408:96,1,100,14|8,0:0|0:0,0:0:0:0:
208,80,276014,2,0,L|328:80,1,100,10|8,0:0|0:0,0:0:0:0:
104,88,276287,2,0,L|104:200,1,100,10|8,0:0|0:0,0:0:0:0:
160,88,276492,1,8,0:0:0:0:
320,144,276560,6,0,L|192:144,1,100,10|8,0:0|0:0,0:0:0:0:
416,184,276833,2,0,L|416:72,1,100,10|8,0:0|0:0,0:0:0:0:
280,184,277105,1,10,0:0:0:0:
416,240,277242,2,0,L|480:240,1,50,8|8,0:0|0:0,0:0:0:0:
280,248,277378,5,2,0:0:0:0:
216,248,277446,1,0,0:0:0:0:
280,248,277514,1,0,0:0:0:0:
344,248,277583,1,0,0:0:0:0:
160,120,277651,2,0,L|80:120,1,50,2|0,0:0|0:0,0:0:0:0:
280,120,277787,1,0,0:0:0:0:
344,120,277855,1,0,0:0:0:0:
280,120,277923,1,2,0:0:0:0:
216,120,277992,1,0,0:0:0:0:
392,48,278060,2,0,L|448:48,1,50
216,48,278196,5,10,0:0:0:0:
416,112,278469,2,0,L|352:112,1,50,2|0,0:0|0:0,0:0:0:0:
216,112,278605,2,0,L|144:112,1,50
376,176,278742,1,2,0:2:0:0:
176,184,279014,6,0,P|120:136|176:80,1,150,10|0,0:0|0:0,0:0:0:0:
376,88,279287,2,0,L|376:200,1,100,14|0,0:0|0:0,0:0:0:0:
240,80,279560,2,0,L|352:80,1,100,10|0,0:0|0:0,0:0:0:0:
128,304,279833,6,0,L|128:200,1,100,10|0,0:0|0:0,0:0:0:0:
336,144,280106,2,0,L|448:144,1,100,10|0,0:0|0:0,0:0:0:0:
232,56,280378,2,0,L|352:56,1,100,10|0,0:0|0:0,0:0:0:0:
112,168,280651,6,0,L|112:64,1,100,10|0,0:0|0:0,0:0:0:0:
320,272,280924,2,0,L|320:168,1,100,10|0,0:0|0:0,0:0:0:0:
184,176,281196,2,0,L|184:64,1,100,10|0,0:0|0:0,0:0:0:0:
384,48,281469,6,0,L|384:152,1,100,10|0,0:0|0:0,0:0:0:0:
184,112,281742,2,0,L|80:112,1,100,10|0,0:0|0:0,0:0:0:0:
288,240,282014,2,0,L|160:240,1,100,10|2,0:0|0:0,0:0:0:0:
392,240,282287,6,0,L|392:136,1,100,10|0,0:0|0:0,0:0:0:0:
192,88,282560,2,0,L|296:88,1,100,10|0,0:0|0:0,0:0:0:0:
96,176,282833,2,0,L|24:176,2,66.6666666666667,10|0|2,0:0|0:0|0:0,0:0:0:0:
304,280,283105,6,0,L|424:280,1,100,10|0,0:0|0:0,0:0:0:0:
200,112,283378,2,0,L|120:112,2,66.6666666666667,10|0|2,0:0|0:0|0:0,0:0:0:0:
376,72,283651,2,0,L|464:72,2,66.6666666666667,10|0|2,0:0|0:0|0:0,0:0:0:0:
200,176,283923,6,0,L|200:288,1,100,10|0,0:0|0:0,0:0:0:0:
400,136,284196,2,0,L|400:240,1,100,10|0,0:0|0:0,0:0:0:0:
200,240,284469,2,0,L|312:240,1,100,10|0,0:0|0:0,0:0:0:0:
96,192,284742,6,0,L|96:88,1,100,10|0,0:0|0:0,0:0:0:0:
296,104,285014,2,0,L|400:104,1,100,10|0,0:0|0:0,0:0:0:0:
200,160,285287,2,0,L|300:160,1,100,10|10,0:0|0:0,0:0:0:0:
88,272,285560,5,10,0:0:0:0:
55,265,285605,1,0,0:0:0:0:
35,240,285650,1,0,0:0:0:0:
34,207,285696,1,0,0:0:0:0:
54,181,285741,1,0,0:0:0:0:
86,174,285787,1,0,0:0:0:0:
280,144,285833,2,0,L|400:144,1,100,10|0,0:0|0:0,0:0:0:0:
184,216,286105,2,0,L|80:216,1,100,10|0,0:0|0:0,0:0:0:0:
280,264,286378,6,0,L|280:152,1,100,10|0,0:0|0:0,0:0:0:0:
74,162,286651,2,0,L|74:50,1,100,10|0,0:0|0:0,0:0:0:0:
288,176,286923,1,10,0:0:0:0:
314,156,286957,1,0,0:0:0:0:
328,128,286991,1,0,0:0:0:0:
329,96,287025,1,0,0:0:0:0:
317,68,287059,1,0,0:0:0:0:
294,47,287093,1,0,0:0:0:0:
264,37,287127,1,0,0:0:0:0:
72,296,287196,6,0,L|72:184,1,100,10|0,0:0|0:0,0:0:0:0:
272,272,287469,2,0,L|152:272,1,100,10|0,0:0|0:0,0:0:0:0:
384,288,287742,2,0,L|384:184,1,100,10|0,0:0|0:0,0:0:0:0:
168,200,288014,5,10,0:0:0:0:
140,190,288048,1,0,0:0:0:0:
120,168,288082,1,0,0:0:0:0:
111,140,288116,1,0,0:0:0:0:
116,111,288150,1,0,0:0:0:0:
134,88,288184,1,0,0:0:0:0:
162,75,288219,1,0,0:0:0:0:
368,56,288287,2,0,L|472:56,1,100,10|0,0:0|0:0,0:0:0:0:
264,192,288560,2,0,L|216:192,2,25,10|0|0,0:0|0:0|0:0,0:0:0:0:
424,128,288696,2,0,L|488:128,1,50
264,128,288833,5,14,0:0:0:0:
384,184,289378,2,0,L|320:184,1,50,10|0,0:0|0:0,0:0:0:0:
184,184,289514,2,0,L|112:184,1,50
336,128,289651,1,14,0:0:0:0:
176,240,290196,2,0,L|240:240,1,50,10|0,0:0|0:0,0:0:0:0:
384,240,290333,2,0,L|448:240,1,50
232,152,290469,6,8,L|136:152,2,66.6666666666667,14|0|0,0:0|0:0|0:0,0:0:0:0:
392,160,290742,2,0,L|464:160,2,66.6666666666667
184,64,291014,2,0,L|112:64,2,66.6666666666667
392,232,291287,6,8,P|480:184|392:128,1,200
386,117,291628,1,0,0:0:0:0:
336,120,291696,1,0,0:0:0:0:
200,128,291833,2,0,L|200:232,1,100,2|0,0:0|0:0,0:0:0:0:
416,48,292105,5,2,0:0:0:0:
216,48,292378,1,2,0:0:0:0:
16,48,292651,1,2,0:0:0:0:
216,120,292923,1,2,0:0:0:0:
16,120,293196,1,2,0:0:0:0:
16,120,293469,1,2,0:0:0:0:
424,112,293742,6,0,L|496:112,2,66.6666666666667,10|0|0,0:0|0:0|0:0,0:0:0:0:
216,112,294014,2,0,L|136:112,2,66.6666666666667
424,176,294287,2,0,L|504:176,2,66.6666666666667
216,184,294560,2,0,P|144:128|216:80,1,200
278,78,294901,1,0,0:0:0:0:
344,80,294969,1,0,0:0:0:0:
216,256,295105,2,0,L|104:256,1,100
416,128,295378,5,14,0:0:0:0:
256,192,295514,12,2,301923,0:1:0:0:
