osu file format v14

[General]
AudioFilename: audio.mp3
AudioLeadIn: 0
PreviewTime: 197129
Countdown: 0
SampleSet: Normal
StackLeniency: 0.7
Mode: 2
LetterboxInBreaks: 0
WidescreenStoryboard: 0

[Editor]
Bookmarks: 177561
DistanceSpacing: 1.9
BeatDivisor: 8
GridSize: 8
TimelineZoom: 2.2

[Metadata]
Title:Noel (long ver.)
TitleUnicode:Noël (long ver.)
Artist:Morimori Atsushi vs. uma
ArtistUnicode:モリモリあつし vs. uma
Creator:Rocma
Version:Deluge
Source:VOEZ
Tags:fa featured artist x_angelkawaii_x instrumental electronic rhythm video game Christmas C87 Comiket 87 Un Deux Trois... Astral Sky vs. 非可逆リズム Re: End of a Dream Re : M3-39 ASRR-0002
BeatmapID:1986615
BeatmapSetID:951273

[Difficulty]
HPDrainRate:6
CircleSize:4.2
OverallDifficulty:9.8
ApproachRate:9.8
SliderMultiplier:1.92
SliderTickRate:2

[Events]
//Background and Video events
0,0,"BG.jpg",0,0
//Break Periods
//Storyboard Layer 0 (Background)
//Storyboard Layer 1 (Fail)
//Storyboard Layer 2 (Pass)
//Storyboard Layer 3 (Foreground)
//Storyboard Layer 4 (Overlay)
//Storyboard Sound Samples

[TimingPoints]
834,272.727272727273,3,1,2,40,1,0
6834,-100,3,1,2,50,0,0
7106,-100,3,1,2,60,0,0
7379,-100,3,1,2,70,0,0
10652,-100,3,1,2,80,0,0
13924,-100,3,1,2,70,0,0
23743,-100,3,1,2,60,0,0
27015,-149.925037481259,3,1,2,40,0,0
36834,-100,3,1,2,60,0,0
52379,-100,3,1,2,50,0,0
66288,-100,3,1,2,80,0,0
72834,-100,3,1,2,90,0,0
78561,-100,3,1,2,70,0,0
79379,-100,3,1,2,50,0,0
92470,-100,3,1,2,70,0,0
105561,-100,3,1,2,50,0,0
117834,-100,3,1,2,70,0,0
118652,-100,3,1,2,80,0,0
125197,-100,3,1,2,80,0,1
130924,-100,3,1,2,80,0,0
131197,-100,3,1,2,30,0,0
131265,-100,3,1,2,40,0,0
131334,-100,3,1,2,50,0,0
131402,-100,3,1,2,60,0,0
131470,-100,3,1,2,70,0,0
131538,-100,3,1,2,80,0,0
131606,-100,3,1,2,90,0,0
131674,-100,3,1,2,100,0,0
131743,-200,3,1,2,30,0,0
144015,-100,3,1,2,80,0,0
144834,-100,3,1,2,90,0,1
154652,-100,3,1,2,70,0,0
157924,-100,3,1,2,50,0,0
164743,-100,3,1,2,70,0,0
171015,-100,3,1,2,80,0,0
184106,-100,3,1,2,60,0,0
197197,-100,3,1,2,80,0,0
203743,-100,3,1,2,90,0,1
209470,-100,3,1,2,80,0,0
210288,-50,3,1,2,90,0,1
211106,-100,3,1,2,80,0,0
211924,-149.925037481259,3,1,2,50,0,0
224197,-149.925037481259,3,1,2,60,0,0
225015,-149.925037481259,3,1,2,70,0,0
225834,-100,3,1,2,80,0,0
228288,-100,3,1,2,80,0,1
247924,-100,3,1,2,80,0,0
249561,-100,3,1,2,80,0,1
251197,-100,3,1,2,40,0,0
257743,-100,3,1,2,50,0,0
261015,-100,3,1,2,60,0,0
262652,-100,3,1,2,70,0,0
265924,-100,3,1,2,60,0,0
272743,-100,3,1,2,70,0,0
275743,-100,3,1,2,80,0,0
279288,-100,3,1,2,90,0,1
288834,-100,3,1,2,80,0,0
292106,-100,3,1,2,60,0,0
293197,-100,3,1,2,70,0,0
293470,-100,3,1,2,80,0,0
295379,-40,3,1,2,80,0,0
301924,-40,3,1,2,80,0,1
301993,-40,3,1,2,80,0,0

[Colours]
Combo1 : 234,159,104
Combo2 : 255,255,128

[HitObjects]
128,304,561,6,0,L|112:192,1,96
224,192,834,2,0,L|352:32,2,192,2|0|0,0:0|0:0|0:0,0:0:0:0:
400,176,1652,6,0,B|277:27|277:27,1,192
176,96,2061,2,0,L|144:160,1,48
176,96,2197,2,0,L|240:192,1,96
352,240,2470,6,0,B|229:91|229:91,1,192
352,64,2879,2,0,L|384:128,1,48
352,64,3015,2,0,L|288:160,1,96
192,96,3288,6,0,P|160:144|256:352,1,288
336,368,3834,1,0,0:0:0:0:
176,320,4106,6,0,P|192:240|304:192,2,192
368,304,4924,1,0,0:0:0:0:
208,272,5197,2,0,L|192:160,1,96
80,192,5470,2,0,L|96:80,1,96
208,64,5743,6,0,P|256:96|320:224,1,192
240,240,6152,1,0,0:0:0:0:
368,240,6288,2,0,L|432:352,1,96
272,352,6561,6,0,L|128:352,1,144
192,320,6834,2,0,L|208:256,1,48,8|0,0:0|0:0,0:0:0:0:
139,305,6970,2,0,L|128:352,1,48
304,320,7106,2,0,L|448:320,1,144,8|0,0:0|0:0,0:0:0:0:
256,256,7379,6,0,P|192:192|240:144,1,144,8|0,0:0|0:0,0:0:0:0:
272,112,7652,2,0,L|176:112,1,96
288,64,7924,2,0,L|400:64,1,96,8|0,0:0|0:0,0:0:0:0:
176,256,8197,6,0,P|128:240|80:144,1,144,8|0,0:0|0:0,0:0:0:0:
144,128,8470,2,0,L|240:128,1,96
352,96,8743,2,0,L|240:96,1,96,8|0,0:0|0:0,0:0:0:0:
32,224,9015,6,0,L|192:224,1,144,8|0,0:0|0:0,0:0:0:0:
240,176,9288,2,0,L|128:176,2,96,0|0|8,0:0|0:0|0:0,0:0:0:0:
32,112,9697,1,0,0:0:0:0:
288,240,9834,6,0,L|352:240,1,48,8|0,0:0|0:0,0:0:0:0:
176,192,9970,2,0,L|112:192,1,48
288,128,10106,2,0,L|320:128,2,24,4|0|0,0:0|0:0|0:0,0:0:0:0:
160,112,10243,1,0,0:0:0:0:
272,64,10379,2,0,L|304:64,2,24,4|0|0,0:0|0:0|0:0,0:0:0:0:
144,48,10515,2,0,L|112:48,2,24
336,288,10652,6,0,L|352:208,1,48,8|0,0:0|0:0,0:0:0:0:
277,208,10788,2,0,L|224:208,1,48
368,160,10924,2,0,L|432:160,1,48,8|0,0:0|0:0,0:0:0:0:
346,112,11061,2,0,L|266:112,1,48
464,64,11197,2,0,L|416:64,1,48,8|0,0:0|0:0,0:0:0:0:
256,64,11334,2,0,L|208:64,1,48
48,64,11470,6,0,L|96:64,1,48,8|0,0:0|0:0,0:0:0:0:
256,64,11607,2,0,L|304:64,1,48
144,160,11743,2,0,L|80:160,1,48,4|0,0:0|0:0,0:0:0:0:
166,112,11880,2,0,L|246:112,1,48
384,160,12015,2,0,L|416:160,2,24,8|0|0,0:0|0:0|0:0,0:0:0:0:
224,160,12151,2,0,L|171:160,1,48,8|0,0:0|0:0,0:0:0:0:
368,272,12288,6,0,P|308:215|368:144,1,192,8|0,0:0|0:0,0:0:0:0:
272,109,12697,1,0,0:0:0:0:
496,64,12834,2,0,L|384:64,1,96,8|0,0:0|0:0,0:0:0:0:
192,64,13106,6,0,L|128:64,1,48,8|0,0:0|0:0,0:0:0:0:
208,96,13243,2,0,L|224:144,1,48
144,160,13379,2,0,L|80:160,1,48,8|0,0:0|0:0,0:0:0:0:
160,192,13516,2,0,L|176:240,1,48
48,320,13652,2,0,L|32:288,2,24,8|0|0,0:0|0:0|0:0,0:0:0:0:
112,336,13788,1,0,0:0:0:0:
136,336,13822,1,0,0:0:0:0:
160,336,13856,1,0,0:0:0:0:
336,288,13924,6,0,L|240:288,1,96,4|0,0:0|0:0,0:0:0:0:
368,240,14197,2,0,L|384:128,1,96,8|0,0:0|0:0,0:0:0:0:
128,144,14470,2,0,L|16:144,1,96,8|0,0:0|0:0,0:0:0:0:
272,176,14743,6,0,L|368:176,1,96,8|0,0:0|0:0,0:0:0:0:
176,240,15015,2,0,L|160:352,1,96,4|0,0:0|0:0,0:0:0:0:
288,272,15288,2,0,L|304:384,1,96,8|0,0:0|0:0,0:0:0:0:
48,336,15561,6,0,L|144:336,1,96,4|0,0:0|0:0,0:0:0:0:
272,304,15834,2,0,L|288:192,1,96,8|0,0:0|0:0,0:0:0:0:
64,176,16106,2,0,L|160:176,1,96,8|0,0:0|0:0,0:0:0:0:
368,144,16379,6,0,L|400:144,1,24,8|0,0:0|0:0,0:0:0:0:
288,112,16515,1,0,0:0:0:0:
496,48,16652,2,0,L|384:48,1,96,4|0,0:0|0:0,0:0:0:0:
288,96,16924,2,0,L|384:96,1,96,8|0,0:0|0:0,0:0:0:0:
128,304,17197,6,0,L|32:304,1,96,4|0,0:0|0:0,0:0:0:0:
160,272,17470,2,0,L|176:160,1,96,8|0,0:0|0:0,0:0:0:0:
368,128,17743,2,0,L|256:128,1,96,8|0,0:0|0:0,0:0:0:0:
48,176,18015,6,0,L|160:176,1,96,8|0,0:0|0:0,0:0:0:0:
352,208,18288,2,0,L|336:320,1,96,4|0,0:0|0:0,0:0:0:0:
208,240,18561,2,0,L|192:352,1,96,8|0,0:0|0:0,0:0:0:0:
400,336,18834,6,0,L|288:336,1,96,4|0,0:0|0:0,0:0:0:0:
432,288,19106,2,0,L|448:192,1,96,8|0,0:0|0:0,0:0:0:0:
224,176,19379,2,0,L|96:176,1,96,8|0,0:0|0:0,0:0:0:0:
352,112,19652,6,0,L|320:112,1,24,8|0,0:0|0:0,0:0:0:0:
240,112,19788,1,0,0:0:0:0:
48,80,19924,2,0,L|160:80,1,96,4|0,0:0|0:0,0:0:0:0:
352,144,20197,1,8,0:0:0:0:
128,192,20334,2,0,L|208:192,1,48,8|0,0:0|0:0,0:0:0:0:
368,288,20470,6,0,L|256:288,1,96,4|0,0:0|0:0,0:0:0:0:
384,240,20743,2,0,L|496:240,1,96,8|0,0:0|0:0,0:0:0:0:
208,176,21015,2,0,L|112:176,1,96,8|0,0:0|0:0,0:0:0:0:
368,96,21288,6,0,L|256:96,1,96,8|0,0:0|0:0,0:0:0:0:
64,64,21561,2,0,L|176:64,1,96,4|0,0:0|0:0,0:0:0:0:
272,112,21834,2,0,L|160:112,1,96,8|0,0:0|0:0,0:0:0:0:
224,112,22038,1,0,0:0:0:0:
448,176,22106,6,0,L|336:176,1,96,4|0,0:0|0:0,0:0:0:0:
240,208,22379,2,0,L|336:208,1,96,8|0,0:0|0:0,0:0:0:0:
128,272,22652,2,0,L|16:272,1,96,8|0,0:0|0:0,0:0:0:0:
288,288,22924,6,0,L|304:240,1,48,8|0,0:0|0:0,0:0:0:0:
144,208,23061,2,0,L|128:160,1,48
288,112,23197,5,4,0:0:0:0:
312,112,23231,1,0,0:0:0:0:
336,112,23265,1,0,0:0:0:0:
312,112,23299,1,0,0:0:0:0:
288,112,23334,1,0,0:0:0:0:
312,112,23368,1,0,0:0:0:0:
336,112,23402,1,0,0:0:0:0:
176,80,23470,5,4,0:0:0:0:
152,80,23504,1,0,0:0:0:0:
128,80,23538,1,0,0:0:0:0:
152,80,23572,1,0,0:0:0:0:
176,80,23607,1,0,0:0:0:0:
152,80,23641,1,0,0:0:0:0:
128,80,23674,1,0,0:0:0:0:
368,320,23743,6,0,L|384:112,1,192,4|0,0:0|0:0,0:0:0:0:
160,112,24288,1,0,0:0:0:0:
304,80,24424,2,0,L|256:80,1,48
400,320,24561,6,0,L|384:112,1,192,4|0,0:0|0:0,0:0:0:0:
192,128,25106,1,0,0:0:0:0:
320,112,25243,2,0,L|368:112,1,48
128,224,25379,6,0,L|112:144,2,64,8|0|0,0:0|0:0|0:0,0:0:0:0:
224,224,25652,2,0,L|208:144,2,64
320,224,25924,2,0,L|304:144,1,64
224,144,26106,1,0,0:0:0:0:
416,240,26197,6,0,L|432:80,1,144,8|0,0:0|0:0,0:0:0:0:
288,80,26470,2,0,L|272:16,1,48,4|0,0:0|0:0,0:0:0:0:
416,16,26606,2,0,L|304:16,2,96,4|8|0,0:0|0:0|0:0,0:0:0:0:
96,208,27015,5,4,0:0:0:0:
288,176,27288,1,0,0:0:0:0:
192,192,27697,1,0,0:0:0:0:
96,208,27834,5,0,0:0:0:0:
288,176,28107,1,0,0:0:0:0:
80,144,28379,1,0,0:0:0:0:
304,128,28652,6,0,L|448:128,2,128.064003341514
160,208,29470,2,0,L|288:208,1,128.064003341514
112,304,30015,2,0,L|96:224,1,64.0320016707569
240,208,30288,6,0,P|176:176|160:112,1,128.064003341514
176,48,30834,1,0,0:0:0:0:
368,208,31106,6,0,P|432:176|448:112,1,128.064003341514
304,64,31652,1,0,0:0:0:0:
128,112,31924,6,0,P|104:193|137:213,1,128.064003341514
208,240,32470,1,0,0:0:0:0:
368,224,32743,6,0,P|392:305|359:325,1,128.064003341514
192,320,33289,1,0,0:0:0:0:
400,272,33561,6,0,L|432:128,1,128.064003341514,4|0,0:0|0:0,0:0:0:0:
415,157,33868,2,0,L|427:146,5,16.0080004176892
368,112,34106,1,0,0:0:0:0:
432,80,34197,1,0,0:0:0:0:
368,48,34288,1,0,0:0:0:0:
272,48,34379,6,0,L|128:48,1,128.064003341514
208,112,34788,1,0,0:0:0:0:
144,144,34924,1,0,0:0:0:0:
272,160,35061,1,0,0:0:0:0:
144,304,35197,6,0,L|112:160,1,128.064003341514,4|0,0:0|0:0,0:0:0:0:
129,189,35504,2,0,L|117:178,5,16.0080004176892
176,144,35742,1,0,0:0:0:0:
112,112,35833,1,0,0:0:0:0:
176,80,35924,1,0,0:0:0:0:
272,80,36015,6,0,L|416:80,1,128.064003341514
419,133,36322,1,0,0:0:0:0:
434,145,36356,1,0,0:0:0:0:
444,162,36390,1,0,0:0:0:0:
448,182,36424,1,0,0:0:0:0:
443,201,36458,1,0,0:0:0:0:
432,218,36492,1,0,0:0:0:0:
416,229,36526,1,0,0:0:0:0:
397,234,36560,1,0,0:0:0:0:
352,240,36629,1,0,0:0:0:0:
397,234,36697,1,0,0:0:0:0:
352,240,36765,1,0,0:0:0:0:
160,288,36834,6,0,P|112:256|176:208,1,144,8|0,0:0|0:0,0:0:0:0:
336,160,37106,2,0,L|192:160,1,144,4|0,0:0|0:0,0:0:0:0:
355,201,37379,2,0,P|375:262|352:272,1,96,4|0,0:0|0:0,0:0:0:0:
298,288,37584,1,0,0:0:0:0:
448,320,37652,6,0,L|464:160,1,144,8|0,0:0|0:0,0:0:0:0:
288,144,37924,2,0,L|160:144,1,96,4|0,0:0|0:0,0:0:0:0:
400,80,38197,2,0,L|496:80,1,96,8|0,0:0|0:0,0:0:0:0:
448,80,38402,1,0,0:0:0:0:
192,160,38470,5,8,0:0:0:0:
64,160,38606,1,0,0:0:0:0:
320,160,38743,1,8,0:0:0:0:
448,160,38879,1,0,0:0:0:0:
192,208,39015,1,8,0:0:0:0:
320,208,39151,1,0,0:0:0:0:
112,288,39288,5,8,0:0:0:0:
81,253,39356,1,0,0:0:0:0:
93,209,39424,1,0,0:0:0:0:
137,196,39492,1,0,0:0:0:0:
272,176,39561,5,4,0:0:0:0:
248,173,39595,1,0,0:0:0:0:
230,158,39629,1,0,0:0:0:0:
223,136,39663,1,0,0:0:0:0:
230,113,39697,1,0,0:0:0:0:
248,98,39731,1,0,0:0:0:0:
271,95,39765,1,0,0:0:0:0:
96,128,39834,5,4,0:0:0:0:
102,105,39868,1,0,0:0:0:0:
117,86,39902,1,0,0:0:0:0:
138,76,39936,1,0,0:0:0:0:
117,86,39970,1,0,0:0:0:0:
102,105,40004,1,0,0:0:0:0:
96,128,40038,1,0,0:0:0:0:
256,32,40106,6,0,L|464:32,1,192,8|4,0:0|0:0,0:0:0:0:
352,96,40515,1,4,0:0:0:0:
448,160,40652,2,0,L|464:256,1,96,8|0,0:0|0:0,0:0:0:0:
400,272,40856,1,0,0:0:0:0:
256,288,40924,6,0,L|368:288,1,96,4|0,0:0|0:0,0:0:0:0:
224,240,41197,2,0,L|208:112,1,96,8|0,0:0|0:0,0:0:0:0:
272,144,41402,1,0,0:0:0:0:
432,192,41470,2,0,L|448:64,1,96,8|0,0:0|0:0,0:0:0:0:
192,80,41743,6,0,P|112:112|112:176,1,144,8|0,0:0|0:0,0:0:0:0:
176,192,42015,2,0,L|304:192,2,96,4|4|8,0:0|0:0|0:0,0:0:0:0:
160,304,42424,1,0,0:0:0:0:
400,320,42561,6,0,L|384:224,1,96,4|0,0:0|0:0,0:0:0:0:
272,192,42834,2,0,P|336:176|368:80,1,144,8|0,0:0|0:0,0:0:0:0:
304,96,43106,2,0,L|416:96,1,96,4|4,0:0|0:0,0:0:0:0:
112,272,43379,6,0,L|96:160,1,96,8|0,0:0|0:0,0:0:0:0:
352,144,43652,2,0,L|256:144,1,96,4|0,0:0|0:0,0:0:0:0:
400,128,43924,2,0,L|416:16,1,96
192,256,44197,6,0,L|304:256,1,96,8|0,0:0|0:0,0:0:0:0:
176,192,44470,2,0,L|160:64,1,96,4|0,0:0|0:0,0:0:0:0:
234,100,44674,1,0,0:0:0:0:
304,144,44743,2,0,L|320:16,1,96
96,64,45015,6,0,L|80:176,1,96,8|0,0:0|0:0,0:0:0:0:
288,192,45288,2,0,L|192:192,1,96,4|0,0:0|0:0,0:0:0:0:
64,304,45561,2,0,L|80:208,1,96
288,192,45834,6,0,L|192:192,1,96,8|0,0:0|0:0,0:0:0:0:
384,144,46106,2,0,L|400:48,1,96,8|0,0:0|0:0,0:0:0:0:
336,32,46311,1,0,0:0:0:0:
176,32,46379,2,0,L|128:32,3,48,4|0|0|0,0:0|0:0|0:0|0:0,0:0:0:0:
304,160,46652,6,0,L|400:160,1,96,8|0,0:0|0:0,0:0:0:0:
288,224,46924,2,0,L|400:224,1,96,4|0,0:0|0:0,0:0:0:0:
176,288,47197,2,0,L|64:288,1,96,8|0,0:0|0:0,0:0:0:0:
288,192,47470,6,0,L|160:192,1,96,8|0,0:0|0:0,0:0:0:0:
400,144,47743,2,0,L|496:144,1,96,8|0,0:0|0:0,0:0:0:0:
384,96,48015,2,0,L|480:96,1,96,4|0,0:0|0:0,0:0:0:0:
144,224,48288,6,0,L|128:112,1,96,8|0,0:0|0:0,0:0:0:0:
256,80,48561,2,0,L|144:80,1,96,8|0,0:0|0:0,0:0:0:0:
384,128,48834,2,0,L|496:128,1,96,8|0,0:0|0:0,0:0:0:0:
224,256,49106,6,0,L|352:256,1,96,4|0,0:0|0:0,0:0:0:0:
112,176,49379,2,0,L|240:176,1,96,8|0,0:0|0:0,0:0:0:0:
272,176,49584,1,0,0:0:0:0:
448,128,49652,2,0,L|336:128,1,96,8|0,0:0|0:0,0:0:0:0:
80,128,49924,6,0,L|16:128,2,64,8|0|0,0:0|0:0|0:0,0:0:0:0:
240,96,50197,2,0,L|176:96,2,64,4|0|0,0:0|0:0|0:0,0:0:0:0:
400,64,50470,1,4,0:0:0:0:
336,64,50560,1,0,0:0:0:0:
272,64,50651,1,0,0:0:0:0:
464,192,50743,6,0,L|384:192,2,64,8|0|0,0:0|0:0|0:0,0:0:0:0:
304,192,51015,5,4,0:0:0:0:
272,192,51060,1,0,0:0:0:0:
240,192,51105,1,0,0:0:0:0:
272,192,51152,5,0,0:0:0:0:
304,192,51197,1,0,0:0:0:0:
128,160,51288,2,0,L|96:160,2,32,4|0|0,0:0|0:0|0:0,0:0:0:0:
304,96,51424,1,0,0:0:0:0:
272,96,51469,1,0,0:0:0:0:
240,96,51515,1,0,0:0:0:0:
416,16,51561,6,0,B|432:304|432:304|417:28,1,528,8|0,0:0|0:0,0:0:0:0:
416,16,52379,2,0,P|416:64|304:144,1,192,4|8,0:0|0:0,0:0:0:0:
240,112,52743,1,0,0:0:0:0:
304,80,52834,1,0,0:0:0:0:
208,80,52924,1,8,0:0:0:0:
272,48,53015,1,0,0:0:0:0:
208,32,53106,1,0,0:0:0:0:
432,304,53197,6,0,L|448:160,1,144,4|0,0:0|0:0,0:0:0:0:
368,160,53470,2,4,L|352:48,1,96
240,32,53743,2,0,L|352:32,1,96,8|0,0:0|0:0,0:0:0:0:
224,304,54015,6,0,L|208:160,1,144,4|0,0:0|0:0,0:0:0:0:
288,160,54288,2,0,L|304:48,1,96,4|0,0:0|0:0,0:0:0:0:
416,32,54561,2,0,L|304:32,1,96,8|0,0:0|0:0,0:0:0:0:
112,32,54834,6,0,P|64:80|112:160,1,144,4|0,0:0|0:0,0:0:0:0:
224,160,55106,2,0,L|288:160,2,48,4|0|4,0:0|0:0|0:0,0:0:0:0:
352,208,55379,2,0,L|336:352,1,144,8|0,0:0|0:0,0:0:0:0:
256,352,55652,6,0,L|96:352,1,144,4|0,0:0|0:0,0:0:0:0:
176,304,55924,2,0,L|288:304,1,96,8|0,0:0|0:0,0:0:0:0:
128,256,56197,2,0,L|240:256,1,96,8|0,0:0|0:0,0:0:0:0:
80,304,56470,6,0,L|64:160,1,144,4|0,0:0|0:0,0:0:0:0:
144,160,56743,2,4,L|160:48,1,96
272,32,57016,2,0,L|160:32,1,96,8|0,0:0|0:0,0:0:0:0:
288,304,57288,6,0,L|304:160,1,144,4|0,0:0|0:0,0:0:0:0:
224,160,57561,2,0,L|208:48,1,96,4|0,0:0|0:0,0:0:0:0:
96,32,57834,2,0,L|208:32,1,96,8|0,0:0|0:0,0:0:0:0:
400,32,58107,6,0,P|448:80|400:160,1,144,4|0,0:0|0:0,0:0:0:0:
288,160,58379,2,0,L|352:160,2,48,4|0|4,0:0|0:0|0:0,0:0:0:0:
160,208,58652,2,0,L|144:352,1,144,8|0,0:0|0:0,0:0:0:0:
224,352,58925,6,0,L|384:352,1,144,4|0,0:0|0:0,0:0:0:0:
304,304,59197,2,0,L|192:304,1,96,8|0,0:0|0:0,0:0:0:0:
320,256,59470,2,0,L|416:256,1,96,8|0,0:0|0:0,0:0:0:0:
160,256,59743,5,4,0:0:0:0:
71,228,59879,1,0,0:0:0:0:
34,142,60015,1,4,0:0:0:0:
74,59,60152,1,4,0:0:0:0:
164,35,60288,1,8,0:0:0:0:
32,32,60424,1,0,0:0:0:0:
176,272,60561,5,4,0:0:0:0:
264,244,60697,1,0,0:0:0:0:
301,158,60833,1,8,0:0:0:0:
261,75,60970,1,0,0:0:0:0:
171,51,61106,1,8,0:0:0:0:
304,48,61242,1,0,0:0:0:0:
160,128,61379,6,0,P|124:180|181:249,1,144,4|0,0:0|0:0,0:0:0:0:
304,240,61652,2,0,L|368:240,2,48,4|0|4,0:0|0:0|0:0,0:0:0:0:
432,192,61924,2,0,L|448:96,1,96,8|0,0:0|0:0,0:0:0:0:
288,80,62197,6,0,P|208:112|208:192,1,144,4|0,0:0|0:0,0:0:0:0:
265,176,62470,2,0,L|361:176,1,96,8|0,0:0|0:0,0:0:0:0:
256,256,62743,2,0,L|368:256,1,96,8|0,0:0|0:0,0:0:0:0:
96,320,63015,5,4,0:0:0:0:
176,256,63152,1,0,0:0:0:0:
96,192,63288,1,4,0:0:0:0:
208,144,63424,1,4,0:0:0:0:
96,64,63561,1,8,0:0:0:0:
240,32,63697,1,0,0:0:0:0:
384,320,63834,5,4,0:0:0:0:
304,256,63971,1,0,0:0:0:0:
384,192,64107,1,8,0:0:0:0:
272,144,64243,1,0,0:0:0:0:
384,64,64380,1,8,0:0:0:0:
240,32,64516,1,0,0:0:0:0:
384,128,64652,6,0,L|480:128,1,96,4|0,0:0|0:0,0:0:0:0:
352,192,64924,2,0,L|400:192,2,48,8|0|0,0:0|0:0|0:0,0:0:0:0:
144,240,65197,2,0,L|272:240,1,96,8|0,0:0|0:0,0:0:0:0:
32,224,65470,6,0,L|16:80,1,144,8|0,0:0|0:0,0:0:0:0:
256,176,65743,2,0,L|256:16,1,144,8|0,0:0|0:0,0:0:0:0:
480,224,66015,2,0,L|496:80,1,144,8|0,0:0|0:0,0:0:0:0:
96,256,66288,5,8,0:0:0:0:
256,224,66561,2,0,L|272:96,1,96
160,160,66834,2,0,L|176:32,1,96
64,224,67106,1,8,0:0:0:0:
256,224,67379,1,8,0:0:0:0:
64,224,67652,1,8,0:0:0:0:
416,256,67924,5,8,0:0:0:0:
256,224,68197,2,0,L|240:96,1,96
352,160,68470,2,0,L|336:32,1,96
448,224,68742,1,8,0:0:0:0:
256,224,69015,1,8,0:0:0:0:
352,224,69152,2,0,L|304:224,2,48,4|0|8,0:0|0:0|0:0,0:0:0:0:
256,224,69424,1,0,0:0:0:0:
16,208,69561,5,8,0:0:0:0:
160,176,69834,2,0,L|176:80,1,96
288,144,70106,2,0,L|304:48,1,96
416,176,70379,1,8,0:0:0:0:
208,112,70652,1,8,0:0:0:0:
416,64,70924,1,8,0:0:0:0:
80,320,71197,6,0,P|144:256|48:208,1,192,8|0,0:0|0:0,0:0:0:0:
192,144,71606,2,0,L|256:144,1,48
176,112,71743,2,0,L|64:112,1,96
320,160,72015,6,0,P|416:208|416:272,1,144,8|0,0:0|0:0,0:0:0:0:
192,160,72288,2,0,P|112:192|96:208,1,96,8|0,0:0|0:0,0:0:0:0:
80,240,72493,1,0,0:0:0:0:
320,224,72561,1,8,0:0:0:0:
192,224,72697,1,0,0:0:0:0:
480,288,72834,5,8,0:0:0:0:
320,272,73106,1,4,0:0:0:0:
416,240,73243,1,4,0:0:0:0:
208,224,73379,1,12,0:0:0:0:
416,160,73515,1,4,0:0:0:0:
64,176,73652,5,8,0:0:0:0:
448,176,73924,1,4,0:0:0:0:
224,128,74061,1,4,0:0:0:0:
448,176,74197,1,8,0:0:0:0:
32,288,74470,5,8,0:0:0:0:
192,272,74742,1,4,0:0:0:0:
96,240,74879,1,4,0:0:0:0:
304,224,75015,1,8,0:0:0:0:
96,160,75151,1,4,0:0:0:0:
448,176,75288,5,8,0:0:0:0:
64,176,75560,1,8,0:0:0:0:
288,128,75697,1,4,0:0:0:0:
64,176,75834,2,0,L|128:176,1,48,8|0,0:0|0:0,0:0:0:0:
256,176,75970,2,0,L|320:176,1,48
128,320,76106,6,0,L|64:320,1,48,4|0,0:0|0:0,0:0:0:0:
256,256,76243,2,0,L|240:192,1,48
64,192,76379,2,0,L|112:192,1,48,4|0,0:0|0:0,0:0:0:0:
256,144,76515,2,0,L|208:144,1,48,4|0,0:0|0:0,0:0:0:0:
384,112,76652,2,0,L|448:112,1,48,8|0,0:0|0:0,0:0:0:0:
192,80,76788,2,0,L|112:80,1,48,4|0,0:0|0:0,0:0:0:0:
368,304,76924,6,0,L|352:224,1,48,8|0,0:0|0:0,0:0:0:0:
192,224,77061,2,0,L|128:224,1,48
304,192,77197,2,0,L|320:112,1,48,4|0,0:0|0:0,0:0:0:0:
144,128,77334,2,0,L|208:128,1,48,4|0,0:0|0:0,0:0:0:0:
32,96,77470,2,0,L|16:128,2,24,8|0|0,0:0|0:0|0:0,0:0:0:0:
208,32,77606,2,0,L|288:32,1,48
464,160,77743,6,0,L|448:224,1,48,8|0,0:0|0:0,0:0:0:0:
288,240,77879,1,0,0:0:0:0:
224,240,77947,1,0,0:0:0:0:
80,160,78015,2,0,L|96:224,1,48,4|0,0:0|0:0,0:0:0:0:
224,240,78152,1,4,0:0:0:0:
288,240,78219,1,0,0:0:0:0:
416,208,78288,2,0,L|428:162,1,48,8|0,0:0|0:0,0:0:0:0:
288,160,78424,2,0,L|276:113,1,48,8|0,0:0|0:0,0:0:0:0:
352,80,78561,6,0,P|432:128|464:240,1,192,8|0,0:0|0:0,0:0:0:0:
456,170,78902,1,0,0:0:0:0:
432,128,78970,1,0,0:0:0:0:
396,97,79038,1,0,0:0:0:0:
352,80,79106,1,4,0:0:0:0:
448,32,79243,1,4,0:0:0:0:
144,304,79379,6,0,L|80:208,1,96,8|0,0:0|0:0,0:0:0:0:
193,159,79652,1,0,0:0:0:0:
90,224,79788,2,0,L|144:304,1,96,0|0,0:0|0:0,0:0:0:0:
41,159,80061,1,0,0:0:0:0:
144,304,80197,1,0,0:0:0:0:
368,304,81015,6,0,L|432:208,1,96
319,159,81288,1,0,0:0:0:0:
422,224,81424,2,0,L|368:304,1,96
471,159,81697,1,0,0:0:0:0:
368,304,81833,1,0,0:0:0:0:
144,288,82652,6,0,L|128:176,1,96
240,176,82924,1,0,0:0:0:0:
130,192,83061,2,0,L|144:288,1,96
32,288,83334,1,0,0:0:0:0:
144,288,83470,1,0,0:0:0:0:
368,288,84288,6,0,L|384:176,1,96
272,176,84560,1,0,0:0:0:0:
381,192,84697,2,0,L|368:288,1,96
480,288,84970,1,0,0:0:0:0:
368,288,85106,1,0,0:0:0:0:
160,288,85924,6,0,L|48:288,1,96
192,224,86197,1,0,0:0:0:0:
64,176,86334,2,0,L|176:176,1,96
32,224,86606,1,0,0:0:0:0:
160,176,86743,1,0,0:0:0:0:
336,128,87015,1,0,0:0:0:0:
160,80,87288,1,0,0:0:0:0:
352,288,87561,6,0,L|464:288,1,96
320,224,87834,1,0,0:0:0:0:
448,176,87971,2,0,L|336:176,1,96
480,224,88243,1,0,0:0:0:0:
352,176,88379,2,0,L|144:176,2,192
16,256,89197,6,0,L|48:128,1,96,8|0,0:0|0:0,0:0:0:0:
80,140,89470,1,0,0:0:0:0:
97,97,89606,1,0,0:0:0:0:
82,52,89743,1,8,0:0:0:0:
41,29,89879,1,0,0:0:0:0:
89,30,90015,5,8,0:0:0:0:
132,51,90151,1,0,0:0:0:0:
163,87,90288,1,0,0:0:0:0:
176,132,90424,1,0,0:0:0:0:
163,87,90561,1,8,0:0:0:0:
147,104,90595,1,0,0:0:0:0:
142,127,90629,1,0,0:0:0:0:
149,150,90663,1,0,0:0:0:0:
167,165,90697,1,0,0:0:0:0:
288,176,90834,6,0,L|384:176,1,96,8|0,0:0|0:0,0:0:0:0:
240,224,91106,2,0,L|144:224,1,96,8|0,0:0|0:0,0:0:0:0:
288,272,91379,2,0,L|400:272,1,96,8|0,0:0|0:0,0:0:0:0:
320,272,91584,1,0,0:0:0:0:
112,256,91652,5,8,0:0:0:0:
240,208,91788,1,0,0:0:0:0:
216,208,91822,1,0,0:0:0:0:
192,208,91856,1,0,0:0:0:0:
64,208,91924,1,4,0:0:0:0:
304,160,92061,1,0,0:0:0:0:
328,160,92095,1,0,0:0:0:0:
352,160,92129,1,0,0:0:0:0:
328,160,92163,1,0,0:0:0:0:
304,160,92197,1,4,0:0:0:0:
416,112,92334,1,4,0:0:0:0:
144,128,92470,5,8,0:0:0:0:
368,192,92606,2,0,L|256:192,1,96,4|0,0:0|0:0,0:0:0:0:
400,256,92879,1,4,0:0:0:0:
272,320,93015,2,0,L|400:320,1,96,8|0,0:0|0:0,0:0:0:0:
320,320,93220,1,0,0:0:0:0:
96,288,93288,5,4,0:0:0:0:
208,224,93424,1,0,0:0:0:0:
96,160,93561,2,0,L|192:160,1,96,8|0,0:0|0:0,0:0:0:0:
256,160,93765,1,0,0:0:0:0:
112,128,93834,2,0,L|0:128,1,96,8|0,0:0|0:0,0:0:0:0:
240,64,94106,6,0,L|256:160,1,96,8|4,0:0|0:0,0:0:0:0:
144,192,94379,1,0,0:0:0:0:
256,208,94515,2,0,P|336:240|384:336,1,192,4|8,0:0|0:0,0:0:0:0:
320,336,94856,1,0,0:0:0:0:
160,304,94924,5,4,0:0:0:0:
288,272,95061,1,0,0:0:0:0:
160,208,95197,2,0,L|272:208,1,96,8|0,0:0|0:0,0:0:0:0:
320,208,95402,1,0,0:0:0:0:
464,160,95470,2,0,L|336:160,1,96,8|0,0:0|0:0,0:0:0:0:
128,112,95743,6,0,L|112:208,1,96,8|0,0:0|0:0,0:0:0:0:
304,240,96015,1,8,0:0:0:0:
128,112,96288,2,0,L|112:208,1,96,4|0,0:0|0:0,0:0:0:0:
384,112,96561,6,0,L|400:208,1,96,8|0,0:0|0:0,0:0:0:0:
208,240,96833,1,4,0:0:0:0:
296,180,96970,1,0,0:0:0:0:
340,144,97038,1,0,0:0:0:0:
384,112,97106,2,0,L|400:208,1,96,4|0,0:0|0:0,0:0:0:0:
112,206,97379,6,0,L|128:112,1,96,8|0,0:0|0:0,0:0:0:0:
320,240,97651,1,8,0:0:0:0:
128,112,97924,2,0,L|112:208,1,96,4|0,0:0|0:0,0:0:0:0:
399,206,98197,6,0,L|384:112,1,96,8|0,0:0|0:0,0:0:0:0:
192,240,98469,1,8,0:0:0:0:
304,176,98606,1,0,0:0:0:0:
368,144,98674,1,0,0:0:0:0:
304,128,98743,1,4,0:0:0:0:
240,96,98811,1,0,0:0:0:0:
304,176,98879,1,0,0:0:0:0:
240,96,98947,1,0,0:0:0:0:
48,208,99015,6,0,L|160:208,2,96,8|0|8,0:0|0:0|0:0,0:0:0:0:
256,160,99424,2,0,L|208:160,1,48
48,96,99561,2,0,L|160:96,1,96,8|0,0:0|0:0,0:0:0:0:
352,128,99834,5,8,0:0:0:0:
144,176,99970,1,0,0:0:0:0:
272,208,100106,2,0,L|384:208,1,96,8|4,0:0|0:0,0:0:0:0:
320,208,100311,1,0,0:0:0:0:
176,208,100379,2,0,L|160:64,1,144,8|0,0:0|0:0,0:0:0:0:
352,48,100652,6,0,L|480:48,2,96,8|0|8,0:0|0:0|0:0,0:0:0:0:
144,112,101061,1,0,0:0:0:0:
352,176,101197,2,0,L|256:176,1,96,8|8,0:0|0:0,0:0:0:0:
32,240,101470,6,0,L|176:240,1,144,4|0,0:0|0:0,0:0:0:0:
352,192,101743,2,0,L|192:192,1,144,8|0,0:0|0:0,0:0:0:0:
384,144,102015,1,8,0:0:0:0:
428,132,102083,1,0,0:0:0:0:
439,87,102151,1,0,0:0:0:0:
407,55,102219,1,0,0:0:0:0:
208,48,102288,6,0,L|144:48,1,64,8|0,0:0|0:0,0:0:0:0:
304,96,102470,1,0,0:0:0:0:
144,128,102561,2,0,L|80:128,1,64,8|0,0:0|0:0,0:0:0:0:
240,160,102743,1,0,0:0:0:0:
400,192,102834,2,0,L|288:192,1,64,8|0,0:0|0:0,0:0:0:0:
496,240,103015,1,0,0:0:0:0:
240,288,103106,6,0,L|304:288,1,64,4|0,0:0|0:0,0:0:0:0:
464,288,103288,1,0,0:0:0:0:
304,224,103379,2,0,L|240:224,1,64,8|0,0:0|0:0,0:0:0:0:
400,160,103561,1,0,0:0:0:0:
192,128,103652,2,0,L|272:128,2,64,8|0|0,0:0|0:0|0:0,0:0:0:0:
432,96,103924,1,4,0:0:0:0:
256,192,104061,12,0,104743,0:0:0:0:
256,288,105015,6,0,L|240:192,1,64
320,208,105197,1,0,0:0:0:0:
160,176,105288,2,0,L|144:80,1,64
224,96,105470,1,0,0:0:0:0:
412,48,105561,6,0,P|332:128|425:362,1,384,4|0,0:0|0:0,0:0:0:0:
411,356,106379,6,0,P|331:276|97:369,1,384
102,47,107197,6,0,P|182:127|89:361,1,384
103,355,108015,6,0,P|183:275|417:368,1,384
446,322,108834,6,0,P|317:220|450:111,1,384,4|0,0:0|0:0,0:0:0:0:
446,322,109652,6,0,P|334:306|63:326,1,384
66,322,110470,6,0,P|194:220|61:111,1,384
66,322,111288,6,0,P|178:306|449:326,1,384
256,304,112106,6,0,P|144:256|128:160,2,192,4|4|8,0:0|0:0|0:0,0:0:0:0:
388,196,112924,6,0,P|346:279|256:304,2,192,4|4|8,0:0|0:0|0:0,0:0:0:0:
256,304,113743,6,0,L|48:304,2,192,4|4|8,0:0|0:0|0:0,0:0:0:0:
448,304,114561,6,0,L|256:304,1,192,4|4,0:0|0:0,0:0:0:0:
352,304,114970,1,4,0:0:0:0:
160,304,115106,1,8,0:0:0:0:
352,240,115379,6,0,P|432:192|496:96,2,192,4|4|8,0:0|0:0|0:0,0:0:0:0:
160,240,116197,6,0,P|80:192|16:96,2,192,4|4|8,0:0|0:0|0:0,0:0:0:0:
352,224,117015,6,0,L|160:224,2,192,4|4|8,0:0|0:0|0:0,0:0:0:0:
16,160,117834,5,8,0:0:0:0:
496,160,118106,1,8,0:0:0:0:
16,160,118379,1,8,0:0:0:0:
496,272,118652,5,8,0:0:0:0:
352,240,118924,2,0,L|336:144,1,96
208,176,119197,2,0,L|224:80,1,96
96,64,119470,1,8,0:0:0:0:
288,64,119743,1,8,0:0:0:0:
480,64,120015,1,8,0:0:0:0:
16,272,120288,5,8,0:0:0:0:
160,240,120560,2,0,L|176:144,1,96
304,176,120833,2,0,L|288:80,1,96
416,64,121106,1,8,0:0:0:0:
224,64,121379,1,8,0:0:0:0:
320,96,121515,2,0,L|272:96,1,48,4|0,0:0|0:0,0:0:0:0:
416,80,121652,2,0,L|288:80,1,96,8|0,0:0|0:0,0:0:0:0:
64,224,121924,5,8,0:0:0:0:
256,240,122197,1,0,0:0:0:0:
166,214,122333,1,0,0:0:0:0:
127,129,122469,1,0,0:0:0:0:
165,44,122606,1,0,0:0:0:0:
400,48,122743,1,8,0:0:0:0:
176,144,123015,1,8,0:0:0:0:
400,224,123288,1,8,0:0:0:0:
64,224,123561,5,8,0:0:0:0:
256,240,123834,1,0,0:0:0:0:
160,192,123970,2,0,L|208:192,2,48,0|0|0,0:0|0:0|0:0,0:0:0:0:
256,240,124243,1,0,0:0:0:0:
16,288,124379,1,8,0:0:0:0:
368,272,124652,1,8,0:0:0:0:
224,272,124788,1,4,0:0:0:0:
496,288,124924,1,8,0:0:0:0:
32,224,125197,5,8,0:0:0:0:
384,176,125470,1,4,0:0:0:0:
128,176,125606,1,4,0:0:0:0:
432,112,125743,1,8,0:0:0:0:
80,112,125879,1,4,0:0:0:0:
480,48,126015,1,8,0:0:0:0:
32,48,126288,1,4,0:0:0:0:
480,48,126424,1,4,0:0:0:0:
256,48,126561,1,8,0:0:0:0:
32,48,126697,1,4,0:0:0:0:
480,224,126834,5,8,0:0:0:0:
128,176,127107,1,4,0:0:0:0:
384,176,127243,1,4,0:0:0:0:
80,112,127380,1,8,0:0:0:0:
432,112,127516,1,4,0:0:0:0:
32,48,127652,1,8,0:0:0:0:
480,48,127925,1,4,0:0:0:0:
32,48,128061,1,4,0:0:0:0:
480,48,128197,2,0,L|496:80,2,24,8|0|0,0:0|0:0|0:0,0:0:0:0:
309,117,128334,2,0,L|320:96,2,24
128,272,128470,5,4,0:0:0:0:
86,253,128538,1,0,0:0:0:0:
84,208,128606,1,0,0:0:0:0:
124,186,128674,1,0,0:0:0:0:
304,160,128743,2,0,L|352:160,1,48,4|0,0:0|0:0,0:0:0:0:
208,160,128879,2,0,L|160:160,1,48,4|0,0:0|0:0,0:0:0:0:
320,80,129015,2,0,L|272:80,1,48,8|0,0:0|0:0,0:0:0:0:
432,160,129152,2,0,L|496:160,1,48,4|0,0:0|0:0,0:0:0:0:
224,320,129288,5,8,0:0:0:0:
236,274,129356,1,0,0:0:0:0:
271,241,129424,1,0,0:0:0:0:
317,231,129492,1,0,0:0:0:0:
128,192,129561,2,0,L|80:192,1,48,4|0,0:0|0:0,0:0:0:0:
288,144,129697,2,0,L|336:144,1,48,4|0,0:0|0:0,0:0:0:0:
160,80,129834,1,8,0:0:0:0:
184,80,129868,1,0,0:0:0:0:
208,80,129902,1,0,0:0:0:0:
64,144,129970,2,0,L|0:144,1,48,4|0,0:0|0:0,0:0:0:0:
256,336,130106,5,8,0:0:0:0:
287,301,130174,1,0,0:0:0:0:
280,255,130242,1,0,0:0:0:0:
240,232,130310,1,0,0:0:0:0:
368,208,130379,2,0,L|352:144,1,48,4|0,0:0|0:0,0:0:0:0:
480,144,130515,2,0,L|496:80,1,48,4|0,0:0|0:0,0:0:0:0:
352,112,130652,2,0,L|368:48,1,48,8|0,0:0|0:0,0:0:0:0:
240,48,130788,2,0,L|224:-16,1,48,8|0,0:0|0:0,0:0:0:0:
448,320,130924,6,0,L|448:160,1,144,8|0,0:0|0:0,0:0:0:0:
432,184,131197,1,0,0:0:0:0:
448,176,131265,1,0,0:0:0:0:
416,185,131334,1,0,0:0:0:0:
448,176,131402,1,0,0:0:0:0:
400,186,131470,1,0,0:0:0:0:
448,176,131538,1,0,0:0:0:0:
384,187,131606,1,0,0:0:0:0:
448,176,131674,1,0,0:0:0:0:
256,304,131743,6,0,P|192:272|256:208,1,192,2|0,0:0|0:0,0:0:0:0:
368,208,132561,2,0,P|432:176|368:112,1,192
256,144,133379,6,0,P|320:112|368:0,1,192
272,144,134129,1,0,0:0:0:0:
256,144,134197,2,0,P|192:112|144:0,1,192
256,32,135015,6,0,L|384:176,1,192
256,32,135834,6,0,L|177:120,2,96
144,128,136652,2,0,P|64:192|144:336,1,288
304,320,138015,2,0,L|320:256,1,48
304,320,138288,6,0,P|256:288|256:240,2,96
384,240,139106,6,0,P|373:194|331:173,2,96
288,272,139924,6,0,L|384:272,2,96
144,240,140743,6,0,L|48:240,2,96
288,224,141561,5,0,0:0:0:0:
160,192,142106,2,0,L|144:128,1,48
224,112,142379,6,0,L|256:112,2,24
128,96,142652,2,0,P|112:144|144:192,1,96
208,176,143061,1,0,0:0:0:0:
96,224,143197,1,0,0:0:0:0:
256,192,143334,12,0,143879,0:0:0:0:
320,256,144015,6,0,L|272:256,3,48,4|0|0|0,0:0|0:0|0:0|0:0,0:0:0:0:
208,240,144288,1,4,0:0:0:0:
249,218,144356,1,0,0:0:0:0:
261,173,144424,1,4,0:0:0:0:
235,134,144492,1,0,0:0:0:0:
171,126,144561,1,8,0:0:0:0:
154,109,144595,1,0,0:0:0:0:
145,86,144629,1,0,0:0:0:0:
146,62,144663,1,0,0:0:0:0:
157,41,144697,1,0,0:0:0:0:
176,26,144731,1,0,0:0:0:0:
199,20,144765,1,0,0:0:0:0:
336,48,144834,6,0,L|432:48,1,96,8|0,0:0|0:0,0:0:0:0:
208,112,145106,2,0,L|80:112,1,96
240,160,145379,2,0,L|336:160,1,96,8|0,0:0|0:0,0:0:0:0:
112,288,145652,5,8,0:0:0:0:
160,256,145720,2,0,L|64:256,1,96
192,208,145924,2,0,L|304:208,1,96,8|0,0:0|0:0,0:0:0:0:
160,176,146197,2,0,L|48:176,1,96,8|0,0:0|0:0,0:0:0:0:
320,128,146470,6,0,L|432:128,1,96,8|0,0:0|0:0,0:0:0:0:
192,80,146743,2,0,L|304:80,1,96
176,128,147015,2,0,L|80:128,1,96,8|0,0:0|0:0,0:0:0:0:
128,128,147220,1,4,0:0:0:0:
336,160,147288,6,0,L|448:160,1,96,8|0,0:0|0:0,0:0:0:0:
320,208,147561,2,0,L|208:208,1,96
16,256,147834,2,0,L|112:256,1,96,8|0,0:0|0:0,0:0:0:0:
336,320,148106,6,0,L|208:320,1,96,8|0,0:0|0:0,0:0:0:0:
480,240,148379,2,0,L|384:240,1,96
272,208,148652,2,0,L|368:208,1,96,8|0,0:0|0:0,0:0:0:0:
112,176,148924,5,8,0:0:0:0:
160,144,148993,2,0,L|64:144,1,96
288,96,149197,2,0,L|416:96,1,96,8|0,0:0|0:0,0:0:0:0:
272,32,149470,2,0,L|384:32,1,96,8|0,0:0|0:0,0:0:0:0:
48,240,149743,5,8,0:0:0:0:
96,240,149811,1,0,0:0:0:0:
256,224,149879,2,0,L|208:224,2,48,0|0|8,0:0|0:0|0:0,0:0:0:0:
464,240,150152,5,8,0:0:0:0:
416,240,150220,1,0,0:0:0:0:
256,224,150288,2,0,L|304:224,2,48,0|0|8,0:0|0:0|0:0,0:0:0:0:
48,240,150561,5,8,0:0:0:0:
96,240,150629,1,0,0:0:0:0:
272,224,150697,2,0,L|320:224,3,48,0|0|8|0,0:0|0:0|0:0|0:0,0:0:0:0:
192,176,150970,2,0,L|144:176,1,48,8|0,0:0|0:0,0:0:0:0:
16,128,151106,2,0,L|64:128,1,48,8|0,0:0|0:0,0:0:0:0:
240,80,151243,2,0,L|176:80,1,48,8|0,0:0|0:0,0:0:0:0:
352,128,151379,5,8,0:0:0:0:
400,160,151447,2,0,L|272:160,1,96
96,208,151652,1,0,0:0:0:0:
304,240,151788,1,0,0:0:0:0:
192,272,151924,2,0,L|176:176,1,96,8|0,0:0|0:0,0:0:0:0:
384,160,152197,5,8,0:0:0:0:
336,112,152265,2,0,L|432:112,1,96
272,64,152470,2,0,L|176:64,1,96,8|0,0:0|0:0,0:0:0:0:
384,176,152743,2,0,L|288:176,1,96,8|0,0:0|0:0,0:0:0:0:
64,272,153015,5,8,0:0:0:0:
112,224,153084,2,0,L|16:224,1,96
160,176,153288,2,0,L|256:176,1,96,8|0,0:0|0:0,0:0:0:0:
144,128,153561,2,0,L|48:128,1,96,8|0,0:0|0:0,0:0:0:0:
336,256,153834,5,8,0:0:0:0:
288,224,153902,2,0,L|192:224,1,96
336,144,154106,2,0,L|240:144,1,96,8|0,0:0|0:0,0:0:0:0:
128,112,154379,2,0,L|224:112,1,96,8|0,0:0|0:0,0:0:0:0:
480,176,154652,5,4,0:0:0:0:
336,176,155197,1,8,0:0:0:0:
480,176,155334,1,8,0:0:0:0:
160,208,155470,2,0,L|208:208,2,48,4|0|0,0:0|0:0|0:0,0:0:0:0:
416,176,155743,2,0,L|192:176,1,192,4|0,0:0|0:0,0:0:0:0:
480,176,156152,1,4,0:0:0:0:
176,288,156288,6,0,L|137:245,3,48,8|0|0|0,0:0|0:0|0:0|0:0,0:0:0:0:
304,224,156561,2,0,L|352:224,3,48,8|0|0|0,0:0|0:0|0:0|0:0,0:0:0:0:
144,192,156834,1,8,0:0:0:0:
80,176,156902,1,0,0:0:0:0:
144,144,156970,1,0,0:0:0:0:
80,128,157038,1,0,0:0:0:0:
208,96,157106,6,0,L|256:96,1,48,4|0,0:0|0:0,0:0:0:0:
80,32,157243,2,0,L|128:32,1,48
272,80,157379,6,0,L|304:112,2,24,4|0|0,0:0|0:0|0:0,0:0:0:0:
240,80,157481,1,0,0:0:0:0:
128,144,157515,2,0,L|96:144,1,24
216,176,157583,2,0,L|240:176,1,24
368,192,157652,6,0,L|400:224,2,24,8|0|0,0:0|0:0|0:0,0:0:0:0:
336,192,157754,1,0,0:0:0:0:
240,256,157788,2,0,L|208:256,1,24
112,304,157856,2,0,L|136:304,1,24
304,336,157924,6,0,B|496:336|496:336|399:171|399:171|496:336|496:336|304:336|304:336|400:169,1,960,6|0,0:0|0:0,0:0:0:0:
304,336,159561,6,0,B|112:336|112:336|209:171|209:171|15:171|15:171|112:336|112:336|15:171,1,960,4|0,0:0|0:0,0:0:0:0:
64,144,160993,1,0,0:0:0:0:
15,171,161061,1,0,0:0:0:0:
64,144,161129,1,0,0:0:0:0:
224,128,161197,5,4,0:0:0:0:
496,224,161470,2,0,B|304:224|304:224|399:57|399:57|208:57|208:57|304:224,1,768,8|0,0:0|0:0,0:0:0:0:
112,224,162834,6,0,B|304:224|304:224|209:57|209:57|400:57|400:57,1,576,4|8,0:0|0:0,0:0:0:0:
16,144,163924,1,8,0:0:0:0:
480,224,164197,2,0,L|416:224,1,48,8|0,0:0|0:0,0:0:0:0:
288,224,164334,2,0,L|352:224,1,48
288,224,164470,6,0,P|225:180|208:112,1,144,4|0,0:0|0:0,0:0:0:0:
384,304,164743,2,0,L|400:160,1,144,8|0,0:0|0:0,0:0:0:0:
340,291,165015,2,0,L|399:160,1,144,8|0,0:0|0:0,0:0:0:0:
340,291,165288,2,0,L|399:160,1,144,8|0,0:0|0:0,0:0:0:0:
340,291,165561,2,0,L|399:160,1,144,8|0,0:0|0:0,0:0:0:0:
340,291,165834,2,0,L|384:193,1,96,8|0,0:0|0:0,0:0:0:0:
320,192,166038,1,8,0:0:0:0:
128,304,166106,6,0,L|112:160,1,144,4|0,0:0|0:0,0:0:0:0:
171,291,166379,2,0,L|113:160,1,144,8|0,0:0|0:0,0:0:0:0:
171,291,166651,2,0,L|113:160,1,144,8|0,0:0|0:0,0:0:0:0:
171,291,166924,5,8,0:0:0:0:
202,256,166992,1,0,0:0:0:0:
193,211,167060,1,0,0:0:0:0:
151,191,167128,1,0,0:0:0:0:
213,195,167197,5,8,0:0:0:0:
232,181,167231,1,0,0:0:0:0:
244,160,167265,1,0,0:0:0:0:
245,137,167299,1,0,0:0:0:0:
235,115,167333,1,0,0:0:0:0:
216,100,167367,1,0,0:0:0:0:
193,95,167401,1,0,0:0:0:0:
255,138,167470,5,8,0:0:0:0:
274,124,167504,1,0,0:0:0:0:
286,103,167538,1,0,0:0:0:0:
287,80,167572,1,0,0:0:0:0:
277,58,167606,1,0,0:0:0:0:
258,43,167640,1,0,0:0:0:0:
235,38,167674,1,0,0:0:0:0:
48,160,167743,5,4,0:0:0:0:
256,192,167879,1,0,0:0:0:0:
144,240,168015,1,8,0:0:0:0:
256,272,168152,1,0,0:0:0:0:
48,304,168288,1,8,0:0:0:0:
256,352,168424,2,0,L|320:352,1,48,8|0,0:0|0:0,0:0:0:0:
464,288,168561,6,0,L|400:288,3,48,8|0|0|0,0:0|0:0|0:0|0:0,0:0:0:0:
256,272,168834,2,0,L|240:192,1,48,4|0,0:0|0:0,0:0:0:0:
384,176,168970,2,0,L|448:176,1,48
288,160,169106,2,0,L|240:160,1,48,4|0,0:0|0:0,0:0:0:0:
416,112,169243,2,0,L|352:112,1,48
144,240,169379,6,0,L|96:240,1,48,4|0,0:0|0:0,0:0:0:0:
256,208,169515,2,0,L|304:208,1,48
176,176,169652,2,0,L|128:176,1,48,8|0,0:0|0:0,0:0:0:0:
288,144,169788,2,0,L|336:144,1,48
208,208,169924,2,0,L|256:208,1,48,8|0,0:0|0:0,0:0:0:0:
96,240,170060,2,0,L|48:240,1,48
304,272,170197,6,0,L|176:272,1,96,8|0,0:0|0:0,0:0:0:0:
160,272,170402,1,0,0:0:0:0:
320,208,170470,1,8,0:0:0:0:
272,176,170538,2,0,L|256:112,1,48
308,144,170674,1,0,0:0:0:0:
160,96,170743,2,0,L|0:96,1,144,8|0,0:0|0:0,0:0:0:0:
272,160,171015,5,4,0:0:0:0:
313,180,171083,1,0,0:0:0:0:
330,224,171151,1,0,0:0:0:0:
313,268,171219,1,0,0:0:0:0:
272,160,171288,5,0,0:0:0:0:
230,180,171356,1,0,0:0:0:0:
213,224,171424,1,0,0:0:0:0:
230,268,171492,1,0,0:0:0:0:
384,208,171561,1,0,0:0:0:0:
448,208,171629,1,0,0:0:0:0:
384,208,171697,1,0,0:0:0:0:
320,208,171765,1,0,0:0:0:0:
144,320,171834,5,8,0:0:0:0:
189,306,171902,1,0,0:0:0:0:
218,268,171970,1,0,0:0:0:0:
221,221,172038,1,0,0:0:0:0:
169,211,172106,1,0,0:0:0:0:
123,197,172174,1,0,0:0:0:0:
94,159,172242,1,0,0:0:0:0:
91,112,172310,1,0,0:0:0:0:
240,80,172379,1,0,0:0:0:0:
176,80,172447,1,0,0:0:0:0:
112,80,172515,1,0,0:0:0:0:
176,80,172584,1,0,0:0:0:0:
352,320,172652,5,8,0:0:0:0:
357,273,172720,1,0,0:0:0:0:
333,232,172788,1,0,0:0:0:0:
289,216,172856,1,0,0:0:0:0:
236,200,172924,5,0,0:0:0:0:
230,153,172992,1,0,0:0:0:0:
254,112,173060,1,0,0:0:0:0:
298,96,173128,1,0,0:0:0:0:
384,112,173197,1,0,0:0:0:0:
320,112,173265,1,0,0:0:0:0:
384,112,173334,1,0,0:0:0:0:
320,112,173402,1,0,0:0:0:0:
139,115,173470,5,8,0:0:0:0:
192,144,173538,1,0,0:0:0:0:
145,151,173606,1,0,0:0:0:0:
109,183,173674,1,0,0:0:0:0:
96,228,173742,1,8,0:0:0:0:
108,274,173810,1,0,0:0:0:0:
143,306,173878,1,0,0:0:0:0:
190,315,173947,1,0,0:0:0:0:
16,336,174015,1,8,0:0:0:0:
80,336,174084,1,0,0:0:0:0:
144,336,174152,1,0,0:0:0:0:
80,336,174220,1,0,0:0:0:0:
304,320,174288,5,4,0:0:0:0:
346,298,174356,1,0,0:0:0:0:
389,277,174424,1,0,0:0:0:0:
346,298,174493,1,0,0:0:0:0:
304,320,174561,5,0,0:0:0:0:
261,298,174629,1,0,0:0:0:0:
218,277,174697,1,0,0:0:0:0:
261,298,174766,1,0,0:0:0:0:
448,304,174834,1,0,0:0:0:0:
402,302,174902,1,0,0:0:0:0:
383,261,174970,1,0,0:0:0:0:
411,225,175038,1,0,0:0:0:0:
240,208,175106,6,0,L|192:176,1,48,8|0,0:0|0:0,0:0:0:0:
240,208,175243,2,0,L|288:176,1,48
240,208,175379,2,0,L|192:176,1,48
240,208,175516,2,0,L|288:176,1,48
144,160,175652,1,0,0:0:0:0:
158,114,175720,1,0,0:0:0:0:
191,80,175788,1,0,0:0:0:0:
236,64,175856,1,0,0:0:0:0:
32,192,175924,5,8,0:0:0:0:
80,192,175992,1,0,0:0:0:0:
128,192,176060,1,0,0:0:0:0:
176,192,176129,1,0,0:0:0:0:
224,192,176197,5,0,0:0:0:0:
176,192,176265,1,0,0:0:0:0:
128,192,176333,1,0,0:0:0:0:
80,192,176402,1,0,0:0:0:0:
288,272,176470,1,0,0:0:0:0:
246,254,176538,1,0,0:0:0:0:
246,209,176606,1,0,0:0:0:0:
287,191,176674,1,0,0:0:0:0:
144,320,176743,5,8,0:0:0:0:
192,320,176811,1,0,0:0:0:0:
240,320,176879,1,0,0:0:0:0:
192,320,176947,1,0,0:0:0:0:
144,320,177015,5,8,0:0:0:0:
192,320,177083,1,0,0:0:0:0:
240,320,177151,1,0,0:0:0:0:
192,320,177219,1,0,0:0:0:0:
32,272,177288,2,0,L|48:224,1,48,8|0,0:0|0:0,0:0:0:0:
192,192,177424,2,0,L|144:192,1,48
288,208,177561,6,0,L|304:160,1,48,4|0,0:0|0:0,0:0:0:0:
432,144,177697,2,0,L|448:96,1,48
256,176,177834,2,0,L|272:128,1,48,4|0,0:0|0:0,0:0:0:0:
400,112,177970,2,0,L|416:64,1,48,4|0,0:0|0:0,0:0:0:0:
240,128,178106,2,0,L|224:80,1,48,8|0,0:0|0:0,0:0:0:0:
96,64,178242,2,0,L|80:16,1,48
288,304,178379,6,0,L|336:304,1,48,4|0,0:0|0:0,0:0:0:0:
192,240,178515,2,0,L|144:240,1,48
368,224,178652,2,0,L|320:224,1,48,4|0,0:0|0:0,0:0:0:0:
176,160,178788,2,0,L|224:160,1,48,8|0,0:0|0:0,0:0:0:0:
384,112,178924,2,0,L|432:112,1,48,4|0,0:0|0:0,0:0:0:0:
304,64,179061,2,0,L|384:64,1,48
224,208,179197,6,0,L|208:160,1,48,4|0,0:0|0:0,0:0:0:0:
80,144,179333,2,0,L|64:96,1,48
256,176,179470,2,0,L|240:128,1,48,4|0,0:0|0:0,0:0:0:0:
112,112,179606,2,0,L|96:64,1,48,4|0,0:0|0:0,0:0:0:0:
272,128,179742,2,0,L|288:80,1,48,8|0,0:0|0:0,0:0:0:0:
416,64,179878,2,0,L|432:16,1,48,4|0,0:0|0:0,0:0:0:0:
160,288,180015,6,0,L|224:288,1,48,8|0,0:0|0:0,0:0:0:0:
336,288,180152,2,0,L|400:288,1,48
192,224,180288,5,8,0:0:0:0:
168,227,180322,1,0,0:0:0:0:
148,214,180356,1,0,0:0:0:0:
142,191,180390,1,0,0:0:0:0:
151,170,180424,1,0,0:0:0:0:
172,160,180458,1,0,0:0:0:0:
296,128,180493,2,0,L|272:128,1,24
160,192,180561,5,8,0:0:0:0:
136,195,180595,1,0,0:0:0:0:
116,182,180629,1,0,0:0:0:0:
110,159,180663,1,0,0:0:0:0:
119,138,180697,1,0,0:0:0:0:
140,128,180731,1,0,0:0:0:0:
264,96,180766,2,0,L|240:96,1,24
96,288,180834,6,0,B|288:288|288:288|80:288,1,384,8|8,0:0|0:0,0:0:0:0:
208,240,181515,2,0,L|160:240,1,48,4|0,0:0|0:0,0:0:0:0:
416,288,181652,6,0,B|224:288|224:288|432:288,1,384,8|8,0:0|0:0,0:0:0:0:
304,240,182333,2,0,L|256:240,1,48,4|0,0:0|0:0,0:0:0:0:
416,240,182470,5,8,0:0:0:0:
446,205,182538,1,0,0:0:0:0:
434,161,182606,1,0,0:0:0:0:
390,148,182674,1,0,0:0:0:0:
343,130,182743,5,0,0:0:0:0:
312,95,182811,1,0,0:0:0:0:
324,51,182879,1,0,0:0:0:0:
368,38,182947,1,0,0:0:0:0:
416,16,183015,2,0,L|368:16,1,48
304,16,183152,2,0,L|256:16,1,48
96,256,183288,6,0,L|64:176,3,48,8|0|0|0,0:0|0:0|0:0|0:0,0:0:0:0:
144,192,183561,2,0,L|176:112,3,48
96,144,183834,2,0,L|128:64,1,48,4|0,0:0|0:0,0:0:0:0:
48,96,183970,2,0,L|16:16,1,48,4|0,0:0|0:0,0:0:0:0:
256,48,184106,6,0,L|464:48,1,192,8|0,0:0|0:0,0:0:0:0:
352,80,184515,2,0,L|336:192,1,96,4|8,0:0|0:0,0:0:0:0:
432,192,184788,1,0,0:0:0:0:
304,208,184924,6,0,L|96:208,1,192,8|0,0:0|0:0,0:0:0:0:
208,240,185333,2,0,L|224:352,1,96,4|8,0:0|0:0,0:0:0:0:
128,352,185606,1,0,0:0:0:0:
256,352,185743,6,0,P|336:288|272:240,1,192,8|4,0:0|0:0,0:0:0:0:
176,208,186152,1,4,0:0:0:0:
279,177,186288,2,0,L|263:81,1,96,4|8,0:0|0:0,0:0:0:0:
160,96,186561,6,0,L|384:96,2,192,4|0|4,0:0|0:0|0:0,0:0:0:0:
144,192,187243,1,4,0:0:0:0:
256,48,187379,6,0,L|48:48,1,192,8|0,0:0|0:0,0:0:0:0:
160,80,187788,2,0,L|176:192,1,96,4|8,0:0|0:0,0:0:0:0:
80,192,188061,1,0,0:0:0:0:
208,208,188197,6,0,L|416:208,1,192,8|0,0:0|0:0,0:0:0:0:
304,240,188606,2,0,L|288:352,1,96,4|8,0:0|0:0,0:0:0:0:
384,352,188879,1,0,0:0:0:0:
256,352,189016,6,0,P|176:288|240:240,1,192,8|4,0:0|0:0,0:0:0:0:
336,208,189425,1,4,0:0:0:0:
233,177,189561,2,0,L|128:176,1,96,4|8,0:0|0:0,0:0:0:0:
256,128,189834,6,0,L|480:128,2,192,8|0|4,0:0|0:0|0:0,0:0:0:0:
368,192,190516,1,4,0:0:0:0:
144,288,190652,5,8,0:0:0:0:
368,272,190924,1,8,0:0:0:0:
144,208,191197,2,0,L|128:112,1,96,4|4,0:0|0:0,0:0:0:0:
368,288,191470,5,8,0:0:0:0:
144,272,191742,1,8,0:0:0:0:
368,208,192015,2,4,L|384:112,1,96
144,288,192288,5,8,0:0:0:0:
368,272,192560,1,8,0:0:0:0:
256,240,192697,1,4,0:0:0:0:
368,208,192833,2,0,L|384:112,1,96,4|8,0:0|0:0,0:0:0:0:
256,80,193106,6,0,L|48:80,2,192,4|4|4,0:0|0:0|0:0,0:0:0:0:
144,80,193788,1,8,0:0:0:0:
432,192,193924,5,8,0:0:0:0:
256,192,194197,1,8,0:0:0:0:
80,192,194470,2,4,L|208:192,1,96
432,192,194743,5,8,0:0:0:0:
256,192,195016,1,8,0:0:0:0:
80,192,195289,2,4,L|208:192,1,96
432,192,195561,6,0,L|240:192,1,192,8|4,0:0|0:0,0:0:0:0:
336,192,195970,1,4,0:0:0:0:
112,128,196106,2,0,L|208:128,1,96,4|8,0:0|0:0,0:0:0:0:
496,192,196379,5,4,0:0:0:0:
16,192,196652,1,4,0:0:0:0:
496,192,196924,1,4,0:0:0:0:
16,304,197197,6,0,P|64:256|-4:155,1,192,8|0,0:0|0:0,0:0:0:0:
97,127,197606,1,0,0:0:0:0:
129,215,197742,1,0,0:0:0:0:
96,303,197879,1,0,0:0:0:0:
14,350,198015,1,8,0:0:0:0:
192,336,198288,1,8,0:0:0:0:
14,350,198561,1,8,0:0:0:0:
496,304,198834,6,0,P|448:256|516:155,1,192,8|0,0:0|0:0,0:0:0:0:
415,127,199243,1,0,0:0:0:0:
383,215,199379,1,0,0:0:0:0:
416,303,199516,1,0,0:0:0:0:
496,352,199652,2,0,L|352:288,1,144,8|0,0:0|0:0,0:0:0:0:
272,288,199924,2,0,L|416:224,1,144,8|0,0:0|0:0,0:0:0:0:
432,208,200163,1,0,0:0:0:0:
403,229,200197,2,0,L|272:240,1,96,8|0,0:0|0:0,0:0:0:0:
16,352,200470,6,0,P|48:272|144:240,1,192,8|0,0:0|0:0,0:0:0:0:
214,200,200879,1,0,0:0:0:0:
244,124,201015,1,0,0:0:0:0:
217,46,201152,1,0,0:0:0:0:
147,4,201288,1,8,0:0:0:0:
352,32,201561,2,0,L|256:32,3,64,8|0|0|8,0:0|0:0|0:0|0:0,0:0:0:0:
464,96,202106,6,0,P|384:128|336:256,1,192,8|0,0:0|0:0,0:0:0:0:
384,256,202515,1,0,0:0:0:0:
336,288,202652,1,0,0:0:0:0:
464,320,202788,1,0,0:0:0:0:
256,336,202924,6,0,L|112:336,1,144,8|0,0:0|0:0,0:0:0:0:
304,272,203197,2,0,L|208:272,1,96,8|0,0:0|0:0,0:0:0:0:
432,320,203470,2,0,L|336:320,1,96,8|0,0:0|0:0,0:0:0:0:
32,224,203743,5,8,0:0:0:0:
384,176,204016,1,4,0:0:0:0:
128,176,204152,1,4,0:0:0:0:
432,112,204289,1,8,0:0:0:0:
80,112,204425,1,4,0:0:0:0:
480,48,204561,5,8,0:0:0:0:
32,48,204834,1,4,0:0:0:0:
480,48,204970,1,4,0:0:0:0:
256,48,205107,1,8,0:0:0:0:
32,48,205243,1,4,0:0:0:0:
480,224,205380,5,8,0:0:0:0:
128,176,205653,1,4,0:0:0:0:
384,176,205789,1,4,0:0:0:0:
80,112,205924,1,8,0:0:0:0:
432,112,206062,1,4,0:0:0:0:
32,48,206198,5,8,0:0:0:0:
480,48,206471,1,4,0:0:0:0:
32,48,206607,1,4,0:0:0:0:
480,48,206743,5,8,0:0:0:0:
496,64,206777,1,0,0:0:0:0:
480,80,206811,1,0,0:0:0:0:
312,112,206879,1,8,0:0:0:0:
336,112,206913,1,0,0:0:0:0:
360,112,206947,1,0,0:0:0:0:
208,256,207015,6,0,L|144:256,1,48,4|0,0:0|0:0,0:0:0:0:
304,208,207152,2,0,L|352:208,1,48
496,176,207288,2,0,L|432:176,1,48,4|0,0:0|0:0,0:0:0:0:
272,128,207424,2,0,L|336:128,1,48,4|0,0:0|0:0,0:0:0:0:
144,96,207561,1,8,0:0:0:0:
16,96,207629,1,0,0:0:0:0:
144,96,207697,1,4,0:0:0:0:
272,96,207765,1,0,0:0:0:0:
464,272,207834,6,0,L|416:272,1,48,8|0,0:0|0:0,0:0:0:0:
256,272,207970,2,0,L|304:272,1,48
128,224,208106,2,0,L|64:224,1,48,4|0,0:0|0:0,0:0:0:0:
224,176,208243,2,0,L|272:176,1,48,4|0,0:0|0:0,0:0:0:0:
416,112,208379,2,0,L|432:144,1,24,8|0,0:0|0:0,0:0:0:0:
336,144,208447,2,0,L|320:176,1,24
416,112,208515,2,0,L|432:144,1,24,4|0,0:0|0:0,0:0:0:0:
336,144,208583,2,0,L|320:176,1,24
464,272,208652,6,0,L|480:224,1,48,8|0,0:0|0:0,0:0:0:0:
304,192,208788,2,0,L|240:192,1,48
400,192,208924,2,0,L|384:128,1,48,4|0,0:0|0:0,0:0:0:0:
224,128,209061,2,0,L|160:128,1,48,4|0,0:0|0:0,0:0:0:0:
368,80,209197,2,0,L|432:80,1,48,8|0,0:0|0:0,0:0:0:0:
240,32,209334,2,0,L|304:32,1,48,8|0,0:0|0:0,0:0:0:0:
128,128,209470,6,0,P|64:192|32:320,2,192,8|0|0,0:0|0:0|0:0,0:0:0:0:
464,256,210288,2,0,L|80:256,1,384,8|0,0:0|0:0,0:0:0:0:
416,208,210697,1,8,0:0:0:0:
128,176,210834,1,8,0:0:0:0:
384,144,210970,1,8,0:0:0:0:
272,96,211106,6,0,L|496:96,2,192,8|4|8,0:0|0:0|0:0,0:0:0:0:
224,112,211720,1,0,0:0:0:0:
272,96,211788,1,0,0:0:0:0:
224,112,211856,1,0,0:0:0:0:
160,128,211924,6,0,P|80:176|171:279,1,256.128006683028,10|0,0:1|0:0,0:0:0:0:
320,272,212743,2,0,P|304:224|224:192,2,128.064003341514
176,320,213561,6,0,P|226:242|336:336,1,256.128006683028
224,320,214311,1,0,0:0:0:0:
192,320,214379,2,0,P|132:301|203:174,1,256.128006683028
368,176,215197,6,0,P|352:112|192:16,1,256.128006683028
64,112,216015,2,0,P|80:160|160:192,2,128.064003341514
256,80,216834,6,0,P|320:112|416:288,1,256.128006683028
256,304,217652,2,0,P|192:272|96:96,1,256.128006683028
176,64,218334,1,0,0:0:0:0:
256,112,218470,6,0,P|208:192|160:208,2,128.064003341514
128,96,219288,2,0,L|256:96,2,128.064003341514
272,144,220106,6,0,P|320:160|368:240,2,128.064003341514
144,144,220924,2,0,P|96:160|48:240,2,128.064003341514
320,144,221743,5,0,0:0:0:0:
256,240,222288,2,0,L|336:240,1,64.0320016707569
256,240,222561,2,0,L|224:240,2,32.0160008353784
320,240,222834,1,0,0:0:0:0:
192,192,223243,1,0,0:0:0:0:
336,192,223379,5,0,0:0:0:0:
256,192,223515,12,0,224061,0:0:0:0:
288,240,224197,5,4,0:0:0:0:
257,241,224265,1,0,0:0:0:0:
238,217,224333,1,0,0:0:0:0:
246,187,224401,1,0,0:0:0:0:
288,176,224470,1,4,0:0:0:0:
319,177,224538,1,0,0:0:0:0:
338,153,224606,1,4,0:0:0:0:
330,123,224674,1,0,0:0:0:0:
288,112,224743,5,8,0:0:0:0:
313,105,224777,1,0,0:0:0:0:
332,87,224811,1,0,0:0:0:0:
339,61,224845,1,0,0:0:0:0:
331,36,224879,1,0,0:0:0:0:
312,18,224913,1,0,0:0:0:0:
286,12,224947,1,0,0:0:0:0:
112,32,225015,6,0,B|48:32|48:32|176:32,1,192.096005012271,8|0,0:0|0:0,0:0:0:0:
112,128,225561,2,0,L|48:128,1,64.0320016707569,4|0,0:0|0:0,0:0:0:0:
272,320,225834,6,0,L|288:192,1,96,8|0,0:0|0:0,0:0:0:0:
230,206,226038,1,0,0:0:0:0:
368,272,226106,2,0,L|384:144,1,96,8|0,0:0|0:0,0:0:0:0:
326,158,226310,1,0,0:0:0:0:
464,320,226379,2,0,L|480:192,1,96,8|0,0:0|0:0,0:0:0:0:
422,206,226583,1,0,0:0:0:0:
240,224,226652,6,0,L|144:224,1,96,8|0,0:0|0:0,0:0:0:0:
192,224,226856,1,0,0:0:0:0:
368,176,226924,2,0,L|272:176,1,96
320,176,227128,1,0,0:0:0:0:
160,176,227197,1,8,0:0:0:0:
114,178,227265,1,0,0:0:0:0:
91,139,227334,1,0,0:0:0:0:
115,100,227402,1,8,0:0:0:0:
256,80,227470,6,0,L|368:80,1,96,8|0,0:0|0:0,0:0:0:0:
304,80,227674,1,0,0:0:0:0:
144,128,227743,2,0,L|256:128,1,96
192,128,227947,1,0,0:0:0:0:
32,208,228015,2,0,L|96:208,1,48,8|0,0:0|0:0,0:0:0:0:
208,208,228152,2,0,L|272:208,1,48
464,256,228288,6,0,L|352:256,1,96,8|0,0:0|0:0,0:0:0:0:
144,304,228561,2,0,L|240:304,1,96,4|0,0:0|0:0,0:0:0:0:
352,256,228834,2,0,L|224:256,1,96,4|0,0:0|0:0,0:0:0:0:
16,224,229106,5,8,0:0:0:0:
64,224,229174,2,0,L|160:224,1,96
304,160,229379,2,0,L|192:160,1,96,4|0,0:0|0:0,0:0:0:0:
320,112,229652,2,0,L|416:112,1,96,8|0,0:0|0:0,0:0:0:0:
112,320,229924,6,0,L|96:240,1,48,8|0,0:0|0:0,0:0:0:0:
256,256,230061,2,0,L|240:176,1,48
400,320,230197,1,8,0:0:0:0:
128,288,230334,6,0,L|112:208,1,48,8|0,0:0|0:0,0:0:0:0:
256,256,230471,2,0,L|240:176,1,48
384,288,230607,1,8,0:0:0:0:
144,320,230743,6,0,L|128:240,1,48,8|0,0:0|0:0,0:0:0:0:
208,288,230879,2,0,L|192:208,1,48
272,320,231015,2,0,L|256:240,1,48,8|0,0:0|0:0,0:0:0:0:
336,288,231151,2,0,L|320:208,1,48,4|0,0:0|0:0,0:0:0:0:
192,208,231288,2,0,L|240:208,1,48,4|0,0:0|0:0,0:0:0:0:
112,176,231424,2,0,L|32:176,1,48,8|0,0:0|0:0,0:0:0:0:
240,128,231561,5,8,0:0:0:0:
400,112,231629,1,0,0:0:0:0:
448,96,231697,1,0,0:0:0:0:
176,272,231834,2,0,L|48:272,1,96,8|0,0:0|0:0,0:0:0:0:
192,224,232106,2,0,L|320:224,1,96,8|0,0:0|0:0,0:0:0:0:
496,160,232379,5,8,0:0:0:0:
432,160,232447,2,0,L|336:160,1,96
208,128,232652,2,0,L|304:128,1,96,4|0,0:0|0:0,0:0:0:0:
112,128,232924,2,0,L|16:128,1,96,8|0,0:0|0:0,0:0:0:0:
240,192,233197,5,8,0:0:0:0:
192,224,233265,2,0,L|304:224,1,96
128,272,233470,2,0,L|16:272,1,96,4|0,0:0|0:0,0:0:0:0:
144,304,233743,2,0,L|240:304,1,96,4|0,0:0|0:0,0:0:0:0:
448,256,234015,5,8,0:0:0:0:
400,224,234084,2,0,L|512:224,1,96
352,176,234288,2,0,L|240:176,1,96,4|0,0:0|0:0,0:0:0:0:
144,128,234561,2,0,L|256:128,1,96,8|0,0:0|0:0,0:0:0:0:
448,320,234834,5,8,0:0:0:0:
442,273,234902,1,0,0:0:0:0:
410,238,234970,1,0,0:0:0:0:
364,230,235038,1,0,0:0:0:0:
304,224,235106,1,0,0:0:0:0:
287,180,235174,1,0,0:0:0:0:
312,141,235242,1,0,0:0:0:0:
358,138,235310,1,0,0:0:0:0:
192,112,235379,2,0,L|144:112,1,48,8|0,0:0|0:0,0:0:0:0:
304,64,235515,2,0,L|352:64,1,48,4|0,0:0|0:0,0:0:0:0:
112,224,235652,6,0,L|160:224,1,48,8|0,0:0|0:0,0:0:0:0:
112,224,235788,2,0,L|96:160,1,48
224,160,235924,1,8,0:0:0:0:
269,152,235992,1,0,0:0:0:0:
290,111,236060,1,0,0:0:0:0:
269,70,236128,1,0,0:0:0:0:
128,64,236197,2,0,L|192:64,1,48
32,112,236334,2,0,L|16:176,1,48,4|0,0:0|0:0,0:0:0:0:
224,192,236470,6,0,L|272:192,1,48,8|0,0:0|0:0,0:0:0:0:
128,272,236606,2,0,L|176:272,1,48
320,240,236743,2,0,L|272:240,1,48,8|0,0:0|0:0,0:0:0:0:
400,304,236879,2,0,L|448:304,1,48
272,256,237015,2,0,L|320:256,1,48,8|0,0:0|0:0,0:0:0:0:
192,320,237151,2,0,L|144:320,1,48
320,240,237288,6,0,L|336:176,1,48,4|0,0:0|0:0,0:0:0:0:
144,208,237424,2,0,L|128:144,1,48
304,144,237561,1,4,0:0:0:0:
336,144,237595,1,0,0:0:0:0:
352,100,237629,1,0,0:0:0:0:
336,64,237663,1,0,0:0:0:0:
304,64,237697,1,0,0:0:0:0:
160,48,237765,1,0,0:0:0:0:
288,32,237834,2,0,L|352:32,1,48,8|0,0:0|0:0,0:0:0:0:
208,80,237970,2,0,L|160:80,1,48,8|0,0:0|0:0,0:0:0:0:
320,256,238106,6,0,L|448:256,1,96,4|0,0:0|0:0,0:0:0:0:
192,176,238379,2,0,L|240:176,2,48,8|0|0,0:0|0:0|0:0,0:0:0:0:
80,128,238652,2,0,L|192:128,1,96,8|0,0:0|0:0,0:0:0:0:
400,192,238924,6,0,L|288:192,1,96,8|0,0:0|0:0,0:0:0:0:
192,240,239197,2,0,L|240:240,2,48,4|0|0,0:0|0:0|0:0,0:0:0:0:
480,304,239470,2,0,L|368:304,1,96,8|0,0:0|0:0,0:0:0:0:
112,272,239743,6,0,L|208:272,2,96,4|0|8,0:0|0:0|0:0,0:0:0:0:
368,224,240152,1,0,0:0:0:0:
112,160,240288,2,0,L|224:160,1,96,8|0,0:0|0:0,0:0:0:0:
432,128,240561,6,0,L|336:128,1,96,8|0,0:0|0:0,0:0:0:0:
224,160,240834,2,0,L|320:160,1,96,4|0,0:0|0:0,0:0:0:0:
208,208,241106,2,0,L|80:208,1,96,8|0,0:0|0:0,0:0:0:0:
400,304,241379,6,0,L|288:304,1,96,4|0,0:0|0:0,0:0:0:0:
96,272,241652,2,0,L|144:272,2,48,8|0|0,0:0|0:0|0:0,0:0:0:0:
304,304,241924,2,0,L|400:304,1,96,8|0,0:0|0:0,0:0:0:0:
64,224,242197,6,0,L|16:224,2,48,8|0|0,0:0|0:0|0:0,0:0:0:0:
272,160,242470,2,0,L|160:160,1,96,8|0,0:0|0:0,0:0:0:0:
400,240,242743,2,0,L|448:240,3,48,8|0|0|0,0:0|0:0|0:0|0:0,0:0:0:0:
192,208,243015,6,0,L|208:144,1,48,8|0,0:0|0:0,0:0:0:0:
352,144,243152,2,0,L|336:96,1,48
128,64,243288,1,8,0:0:0:0:
384,224,243424,6,0,L|368:176,1,48,8|0,0:0|0:0,0:0:0:0:
224,160,243561,2,0,L|208:112,1,48
64,240,243697,1,8,0:0:0:0:
368,256,243834,6,0,L|432:256,1,48,8|0,0:0|0:0,0:0:0:0:
256,192,243970,2,0,L|320:192,1,48
128,144,244106,2,0,L|80:144,3,48,8|0|4|0,0:0|0:0|0:0|0:0,0:0:0:0:
240,96,244379,2,0,L|304:96,2,48,8|0|8,0:0|0:0|0:0,0:0:0:0:
288,192,244584,1,0,0:0:0:0:
464,288,244652,5,8,0:0:0:0:
256,288,244788,1,0,0:0:0:0:
480,224,244924,2,0,L|368:224,1,96,4|0,0:0|0:0,0:0:0:0:
144,176,245197,2,0,L|256:176,1,96,4|0,0:0|0:0,0:0:0:0:
16,288,245470,5,8,0:0:0:0:
64,272,245538,2,0,L|160:272,1,96
288,240,245743,2,0,L|176:240,1,96,4|0,0:0|0:0,0:0:0:0:
400,208,246015,2,0,L|512:208,1,96,8|0,0:0|0:0,0:0:0:0:
208,144,246288,5,8,0:0:0:0:
256,112,246356,2,0,L|160:112,1,96
320,64,246561,2,0,L|416:64,1,96,4|0,0:0|0:0,0:0:0:0:
304,96,246834,2,0,L|208:96,1,96,4|0,0:0|0:0,0:0:0:0:
432,288,247106,5,8,0:0:0:0:
384,256,247174,1,0,0:0:0:0:
432,256,247242,1,0,0:0:0:0:
480,256,247310,1,0,0:0:0:0:
304,240,247379,5,4,0:0:0:0:
256,208,247447,1,0,0:0:0:0:
280,208,247481,1,0,0:0:0:0:
304,208,247515,1,0,0:0:0:0:
328,208,247549,1,0,0:0:0:0:
352,208,247583,1,0,0:0:0:0:
176,144,247652,5,8,0:0:0:0:
224,112,247720,1,0,0:0:0:0:
200,112,247754,1,0,0:0:0:0:
176,112,247788,1,0,0:0:0:0:
152,112,247822,1,0,0:0:0:0:
128,112,247856,1,0,0:0:0:0:
416,48,247924,6,0,B|368:304|368:320|352:320|352:304|320:144,1,384,8|8,0:0|0:0,0:0:0:0:
448,160,248606,1,8,0:0:0:0:
208,176,248743,2,0,L|160:176,2,48,4|0|0,0:0|0:0|0:0,0:0:0:0:
96,208,249015,2,0,L|304:208,1,192,4|0,0:0|0:0,0:0:0:0:
32,128,249424,1,8,0:0:0:0:
304,112,249561,6,0,L|240:112,1,48,4|0,0:0|0:0,0:0:0:0:
128,128,249697,2,0,L|80:128,1,48
208,192,249834,2,0,L|272:192,1,48,4|0,0:0|0:0,0:0:0:0:
80,256,249970,2,0,L|128:256,1,48,4|0,0:0|0:0,0:0:0:0:
272,272,250106,2,0,L|224:272,1,48,8|0,0:0|0:0,0:0:0:0:
368,320,250243,2,0,L|320:320,1,48,4|0,0:0|0:0,0:0:0:0:
80,336,250379,6,0,L|128:336,1,48,8|0,0:0|0:0,0:0:0:0:
288,304,250515,2,0,L|224:304,1,48
64,256,250652,2,0,L|32:256,1,24,8|0,0:0|0:0,0:0:0:0:
144,208,250720,2,0,L|176:208,1,24
272,160,250788,2,0,L|208:160,1,48,4|0,0:0|0:0,0:0:0:0:
88,112,250924,2,0,L|64:112,1,24,8|0,0:0|0:0,0:0:0:0:
168,80,250993,2,0,L|192:80,1,24
80,48,251061,2,0,L|0:48,1,48
192,112,251197,6,0,P|256:144|304:272,2,192,6|0|0,0:0|0:0|0:0,0:0:0:0:
48,208,252015,2,0,P|80:272|208:304,1,192
256,272,252424,2,0,L|224:224,1,48
256,272,252561,2,0,L|320:192,1,96
208,144,252834,6,0,P|240:208|368:240,1,192
256,256,253243,2,0,L|288:208,1,48
256,256,253380,2,0,L|192:176,1,96
48,272,253652,2,0,P|112:240|48:160,1,192
256,144,254197,1,0,0:0:0:0:
48,112,254470,6,0,P|48:160|160:224,2,192
192,96,255288,2,0,P|256:112|320:224,1,192
240,240,255697,1,0,0:0:0:0:
336,288,255834,1,0,0:0:0:0:
256,304,255970,1,0,0:0:0:0:
384,320,256106,6,0,P|416:240|336:224,1,192
208,192,256652,2,0,L|288:112,1,96
192,64,256924,2,0,P|128:96|80:208,1,192
240,224,257470,2,0,L|272:256,1,24
64,320,257743,6,0,L|272:320,1,192
448,256,258288,2,0,L|336:256,1,96
224,192,258561,2,0,L|416:192,1,192
192,128,259106,1,0,0:0:0:0:
432,256,259379,6,0,L|240:256,1,192
448,176,259924,2,0,L|352:176,1,96
224,160,260197,2,0,L|32:160,1,192
256,208,260743,1,0,0:0:0:0:
32,272,261015,6,0,L|224:272,2,192
480,272,261834,2,0,L|288:272,2,192
256,208,262515,1,0,0:0:0:0:
480,160,262652,6,0,P|425:122|480:32,1,192,8|0,0:0|0:0,0:0:0:0:
368,32,263061,1,4,0:0:0:0:
144,96,263197,1,8,0:0:0:0:
368,176,263334,1,8,0:0:0:0:
144,320,263470,6,0,P|96:288|176:224,1,192,8|0,0:0|0:0,0:0:0:0:
121,220,263811,2,0,L|169:220,2,48
256,176,264015,2,8,L|352:176,1,96
96,128,264288,6,0,L|304:128,1,192,8|0,0:0|0:0,0:0:0:0:
176,128,264697,1,4,0:0:0:0:
384,192,264834,1,8,0:0:0:0:
176,256,264970,1,8,0:0:0:0:
448,304,265106,6,0,P|448:224|400:160,1,144,8|0,0:0|0:0,0:0:0:0:
256,160,265379,2,0,L|208:160,1,48,4|0,0:0|0:0,0:0:0:0:
352,96,265515,2,0,L|299:93,1,48,4|0,0:0|0:0,0:0:0:0:
128,64,265652,2,0,L|304:64,1,144,8|0,0:0|0:0,0:0:0:0:
80,272,265924,6,0,P|16:224|112:176,1,192,8|0,0:0|0:0,0:0:0:0:
256,160,266470,1,0,0:0:0:0:
432,272,266743,2,0,P|496:224|400:176,2,192,8|0|0,0:0|0:0|0:0,0:0:0:0:
256,272,267561,6,0,P|192:224|288:176,1,192,8|0,0:0|0:0,0:0:0:0:
432,224,268106,1,0,0:0:0:0:
80,272,268379,2,0,L|48:272,1,24,8|0,0:0|0:0,0:0:0:0:
256,272,268652,2,0,P|320:224|224:176,1,192
192,160,268993,1,0,0:0:0:0:
257,159,269061,1,0,0:0:0:0:
192,160,269129,1,0,0:0:0:0:
416,304,269197,6,0,P|432:224|400:144,1,144,4|0,0:0|0:0,0:0:0:0:
256,128,269470,2,0,P|272:208|384:240,1,192,8|0,0:0|0:0,0:0:0:0:
208,288,270015,2,0,P|120:260|96:171,2,192,8|0|0,0:0|0:0|0:0,0:0:0:0:
384,224,270834,6,0,P|360:135|272:107,1,192,8|0,0:0|0:0,0:0:0:0:
80,112,271379,1,0,0:0:0:0:
432,208,271652,6,0,L|464:208,1,24,8|0,0:0|0:0,0:0:0:0:
80,208,271924,2,0,L|48:208,1,24,8|0,0:0|0:0,0:0:0:0:
240,208,272197,2,0,L|304:208,1,48,8|0,0:0|0:0,0:0:0:0:
224,160,272334,2,0,L|288:160,1,48
464,288,272470,6,0,L|480:128,1,144,4|0,0:0|0:0,0:0:0:0:
334,144,272743,2,0,L|494:144,1,144,8|0,0:0|0:0,0:0:0:0:
334,144,273015,2,0,L|494:144,1,144,8|0,0:0|0:0,0:0:0:0:
334,144,273288,2,0,L|494:144,1,144,8|0,0:0|0:0,0:0:0:0:
334,144,273561,2,0,L|494:144,1,144,8|0,0:0|0:0,0:0:0:0:
334,144,273834,2,0,L|448:144,1,96,8|0,0:0|0:0,0:0:0:0:
368,144,274038,1,8,0:0:0:0:
48,288,274106,6,0,L|32:128,1,144,4|0,0:0|0:0,0:0:0:0:
178,144,274379,2,0,L|18:144,1,144,8|0,0:0|0:0,0:0:0:0:
178,144,274651,2,0,L|18:144,1,144,8|0,0:0|0:0,0:0:0:0:
178,144,274924,6,0,L|96:144,3,48,8|0|0|0,0:0|0:0|0:0|0:0,0:0:0:0:
272,112,275197,6,0,L|304:112,6,24,8|0|0|0|0|0|0,0:0|0:0|0:0|0:0|0:0|0:0|0:0,0:0:0:0:
128,80,275470,6,0,L|96:80,6,24,8|0|0|0|0|0|0,0:0|0:0|0:0|0:0|0:0|0:0|0:0,0:0:0:0:
464,176,275743,6,0,L|480:240,1,48,4|0,0:0|0:0,0:0:0:0:
320,192,275879,2,0,L|336:256,1,48
176,208,276015,2,0,L|192:272,1,48,4|0,0:0|0:0,0:0:0:0:
32,224,276151,2,0,L|48:288,1,48,4|0,0:0|0:0,0:0:0:0:
288,304,276288,2,0,L|224:304,1,48,8|0,0:0|0:0,0:0:0:0:
432,288,276424,2,0,L|480:288,1,48,4|0,0:0|0:0,0:0:0:0:
48,176,276561,6,0,L|32:240,1,48,8|0,0:0|0:0,0:0:0:0:
192,192,276697,2,0,L|176:256,1,48
336,208,276833,2,0,L|320:272,1,48,8|0,0:0|0:0,0:0:0:0:
480,224,276969,2,0,L|464:288,1,48,4|0,0:0|0:0,0:0:0:0:
224,304,277106,2,0,L|288:304,1,48,8|0,0:0|0:0,0:0:0:0:
80,288,277242,2,0,L|32:288,1,48,8|0,0:0|0:0,0:0:0:0:
320,240,277379,6,0,L|304:176,1,48,4|0,0:0|0:0,0:0:0:0:
144,160,277515,2,0,L|224:160,1,48,4|0,0:0|0:0,0:0:0:0:
352,128,277652,2,0,L|288:128,1,48,4|0,0:0|0:0,0:0:0:0:
480,96,277788,2,0,L|496:32,1,48,8|0,0:0|0:0,0:0:0:0:
224,48,277924,2,0,L|176:48,1,48,4|0,0:0|0:0,0:0:0:0:
432,128,278061,2,0,L|496:128,1,48,8|0,0:0|0:0,0:0:0:0:
272,288,278197,6,0,P|272:240|352:208,1,144,8|0,0:0|0:0,0:0:0:0:
128,208,278470,2,0,L|208:208,2,64,4|0|0,0:0|0:0|0:0,0:0:0:0:
288,208,278743,2,0,L|432:208,1,144,4|0,0:0|0:0,0:0:0:0:
16,208,279015,6,0,L|16:176,2,24
288,272,279288,6,0,L|352:272,2,48,8|0|0,0:0|0:0|0:0,0:0:0:0:
144,256,279493,1,0,0:0:0:0:
320,224,279561,2,0,L|384:224,2,48,8|0|4,0:0|0:0|0:0,0:0:0:0:
176,208,279766,1,0,0:0:0:0:
320,160,279834,6,0,L|300:84,1,48,8|0,0:0|0:0,0:0:0:0:
251,95,279970,1,0,0:0:0:0:
112,80,280038,1,0,0:0:0:0:
256,32,280106,1,8,0:0:0:0:
304,32,280174,1,0,0:0:0:0:
352,32,280242,1,4,0:0:0:0:
224,64,280311,1,0,0:0:0:0:
96,128,280379,1,8,0:0:0:0:
160,160,280447,1,0,0:0:0:0:
96,176,280515,1,8,0:0:0:0:
160,208,280583,1,8,0:0:0:0:
352,304,280652,6,0,L|304:304,1,48,8|0,0:0|0:0,0:0:0:0:
352,304,280788,2,0,L|416:304,1,48
224,272,280924,2,0,L|160:272,2,48,8|0|4,0:0|0:0|0:0,0:0:0:0:
368,256,281129,1,0,0:0:0:0:
192,224,281197,2,0,L|128:224,2,48,8|0|0,0:0|0:0|0:0,0:0:0:0:
336,208,281402,1,0,0:0:0:0:
192,160,281470,6,0,L|208:80,1,48,8|0,0:0|0:0,0:0:0:0:
256,96,281606,1,0,0:0:0:0:
400,80,281674,1,0,0:0:0:0:
256,32,281742,1,8,0:0:0:0:
208,32,281810,1,0,0:0:0:0:
160,32,281878,1,4,0:0:0:0:
304,64,281947,1,0,0:0:0:0:
128,128,282015,1,8,0:0:0:0:
86,148,282083,1,0,0:0:0:0:
240,160,282152,1,8,0:0:0:0:
282,180,282220,1,8,0:0:0:0:
96,320,282288,5,8,0:0:0:0:
80,272,282356,1,0,0:0:0:0:
96,224,282424,1,0,0:0:0:0:
240,208,282493,1,0,0:0:0:0:
96,320,282561,5,8,0:0:0:0:
64,272,282629,1,0,0:0:0:0:
96,224,282697,1,4,0:0:0:0:
240,208,282766,1,0,0:0:0:0:
416,192,282834,1,8,0:0:0:0:
256,160,282924,1,4,0:0:0:0:
336,144,283015,1,4,0:0:0:0:
160,144,283106,5,8,0:0:0:0:
137,104,283174,1,0,0:0:0:0:
160,64,283242,1,0,0:0:0:0:
205,62,283310,1,0,0:0:0:0:
336,144,283379,1,8,0:0:0:0:
256,160,283470,1,4,0:0:0:0:
416,192,283560,1,4,0:0:0:0:
224,208,283652,1,8,0:0:0:0:
304,224,283743,1,4,0:0:0:0:
144,256,283833,1,4,0:0:0:0:
320,336,283924,6,0,L|368:336,2,48,8|0|0,0:0|0:0|0:0,0:0:0:0:
192,288,284129,1,0,0:0:0:0:
320,256,284197,1,8,0:0:0:0:
368,256,284265,1,0,0:0:0:0:
416,256,284333,1,4,0:0:0:0:
272,256,284402,1,0,0:0:0:0:
128,256,284470,1,8,0:0:0:0:
80,256,284538,1,0,0:0:0:0:
32,256,284606,1,8,0:0:0:0:
176,256,284675,1,8,0:0:0:0:
320,208,284743,6,0,L|352:208,2,24,8|0|0,0:0|0:0|0:0,0:0:0:0:
272,208,284879,2,0,L|336:208,1,48
464,160,285015,2,0,L|400:160,3,48,8|0|4|0,0:0|0:0|0:0|0:0,0:0:0:0:
256,112,285288,2,0,L|320:112,1,48,8|0,0:0|0:0,0:0:0:0:
144,48,285424,2,8,L|192:48,1,48
384,160,285561,6,0,L|416:160,2,32,8|0|0,0:0|0:0|0:0,0:0:0:0:
208,192,285697,2,0,L|176:192,2,32,8|0|0,0:0|0:0|0:0,0:0:0:0:
320,240,285834,6,0,L|352:240,2,32,8|0|0,0:0|0:0|0:0,0:0:0:0:
208,288,285970,1,4,0:0:0:0:
240,288,286015,1,0,0:0:0:0:
272,288,286060,1,0,0:0:0:0:
112,288,286106,6,0,L|64:288,2,32,8|0|0,0:0|0:0|0:0,0:0:0:0:
288,224,286243,2,0,L|336:224,2,32,8|0|0,0:0|0:0|0:0,0:0:0:0:
112,224,286379,5,8,0:0:0:0:
104,192,286424,1,0,0:0:0:0:
96,161,286469,1,0,0:0:0:0:
240,160,286515,1,4,0:0:0:0:
248,129,286560,1,0,0:0:0:0:
256,98,286605,1,0,0:0:0:0:
400,224,286652,5,8,0:0:0:0:
407,192,286697,1,0,0:0:0:0:
415,161,286742,1,0,0:0:0:0:
272,160,286788,1,8,0:0:0:0:
264,129,286833,1,0,0:0:0:0:
256,98,286878,1,0,0:0:0:0:
112,64,286924,5,8,0:0:0:0:
144,64,286969,1,0,0:0:0:0:
176,64,287014,1,0,0:0:0:0:
400,64,287061,1,4,0:0:0:0:
368,64,287106,1,0,0:0:0:0:
336,64,287151,1,0,0:0:0:0:
128,160,287197,6,0,L|96:160,2,32,8|0|0,0:0|0:0|0:0,0:0:0:0:
304,192,287334,2,0,L|336:192,2,32,8|0|0,0:0|0:0|0:0,0:0:0:0:
192,240,287470,6,0,L|160:240,2,32,8|0|0,0:0|0:0|0:0,0:0:0:0:
304,288,287606,1,4,0:0:0:0:
272,288,287651,1,0,0:0:0:0:
240,288,287696,1,0,0:0:0:0:
400,288,287743,6,0,L|448:288,2,32,8|0|0,0:0|0:0|0:0,0:0:0:0:
224,224,287879,2,0,L|176:224,2,32,8|0|0,0:0|0:0|0:0,0:0:0:0:
384,192,288015,6,0,L|416:192,1,32,8|8,0:0|0:0,0:0:0:0:
304,160,288106,2,0,L|272:160,1,32,4|0,0:0|0:0,0:0:0:0:
384,112,288197,2,0,L|416:112,1,32
224,80,288288,6,0,L|192:80,2,32,8|0|0,0:0|0:0|0:0,0:0:0:0:
336,32,288424,2,0,L|368:32,2,32,8|0|0,0:0|0:0|0:0,0:0:0:0:
112,144,288561,6,8,L|80:144,1,32
240,112,288652,2,0,L|272:112,1,32,4|0,0:0|0:0,0:0:0:0:
112,64,288743,2,0,L|80:64,1,32
288,64,288834,6,8,P|368:80|272:272,1,384
128,256,289470,1,8,0:0:0:0:
288,224,289561,1,8,0:0:0:0:
176,96,289652,6,0,P|96:112|192:304,1,384,8|4,0:0|0:0,0:0:0:0:
272,272,290288,1,4,0:0:0:0:
112,224,290379,1,4,0:0:0:0:
304,192,290470,6,0,L|368:192,2,64,8|0|0,0:0|0:0|0:0,0:0:0:0:
224,144,290743,2,0,L|288:144,2,64
416,80,291015,2,0,L|352:80,2,64
112,96,291288,6,0,L|64:96,1,48,8|0,0:0|0:0,0:0:0:0:
400,96,291424,2,0,L|448:96,1,48
112,96,291561,2,0,L|64:96,1,48,4|0,0:0|0:0,0:0:0:0:
400,96,291697,2,0,L|448:96,1,48,4|0,0:0|0:0,0:0:0:0:
112,96,291834,2,0,L|64:96,1,48,8|0,0:0|0:0,0:0:0:0:
272,160,291970,2,0,L|208:160,1,48,8|0,0:0|0:0,0:0:0:0:
448,224,292106,5,4,0:0:0:0:
304,176,292379,1,0,0:0:0:0:
448,112,292652,1,0,0:0:0:0:
176,224,292924,5,4,0:0:0:0:
360,160,293197,2,0,L|424:160,3,48,4|0|0|0,0:0|0:0|0:0|0:0,0:0:0:0:
152,160,293470,2,0,L|88:160,3,48,4|0|0|0,0:0|0:0|0:0|0:0,0:0:0:0:
368,336,293743,5,8,0:0:0:0:
413,322,293811,1,0,0:0:0:0:
433,280,293879,1,0,0:0:0:0:
414,238,293947,1,0,0:0:0:0:
369,224,294015,1,0,0:0:0:0:
416,174,294084,1,0,0:0:0:0:
458,152,294152,1,0,0:0:0:0:
487,114,294220,1,0,0:0:0:0:
497,67,294288,1,0,0:0:0:0:
487,114,294356,1,0,0:0:0:0:
458,152,294424,1,0,0:0:0:0:
416,174,294492,1,0,0:0:0:0:
288,240,294561,6,0,L|304:176,1,48,8|0,0:0|0:0,0:0:0:0:
160,192,294697,2,0,L|176:128,1,48
336,176,294834,2,0,L|320:112,1,48,4|0,0:0|0:0,0:0:0:0:
496,128,294970,2,0,L|480:64,1,48,4|0,0:0|0:0,0:0:0:0:
256,80,295106,2,0,L|320:80,1,48,8|0,0:0|0:0,0:0:0:0:
64,80,295242,2,0,L|112:80,1,48,8|0,0:0|0:0,0:0:0:0:
480,352,295379,6,0,B|240:352|240:352|107:150|107:150|65:385|65:385|108:148|108:148|240:352,1,1200,4|0,0:0|0:0,0:0:0:0:
480,352,296197,6,0,B|240:352|240:352|107:150|107:150|65:385|65:385|108:148|108:148|248:341,1,1200,4|0,0:0|0:0,0:0:0:0:
480,352,297015,6,0,B|240:352|240:352|107:150|107:150|65:385|65:385|108:148|108:148|257:336,1,1200,4|0,0:0|0:0,0:0:0:0:
480,352,297833,6,0,B|240:352|240:352|107:150|107:150|65:385|65:385|108:148|108:148|265:327,1,1200,4|0,0:0|0:0,0:0:0:0:
480,352,298652,6,0,B|240:352|240:352|107:150|107:150|65:385|65:385|108:148|108:148|272:321,1,1200,4|0,0:0|0:0,0:0:0:0:
480,352,299470,6,0,B|240:352|240:352|107:150|107:150|65:385|65:385|108:148|108:148|279:315,1,1200,4|0,0:0|0:0,0:0:0:0:
480,352,300288,6,0,B|240:352|240:352|107:150|107:150|65:385|65:385|108:148|108:148|287:306,1,1200,4|0,0:0|0:0,0:0:0:0:
480,352,301106,6,0,B|240:352|240:352|107:150|107:150|65:385|65:385|108:148|108:148|296:294,1,1200,4|0,0:0|0:0,0:0:0:0:
496,288,301924,2,0,L|448:240,1,60,2|0,0:0|0:0,0:0:0:0:
