osu file format v14

[General]
AudioFilename: audio.mp3
AudioLeadIn: 0
PreviewTime: 209470
Countdown: 0
SampleSet: Soft
StackLeniency: 0.3
Mode: 0
LetterboxInBreaks: 0
WidescreenStoryboard: 1

[Editor]
Bookmarks: 561,834,13924,27015,40106,53197,66288,79379,92470,105561,118652,131743,144834,154652,156288,157924,171015,184106,197197,211924,225015,251197,265924,279288,292106,295379,301924
DistanceSpacing: 1.4
BeatDivisor: 8
GridSize: 32
TimelineZoom: 2.3

[Metadata]
Title:Noel (long ver.)
TitleUnicode:Noël (long ver.)
Artist:Morimori Atsushi vs. uma
ArtistUnicode:モリモリあつし vs. uma
Creator:Realazy
Version:Festive
Source:VOEZ
Tags:Ayyri Christmas C87 Comiket 87 Un Deux Trois... Astral Sky vs. 非可逆リズム Re: End of a Dream Re : M3-39 ASRR-0002
BeatmapID:1491660
BeatmapSetID:705224

[Difficulty]
HPDrainRate:5.4
CircleSize:3.8
OverallDifficulty:9.2
ApproachRate:9.6
SliderMultiplier:1.72
SliderTickRate:1

[Events]
//Background and Video events
0,0,"merry_christmas.jpg",0,0
//Break Periods
//Storyboard Layer 0 (Background)
//Storyboard Layer 1 (Fail)
//Storyboard Layer 2 (Pass)
//Storyboard Layer 3 (Foreground)
//Storyboard Sound Samples

[TimingPoints]
834,272.727272727273,3,2,1,25,1,0
834,-200,3,2,1,25,0,0
6834,-100,3,2,1,35,0,0
7379,-133.333333333333,3,2,1,45,0,0
10652,-133.333333333333,3,2,1,60,0,0
11197,-153.846153846153,3,2,1,45,0,0
11470,-133.333333333333,3,2,1,60,0,0
13924,-100,3,2,1,70,0,0
26197,-300.00000003,3,2,1,70,0,0
27015,-181.818181818182,3,2,1,35,0,0
33561,-153.846153846154,3,2,1,45,0,0
36834,-200,3,2,1,55,0,0
39561,-133.333333333333,3,2,1,45,0,0
40106,-111.111111111111,3,2,1,70,0,0
53197,-100,3,2,1,70,0,0
66288,-125,3,2,1,55,0,0
72834,-111.111111111111,3,2,1,65,0,0
76106,-100,3,2,1,75,0,0
76652,-125,3,2,1,55,0,0
76924,-100,3,2,1,75,0,0
78561,-300.00000003,3,2,1,60,0,0
79379,-153.846153846153,3,2,1,45,0,0
91106,-153.846153846153,3,2,1,50,0,0
91243,-153.846153846153,3,2,1,55,0,0
91379,-153.846153846153,3,2,1,60,0,0
91515,-153.846153846153,3,2,1,65,0,0
91652,-153.846153846153,3,2,1,70,0,0
92470,-100,3,2,1,70,0,0
105561,-125,3,2,1,50,0,0
112106,-111.111111111111,3,2,1,60,0,0
118652,-111.111111111111,3,2,1,55,0,0
125197,-99.9999999999999,3,2,1,65,0,0
128470,-99.9999999999999,3,2,1,75,0,0
129015,-125,3,2,1,55,0,0
129288,-100,3,2,1,75,0,0
130924,-166.666666666667,3,2,1,35,0,0
131197,-125,3,2,1,45,0,0
131470,-100,3,2,1,55,0,0
131743,-303.030303030303,3,2,1,65,0,0
132288,-303.030303030303,3,2,1,35,0,0
144015,-100,3,2,1,45,0,0
144561,-66.6666666666667,3,2,1,65,0,0
144834,-83.3333333333333,3,2,1,85,0,1
154652,-100,3,2,1,75,0,0
156288,-76.9230769230769,3,2,1,90,0,1
157924,-117.647058823529,3,2,1,45,0,0
164743,-117.647058823529,3,2,1,55,0,0
167743,-117.647058823529,3,2,1,65,0,0
171015,-100,3,2,1,70,0,0
183288,-300.00000003,3,2,1,60,0,0
184106,-166.666666666667,3,2,1,50,0,0
190652,-133.333333333333,3,2,1,60,0,0
197197,-111.111111111111,3,2,1,55,0,0
203743,-100,3,2,1,65,0,0
207561,-125,3,2,1,45,0,0
207834,-100,3,2,1,45,0,0
210288,-100,3,2,1,65,0,0
211924,-300.00000003,3,2,1,50,0,0
224197,-100,3,2,1,60,0,0
224743,-66.6666666666667,3,2,1,70,0,0
225015,-166.666666666667,3,2,1,60,0,0
225561,-125,3,2,1,60,0,0
225834,-100,3,2,1,70,0,0
228288,-83.3333333333333,3,2,1,90,0,1
247924,-100,3,2,1,80,0,0
249561,-83.3333333333333,3,2,1,95,0,1
251197,-166.666666666667,3,2,1,35,0,0
261288,-166.666666666667,3,2,1,40,0,0
261561,-166.666666666667,3,2,1,45,0,0
261834,-166.666666666667,3,2,1,50,0,0
262106,-166.666666666667,3,2,1,55,0,0
262652,-166.666666666667,3,2,1,60,0,0
263470,-142.857142857143,3,2,1,65,0,0
265106,-125,3,2,1,70,0,0
265924,-100,3,2,1,55,0,0
272743,-100,3,2,1,65,0,0
275743,-100,3,2,1,75,0,0
279288,-76.9230769230769,3,2,1,95,0,1
288834,-83.3333333333333,3,2,1,75,0,0
291288,-76.9230769230769,3,2,1,100,0,1
291834,-153.846153846154,3,2,1,80,0,1
292106,-100,3,2,1,30,0,0
292379,-100,3,2,1,40,0,0
292652,-100,3,2,1,50,0,0
292924,-100,3,2,1,60,0,0
293197,-100,3,2,1,70,0,0
293470,-100,3,2,1,80,0,0
293743,-100,3,2,1,90,0,0
294561,-76.9230769230769,3,2,1,100,0,1
295106,-153.846153846154,3,2,1,80,0,1
295379,-416.666666666667,3,2,1,75,0,0

[Colours]
Combo1 : 253,199,85
Combo2 : 255,98,98
Combo3 : 100,217,118
Combo4 : 111,226,247

[HitObjects]
463,275,561,5,0,0:0:0:0:
463,275,697,1,0,0:0:0:0:
463,275,834,6,0,P|474:316|461:357,2,86,2|0|0,0:0|0:0|0:0,0:0:0:0:
401,227,1652,1,2,0:0:0:0:
401,227,1924,5,2,0:0:0:0:
336,271,2061,1,0,0:0:0:0:
336,271,2129,1,0,0:0:0:0:
336,271,2197,1,0,0:0:0:0:
261,238,2334,1,0,0:0:0:0:
247,163,2470,1,2,0:0:0:0:
247,163,2743,5,2,0:0:0:0:
233,88,2879,1,0,0:0:0:0:
233,88,2947,1,0,0:0:0:0:
233,88,3015,1,0,0:0:0:0:
157,56,3152,1,0,0:0:0:0:
90,100,3288,6,0,P|107:182|72:259,1,172,2|2,0:0|0:0,0:0:0:0:
72,260,4106,6,0,P|61:301|68:343,2,86,2|0|0,0:0|0:0|0:0,0:0:0:0:
128,202,4924,1,2,0:0:0:0:
128,202,5197,2,0,L|170:199,1,43
224,262,5470,2,0,L|267:265,1,43
320,201,5743,5,2,0:0:0:0:
317,331,6015,1,0,0:0:0:0:
320,201,6288,5,0,0:0:0:0:
267,265,6424,1,0,0:0:0:0:
317,331,6561,1,2,0:0:0:0:
341,352,6834,6,0,L|395:348,1,43
238,264,6970,2,0,L|182:260,1,43
344,180,7106,1,2,0:0:0:0:
344,180,7174,2,0,L|454:173,1,86,2|0,0:0|0:0,0:0:0:0:
496,111,7379,5,4,0:2:0:0:
429,174,8197,5,4,0:2:0:0:
362,111,9015,5,4,0:2:0:0:
295,174,9561,5,4,0:2:0:0:
429,48,9697,1,0,0:0:0:0:
472,227,9834,1,4,0:2:0:0:
472,251,9902,1,0,0:0:0:0:
473,275,9970,1,0,0:0:0:0:
473,299,10038,1,0,0:0:0:0:
474,323,10106,2,0,L|477:338,4,16.12500061512
340,327,10379,2,0,L|336:342,6,16.12500061512
314,248,10652,5,6,0:0:0:0:
285,261,10720,1,0,0:0:0:0:
253,262,10788,1,0,0:0:0:0:
224,250,10856,1,0,0:0:0:0:
201,228,10924,5,2,0:0:0:0:
195,277,10993,1,0,0:0:0:0:
190,325,11061,2,0,L|187:357,1,32.2500012302399
73,384,11197,2,0,L|67:328,1,55.8999974411012,8|0,0:3|0:0,0:0:0:0:
17,161,11470,5,2,0:0:0:0:
42,162,11538,1,0,0:0:0:0:
68,164,11606,1,0,0:0:0:0:
94,166,11674,1,0,0:0:0:0:
129,138,11743,5,2,0:0:0:0:
154,136,11811,1,0,0:0:0:0:
180,134,11879,1,0,0:0:0:0:
206,132,11947,1,0,0:0:0:0:
240,160,12015,6,0,L|241:176,2,16.12500061512,2|0|0,0:0|0:0|0:0,0:0:0:0:
272,86,12152,1,10,0:0:0:0:
403,228,12288,2,0,P|493:212|513:124,1,193.50000738144,10|0,0:0|0:0,0:0:0:0:
486,51,12834,1,2,0:0:0:0:
437,153,12970,1,2,0:0:0:0:
257,41,13106,5,0,1:0:0:0:
257,41,13174,1,0,0:0:0:0:
257,41,13243,1,0,0:0:0:0:
257,41,13311,1,0,0:0:0:0:
257,41,13379,2,0,L|260:73,1,32.2500012302399
186,168,13515,2,0,L|189:135,1,32.2500012302399
278,271,13652,5,2,0:0:0:0:
241,246,13720,1,2,0:0:0:0:
196,242,13788,1,2,0:0:0:0:
156,262,13856,1,2,0:0:0:0:
132,299,13924,6,0,L|122:384,1,86,10|0,0:0|0:0,0:0:0:0:
24,205,14197,2,0,L|33:290,1,86,10|0,0:0|0:0,0:0:0:0:
132,111,14470,2,0,L|122:196,1,86,10|0,0:0|0:0,0:0:0:0:
349,152,14743,6,0,L|339:66,1,86,10|0,0:0|0:0,0:0:0:0:
241,246,15015,2,0,L|250:160,1,86,10|0,0:0|0:0,0:0:0:0:
349,340,15220,1,0,0:0:0:0:
349,340,15288,2,0,L|339:254,1,86,10|0,0:0|0:0,0:0:0:0:
67,353,15561,6,0,P|109:352|149:368,1,86,10|0,0:0|0:0,0:0:0:0:
143,165,15834,2,0,P|122:202|88:228,1,86,10|0,0:0|0:0,0:0:0:0:
268,324,16106,2,0,P|246:287|240:245,1,86,10|0,0:0|0:0,0:0:0:0:
423,233,16311,1,0,0:0:0:0:
423,233,16379,6,0,L|339:254,1,86,10|0,0:0|0:0,0:0:0:0:
402,59,16652,2,0,L|462:120,1,86,10|0,0:0|0:0,0:0:0:0:
263,164,16856,1,0,0:0:0:0:
263,164,16924,2,0,L|286:81,1,86,10|0,0:0|0:0,0:0:0:0:
131,172,17197,6,0,P|88:178|47:167,1,86,10|0,0:0|0:0,0:0:0:0:
226,258,17470,2,0,P|268:265|309:253,1,86,10|0,0:0|0:0,0:0:0:0:
131,346,17743,2,0,P|88:352|47:341,1,86,10|0,0:0|0:0,0:0:0:0:
309,254,18015,6,0,P|351:247|392:258,1,86,10|0,0:0|0:0,0:0:0:0:
214,167,18288,2,0,P|171:160|130:171,1,86,10|0,0:0|0:0,0:0:0:0:
309,80,18493,1,0,0:0:0:0:
309,80,18561,2,0,P|351:73|392:84,1,86,10|0,0:0|0:0,0:0:0:0:
469,212,18834,6,0,B|458:170|458:170|468:129,1,86,10|0,0:0|0:0,0:0:0:0:
376,293,19106,2,0,B|387:335|387:335|376:375,1,86,10|0,0:0|0:0,0:0:0:0:
283,212,19379,2,0,B|294:170|294:170|283:129,1,86,10|0,0:0|0:0,0:0:0:0:
122,171,19584,1,0,0:0:0:0:
122,171,19652,6,0,L|207:170,1,86,10|0,0:0|0:0,0:0:0:0:
300,334,19924,2,0,L|215:334,1,86,10|0,0:0|0:0,0:0:0:0:
202,329,20129,1,0,0:0:0:0:
190,324,20197,1,8,0:0:0:0:
35,127,20334,1,8,0:0:0:0:
35,127,20402,1,8,0:0:0:0:
35,127,20470,6,0,P|25:168|34:210,1,86,14|0,0:2|0:0,0:0:0:0:
193,212,20743,2,0,P|162:182|121:170,1,86,10|0,0:0|0:0,0:0:0:0:
39,306,21015,2,0,P|79:293|111:264,1,86,10|0,0:0|0:0,0:0:0:0:
123,86,21288,6,0,B|132:127|132:127|121:169,1,86,10|0,0:0|0:0,0:0:0:0:
215,334,21561,2,0,B|206:293|206:293|216:250,1,86,10|0,0:0|0:0,0:0:0:0:
272,139,21834,1,8,0:0:0:0:
427,213,21970,1,8,0:0:0:0:
427,213,22038,1,8,0:0:0:0:
427,213,22106,6,0,L|512:209,1,86,14|0,0:0|0:0,0:0:0:0:
349,290,22379,2,0,L|263:286,1,86,10|0,0:0|0:0,0:0:0:0:
427,367,22652,2,0,L|512:363,1,86,10|0,0:0|0:0,0:0:0:0:
263,286,22924,5,10,0:0:0:0:
220,284,22993,1,0,0:0:0:0:
177,282,23061,1,0,0:0:0:0:
134,280,23129,1,0,0:0:0:0:
91,278,23197,2,0,L|71:287,4,21.5
170,151,23470,2,0,L|189:159,6,21.5
96,107,23743,5,4,0:0:0:0:
96,107,24288,5,8,0:0:0:0:
233,0,24424,1,0,0:0:0:0:
233,0,24493,1,0,0:0:0:0:
233,0,24561,1,4,0:0:0:0:
233,0,25106,5,8,0:0:0:0:
372,107,25243,1,0,0:0:0:0:
372,107,25311,1,0,0:0:0:0:
372,107,25379,1,4,0:0:0:0:
372,107,26197,6,0,L|384:221,1,114.666666666667,4|0,0:0|0:0,0:0:0:0:
346,299,26879,1,0,0:0:0:0:
196,179,27015,6,0,P|173:172|149:170,1,47.3000014434815,6|0,0:1|0:0,0:0:0:0:
77,216,27288,2,0,L|68:310,1,94.600002886963
126,372,27697,1,0,0:0:0:0:
126,372,27834,2,0,L|173:366,1,47.3000014434815,2|0,0:0|0:0,0:0:0:0:
227,297,28106,2,0,L|233:250,1,47.3000014434815
155,216,28379,2,0,L|149:169,1,47.3000014434815
243,92,28652,6,0,P|245:116|242:140,1,47.3000014434815,2|0,0:0|0:0,0:0:0:0:
149,169,28924,2,0,P|127:158|108:145,1,47.3000014434815
129,49,29197,2,0,P|149:35|170:25,1,47.3000014434815
243,92,29470,2,0,L|290:92,1,47.3000014434815,2|0,0:0|0:0,0:0:0:0:
315,198,29743,2,0,L|267:197,1,47.3000014434815
402,131,30015,1,0,0:0:0:0:
402,131,30152,1,0,0:0:0:0:
402,130,30288,6,0,L|397:177,1,47.3000014434815,2|0,0:0|0:0,0:0:0:0:
442,245,30561,2,0,L|437:291,1,47.3000014434815
437,292,31106,6,0,L|390:287,1,47.3000014434815,2|0,0:0|0:0,0:0:0:0:
322,331,31379,2,0,L|275:326,1,47.3000014434815
274,326,31924,6,0,L|278:279,1,47.3000014434815,2|0,0:0|0:0,0:0:0:0:
235,211,32197,2,0,L|239:164,1,47.3000014434815
239,163,32743,6,0,L|285:167,1,47.3000014434815,2|0,0:0|0:0,0:0:0:0:
354,124,33016,2,0,L|400:128,1,47.3000014434815
401,128,33561,5,2,0:0:0:0:
479,293,33834,1,0,3:0:0:0:
479,293,33902,1,0,3:0:0:0:
479,293,33970,1,0,3:0:0:0:
479,293,34038,1,0,3:0:0:0:
479,293,34106,2,0,L|479:330,2,37.2666649607341,0|0|0,3:0|3:0|3:0,3:0:0:0:
376,256,34379,6,0,P|348:259|320:255,1,55.8999974411012,2|0,0:0|0:0,0:0:0:0:
228,174,34652,1,0,0:0:0:0:
228,174,34788,1,0,0:0:0:0:
154,260,34924,1,0,0:0:0:0:
154,260,35061,1,0,0:0:0:0:
174,111,35197,6,0,P|198:96|225:91,1,55.8999974411012,2|0,0:0|0:0,0:0:0:0:
357,101,35470,1,0,0:0:0:0:
357,101,35538,1,0,0:0:0:0:
357,101,35606,1,0,0:0:0:0:
357,101,35674,1,0,0:0:0:0:
357,101,35743,2,0,L|384:99,3,27.9499987205506,0|0|0|0,0:0|3:0|0:0|0:0,0:0:0:0:
463,137,36015,6,0,L|457:220,1,83.8499961616518,2|0,0:0|0:0,0:0:0:0:
459,251,36288,2,0,L|459:264,6,13.9749993602753,0|0|0|0|0|0|0,3:0|3:0|3:0|3:0|3:0|3:0|3:0,3:0:0:0:
384,187,36561,2,0,L|384:173,6,13.9749993602753,0|0|0|0|0|0|0,3:0|3:0|3:0|3:0|3:0|3:0|3:0,3:0:0:0:
327,256,36834,6,0,P|295:263|263:261,1,64.5000024604798,6|0,0:0|0:0,0:0:0:0:
220,190,37106,2,0,P|187:187|156:195,1,64.5000024604798,8|0,0:0|0:0,0:0:0:0:
117,268,37379,2,0,P|96:270|75:268,1,43,8|0,0:0|0:0,0:0:0:0:
0,187,37584,1,8,0:0:0:0:
0,187,37652,6,0,L|5:122,1,64.5,10|0,0:0|0:0,0:0:0:0:
57,58,37924,1,8,0:0:0:0:
57,58,38061,1,8,0:0:0:0:
157,192,38197,1,8,0:0:0:0:
223,23,38334,1,8,0:0:0:0:
223,23,38402,1,8,0:0:0:0:
223,23,38470,5,10,0:0:0:0:
237,182,38606,1,8,0:0:0:0:
316,25,38743,5,10,0:0:0:0:
316,185,38879,1,8,0:0:0:0:
409,35,39016,5,10,0:0:0:0:
395,194,39152,1,8,0:0:0:0:
500,53,39288,5,14,0:0:0:0:
493,91,39356,1,0,0:0:0:0:
487,129,39424,1,0,0:0:0:0:
480,167,39492,1,0,0:0:0:0:
474,205,39561,2,0,L|478:221,4,16.12500061512
357,265,39834,2,0,L|353:280,6,16.12500061512
395,194,40106,6,0,P|397:155|388:118,1,77.3999976379395,4|0,0:0|0:0,0:0:0:0:
262,267,40379,2,0,P|252:229|254:191,1,77.3999976379395,2|8,0:0|0:0,0:0:0:0:
327,33,40652,1,2,1:2:0:0:
230,89,40788,1,0,0:0:0:0:
230,89,40856,1,0,0:0:0:0:
230,89,40924,6,0,L|152:88,1,77.3999976379395,10|8,0:0|0:0,0:0:0:0:
177,192,41197,2,0,L|254:191,1,77.3999976379395,0|8,0:0|0:0,0:0:0:0:
436,107,41402,1,8,0:0:0:0:
436,107,41470,2,0,P|474:101|512:110,1,77.3999976379395,2|0,1:2|0:0,0:0:0:0:
474,200,41743,6,0,P|436:208|399:200,1,77.3999976379395,10|0,0:0|0:0,0:0:0:0:
333,98,42015,1,2,0:0:0:0:
320,292,42152,1,8,0:0:0:0:
333,98,42288,2,0,P|283:71|229:88,1,116.099996456909,2|0,1:2|0:0,0:0:0:0:
229,87,42561,6,0,P|245:122|241:160,1,77.3999976379395,10|8,0:0|0:0,0:0:0:0:
12,90,42834,2,0,P|46:73|84:77,1,77.3999976379395,0|8,0:0|0:0,0:0:0:0:
127,105,43038,1,8,0:0:0:0:
168,135,43106,1,0,1:0:0:0:
0,178,43243,1,0,0:0:0:0:
187,9,43379,6,0,P|224:-1|262:4,1,77.3999976379395,6|0,0:0|0:0,0:0:0:0:
210,214,43652,2,0,P|173:224|135:218,1,77.3999976379395,0|8,0:0|0:0,0:0:0:0:
378,147,43924,1,0,1:0:0:0:
378,147,44197,6,0,L|387:224,1,77.3999976379395,14|8,0:0|0:0,0:0:0:0:
265,87,44470,2,0,L|273:10,1,77.3999976379395,0|8,0:0|0:0,0:0:0:0:
290,57,44674,1,8,0:0:0:0:
307,104,44743,1,0,1:0:0:0:
307,104,45015,6,0,B|298:141|298:141|308:179,1,77.3999976379395,6|0,0:0|0:0,0:0:0:0:
471,89,45288,2,0,B|480:52|480:52|470:14,1,77.3999976379395,0|8,0:0|0:0,0:0:0:0:
468,255,45561,1,0,1:0:0:0:
468,255,45834,6,0,P|431:267|393:264,1,77.3999976379395,14|8,0:0|0:0,0:0:0:0:
299,359,46106,2,0,P|335:346|373:349,1,77.3999976379395
403,361,46311,1,8,0:0:0:0:
407,365,46379,5,0,1:0:0:0:
400,314,46447,1,0,1:0:0:0:
393,264,46515,1,0,1:0:0:0:
387,214,46583,1,0,1:0:0:0:
380,164,46652,6,0,L|390:87,1,77.3999976379395,14|0,0:0|0:0,0:0:0:0:
270,210,46924,2,0,L|280:287,1,77.3999976379395,2|8,0:0|0:0,0:0:0:0:
252,80,47197,2,0,L|262:3,1,77.3999976379395,2|0,1:2|0:0,0:0:0:0:
149,161,47470,6,0,P|110:166|74:155,1,77.3999976379395,10|8,0:0|0:0,0:0:0:0:
204,281,47743,2,0,P|242:275|278:286,1,77.3999976379395,2|8,0:0|0:0,0:0:0:0:
258,240,47947,1,8,0:0:0:0:
237,194,48015,2,0,P|231:155|241:118,1,77.3999976379395,2|0,1:2|0:0,0:0:0:0:
311,374,48288,6,0,B|272:379|272:379|236:368,1,77.3999976379395,14|0,0:0|0:0,0:0:0:0:
328,162,48561,2,0,B|366:156|366:156|402:167,1,77.3999976379395,2|8,0:0|0:0,0:0:0:0:
278,286,48834,1,0,1:0:0:0:
333,88,48970,1,0,0:0:0:0:
483,291,49106,5,14,0:0:0:0:
237,194,49243,1,8,0:0:0:0:
493,133,49379,6,0,P|498:172|487:208,1,77.3999976379395,14|8,0:0|0:0,0:0:0:0:
328,162,49584,1,8,0:0:0:0:
328,162,49652,2,0,P|322:123|333:87,1,77.3999976379395,6|8,1:2|0:0,0:0:0:0:
483,291,49924,6,0,L|486:342,2,51.599998425293,14|0|0,0:0|0:0|0:0,0:0:0:0:
403,167,50197,2,0,L|406:115,2,51.599998425293,2|0|0,0:0|0:0|0:0,0:0:0:0:
326,274,50470,1,2,0:0:0:0:
268,332,50560,1,0,0:0:0:0:
186,328,50651,1,0,0:0:0:0:
138,261,50743,6,0,L|134:222,1,38.6999988189698,10|0,0:0|0:0,0:0:0:0:
106,102,50879,2,0,L|102:140,1,38.6999988189698,8|0,0:0|0:0,0:0:0:0:
45,217,51015,2,0,L|27:221,4,19.3499994094849,2|0|0|0|0,0:0|0:0|0:0|0:0|0:0,0:0:0:0:
184,62,51288,2,0,L|202:58,6,19.3499994094849,2|0|0|0|0|0|0,0:0|0:0|0:0|0:0|0:0|0:0|0:0,0:0:0:0:
255,1,51561,5,4,0:0:0:0:
255,1,52652,5,2,0:0:0:0:
207,55,52742,1,2,0:0:0:0:
209,128,52833,1,2,0:0:0:0:
261,178,52924,5,2,0:0:0:0:
209,128,53015,1,2,0:0:0:0:
135,131,53106,1,2,0:0:0:0:
84,183,53197,6,0,P|74:224|83:266,1,86,14|0,0:0|0:0,0:0:0:0:
258,260,53470,2,0,P|269:218|260:176,1,86,8|0,0:0|0:0,0:0:0:0:
102,347,53743,2,0,P|101:303|82:266,1,86,0|0,1:0|0:0,0:0:0:0:
253,348,54015,6,0,L|339:341,1,86,8|0,0:0|0:0,0:0:0:0:
177,170,54288,1,8,0:0:0:0:
342,219,54424,1,8,0:0:0:0:
102,347,54561,2,0,P|153:312|165:250,1,129,2|0,1:2|0:0,0:0:0:0:
100,199,54834,6,0,P|96:157|112:118,1,86,10|0,0:0|0:0,0:0:0:0:
243,42,55106,1,10,0:0:0:0:
243,42,55174,1,2,0:0:0:0:
243,42,55243,2,0,L|240:84,1,43,2|0,0:0|0:0,0:0:0:0:
342,219,55379,2,0,B|334:124|334:124|359:149,1,129,0|0,1:0|0:0,0:0:0:0:
391,284,55652,6,0,P|352:299|310:293,1,86,10|0,0:0|0:0,0:0:0:0:
240,84,55924,1,8,0:0:0:0:
342,219,56061,1,8,0:0:0:0:
100,199,56197,2,0,P|139:184|181:190,1,86,0|0,1:0|0:0,0:0:0:0:
138,349,56470,6,0,L|148:264,1,86,10|0,0:0|0:0,0:0:0:0:
5,167,56743,2,0,L|15:252,1,86,8|0,0:0|0:0,0:0:0:0:
87,0,57015,2,0,L|77:85,1,86,0|0,1:0|0:0,0:0:0:0:
270,152,57288,6,0,B|228:139|228:139|186:147,1,86,8|0,0:0|0:0,0:0:0:0:
104,293,57561,1,8,0:0:0:0:
273,226,57697,1,8,0:0:0:0:
151,78,57834,2,0,P|111:126|121:188,1,129,2|0,1:2|0:0,0:0:0:0:
188,232,58106,6,0,L|273:227,1,86,10|0,0:0|0:0,0:0:0:0:
387,136,58379,1,10,0:0:0:0:
387,136,58447,1,2,0:0:0:0:
387,136,58515,2,0,P|390:156|389:178,1,43,2|0,0:0|0:0,0:0:0:0:
278,350,58652,2,0,P|260:288|274:226,1,129,2|0,1:2|0:0,0:0:0:0:
313,162,58924,5,10,0:0:0:0:
160,322,59061,1,8,0:0:0:0:
382,283,59197,2,0,L|467:267,1,86,0|0,1:0|0:0,0:0:0:0:
184,184,59470,2,0,L|98:199,1,86,0|0,1:0|0:0,0:0:0:0:
385,367,59743,6,0,B|393:323|393:323|381:282,1,86,14|0,0:0|0:0,0:0:0:0:
184,184,60015,2,0,B|176:228|176:228|187:268,1,86,8|0,0:0|0:0,0:0:0:0:
345,89,60288,2,0,L|260:103,1,86,0|0,1:0|0:0,0:0:0:0:
85,42,60561,6,0,P|126:53|158:81,1,86,8|0,0:0|0:0,0:0:0:0:
252,225,60834,1,8,0:0:0:0:
83,137,60970,1,8,0:0:0:0:
275,22,61106,2,0,B|360:8|360:8|397:30,1,129,2|0,1:2|0:0,0:0:0:0:
426,104,61379,6,0,L|420:189,1,86,10|0,0:0|0:0,0:0:0:0:
501,356,61652,1,10,0:0:0:0:
501,356,61720,1,2,0:0:0:0:
501,356,61788,2,0,P|480:348|458:346,1,43,2|0,0:0|0:0,0:0:0:0:
290,364,61924,2,0,P|330:316|325:253,1,129,2|0,1:2|0:0,0:0:0:0:
258,208,62197,6,0,P|244:248|252:290,1,86,10|0,0:0|0:0,0:0:0:0:
389,384,62470,1,8,0:0:0:0:
419,189,62606,1,8,0:0:0:0:
252,290,62743,2,0,P|193:313|132:296,1,129,0|0,1:0|0:0,0:0:0:0:
84,234,63015,6,0,P|76:191|84:149,1,86,10|0,0:0|0:0,0:0:0:0:
252,290,63288,2,0,P|259:332|251:374,1,86,8|0,0:0|0:0,0:0:0:0:
50,304,63561,2,0,B|91:287|91:287|131:295,1,86,0|0,1:0|0:0,0:0:0:0:
229,172,63834,6,0,L|314:165,1,86,8|0,0:0|0:0,0:0:0:0:
411,366,64106,1,8,0:0:0:0:
252,290,64243,1,8,0:0:0:0:
443,249,64379,2,0,P|464:186|439:128,1,129,2|0,1:2|0:0,0:0:0:0:
403,57,64652,6,0,P|444:50|485:64,1,86,10|0,0:0|0:0,0:0:0:0:
314,164,64924,1,10,0:0:0:0:
314,164,64993,1,2,0:0:0:0:
314,164,65061,2,0,P|292:167|271:166,1,43,2|0,0:0|0:0,0:0:0:0:
161,45,65197,2,0,B|173:130|173:130|153:168,1,129,2|0,1:2|0:0,0:0:0:0:
28,273,65470,6,0,L|18:231,1,43,8|0,0:0|0:0,0:0:0:0:
36,281,65743,6,0,L|40:238,1,43,8|0,0:0|0:0,0:0:0:0:
40,290,66015,6,0,L|59:251,1,43,8|0,0:0|0:0,0:0:0:0:
40,299,66288,5,6,1:2:0:0:
67,330,66561,5,2,0:0:0:0:
134,297,66697,1,0,0:0:0:0:
209,309,66834,1,0,0:0:0:0:
284,321,66970,1,0,0:0:0:0:
350,287,67106,2,0,P|372:223|351:159,2,137.6,2|2|2,0:0|0:0|0:0,0:0:0:0:
350,287,67924,5,8,0:0:0:0:
328,322,68197,5,2,0:0:0:0:
256,299,68334,1,0,0:0:0:0:
256,223,68470,1,0,0:0:0:0:
328,200,68606,1,0,0:0:0:0:
372,261,68743,1,2,0:0:0:0:
408,241,69015,5,8,0:0:0:0:
369,120,69152,2,0,L|370:102,2,17.2,8|0|0,0:0|0:0|0:0,0:0:0:0:
328,200,69288,1,8,0:0:0:0:
449,161,69424,1,8,0:0:0:0:
292,30,69561,5,10,0:0:0:0:
267,63,69834,5,2,0:0:0:0:
200,27,69970,1,0,0:0:0:0:
124,33,70106,1,0,0:0:0:0:
79,94,70243,1,0,0:0:0:0:
288,134,70379,2,0,P|336:89|330:23,2,137.6,10|0|0,0:0|0:0|0:0,0:0:0:0:
288,134,71197,5,10,0:0:0:0:
269,170,71470,5,2,0:0:0:0:
195,187,71606,2,0,L|175:175,2,22.9333333333333,2|0|0,0:0|0:0|0:0,0:0:0:0:
212,261,71743,1,0,0:0:0:0:
286,244,71879,1,8,0:0:0:0:
106,133,72015,5,10,0:0:0:0:
106,133,72288,2,0,L|98:201,2,68.8,10|2|10,0:0|0:0|0:0,0:0:0:0:
288,134,72834,5,14,0:0:0:0:
259,97,73106,5,10,0:0:0:0:
278,0,73243,1,0,0:0:0:0:
393,123,73379,1,10,0:0:0:0:
412,26,73516,1,0,0:0:0:0:
246,218,73652,6,0,L|241:140,1,77.3999976379395,14|0,0:0|0:0,0:0:0:0:
227,330,73924,1,10,0:0:0:0:
227,330,74061,1,8,0:0:0:0:
374,220,74198,1,10,0:0:0:0:
374,220,74334,1,8,0:0:0:0:
152,162,74470,5,14,0:0:0:0:
113,188,74743,5,10,0:0:0:0:
52,107,74880,1,0,0:0:0:0:
152,162,75015,1,10,0:0:0:0:
165,62,75152,1,0,0:0:0:0:
274,258,75288,6,0,P|331:257|374:220,1,116.099996456909,14|8,0:0|0:0,0:0:0:0:
392,145,75561,1,10,0:0:0:0:
427,341,75697,1,8,0:0:0:0:
274,258,75834,1,10,0:0:0:0:
274,258,75902,1,8,0:0:0:0:
274,258,75970,2,0,L|292:251,2,19.3499994094849,8|0|0,0:0|0:0|0:0,0:0:0:0:
218,322,76106,5,2,1:2:0:0:
179,342,76174,1,0,0:0:0:0:
137,342,76242,1,0,0:0:0:0:
98,323,76310,1,0,0:0:0:0:
72,290,76379,6,0,L|29:299,1,43
143,184,76515,2,0,L|186:193,1,43
38,97,76652,2,0,P|33:130|41:163,1,68.8,8|0,0:3|0:0,0:0:0:0:
204,29,76924,5,2,0:2:0:0:
256,13,76992,1,0,0:0:0:0:
311,21,77060,1,0,0:0:0:0:
357,51,77128,1,0,0:0:0:0:
386,100,77196,5,2,0:0:0:0:
384,114,77265,1,8,0:0:0:0:
382,128,77334,2,0,L|375:173,1,43
425,236,77470,2,0,L|427:257,4,21.5
287,119,77743,5,0,0:0:0:0:
235,97,77811,1,0,0:0:0:0:
182,113,77879,1,0,0:0:0:0:
150,158,77947,1,0,0:0:0:0:
154,212,78015,6,0,L|156:257,1,43,2|0,0:0|0:0,0:0:0:0:
294,350,78152,2,0,L|291:307,1,43,2|0,0:0|0:0,0:0:0:0:
287,119,78288,6,0,L|289:161,1,43,2|0,0:0|0:0,0:0:0:0:
427,257,78425,2,0,L|424:214,1,43,2|0,0:0|0:0,0:0:0:0:
453,61,78561,6,0,P|417:83|374:85,1,86,10|0,0:0|0:0,0:0:0:0:
301,26,79106,1,2,0:0:0:0:
168,120,79243,1,2,0:0:0:0:
168,120,79311,1,0,0:0:0:0:
168,120,79379,6,0,P|171:148|167:176,1,55.8999974411012,4|0,0:1|0:0,0:0:0:0:
113,232,79652,2,0,P|166:218|218:237,1,111.799994882202
284,289,80061,1,0,0:0:0:0:
284,289,80197,2,0,L|340:285,1,55.8999974411012,2|0,0:0|0:0,0:0:0:0:
429,363,80470,2,0,L|373:359,1,55.8999974411012
449,261,80743,2,0,P|452:233|447:205,1,55.8999974411012
380,126,81015,6,0,P|341:132|296:126,1,83.8499961616518,2|0,0:0|0:0,0:0:0:0:
264,100,81288,2,0,L|208:103,1,55.8999974411012
192,215,81561,2,0,L|247:211,1,55.8999974411012
132,164,81834,2,0,P|112:215|129:267,2,111.799994882202,2|0|2,0:0|0:0|0:0,0:0:0:0:
208,103,82515,1,0,0:0:0:0:
326,222,82652,6,0,L|315:276,1,55.8999974411012,2|0,0:0|0:0,0:0:0:0:
406,328,82924,2,0,L|395:273,1,55.8999974411012,2|0,0:0|0:0,0:0:0:0:
470,169,83197,1,0,0:0:0:0:
470,169,83334,1,0,0:0:0:0:
395,273,83470,6,0,L|405:218,1,55.8999974411012,2|0,0:0|0:0,0:0:0:0:
315,167,83742,2,0,L|325:221,1,55.8999974411012,2|0,0:0|0:0,0:0:0:0:
284,349,84288,6,0,P|256:353|229:348,1,55.8999974411012,2|0,0:0|0:0,0:0:0:0:
170,282,84561,2,0,P|142:276|115:280,1,55.8999974411012,2|0,0:0|0:0,0:0:0:0:
12,356,84834,1,0,0:0:0:0:
12,356,84970,1,0,0:0:0:0:
115,280,85106,6,0,P|142:276|170:282,1,55.8999974411012,2|0,0:0|0:0,0:0:0:0:
229,348,85379,2,0,P|256:353|284:349,1,55.8999974411012,2|0,0:0|0:0,0:0:0:0:
283,349,85924,6,0,P|299:311|299:270,1,83.8499961616518,2|0,0:0|0:0,0:0:0:0:
283,229,86197,2,0,P|277:201|281:174,1,55.8999974411012
404,171,86470,2,0,P|383:189|358:200,1,55.8999974411012
240,105,86743,2,0,P|294:95|343:121,2,111.799994882202,2|0|0,0:0|0:0|0:0,0:0:0:0:
240,105,87561,6,0,P|199:116|156:107,1,83.8499961616518,2|0,0:0|0:0,0:0:0:0:
127,137,87834,2,0,L|119:192,1,55.8999974411012
185,243,88106,2,0,L|192:298,1,55.8999974411012
131,355,88379,6,0,P|76:354|34:317,2,111.799994882202,2|0|0,0:0|0:0|0:0,0:0:0:0:
331,255,89197,5,14,0:0:0:0:
329,232,89470,1,2,0:0:0:0:
327,209,89743,1,2,0:0:0:0:
325,186,90015,1,2,0:0:0:0:
323,163,90288,1,2,0:0:0:0:
321,140,90561,2,0,L|322:126,2,13.9749993602753,2|0|0,0:0|0:0|0:0,0:0:0:0:
245,225,90697,1,8,0:0:0:0:
245,225,90765,1,8,0:0:0:0:
245,225,90834,6,0,P|201:219|164:236,1,83.8499961616518,10|0,0:0|0:0,0:0:0:0:
160,241,91106,1,10,0:0:0:0:
150,251,91174,1,8,0:0:0:0:
133,262,91243,1,8,0:0:0:0:
109,269,91311,1,8,0:0:0:0:
78,265,91379,1,10,0:0:0:0:
47,246,91447,1,8,0:0:0:0:
29,208,91515,1,8,0:0:0:0:
38,160,91584,1,8,0:0:0:0:
79,126,91652,5,10,0:0:0:0:
67,47,91924,2,0,L|65:33,4,13.9749993602753
187,136,92197,5,10,0:0:0:0:
280,29,92334,1,2,0:0:0:0:
404,173,92470,6,0,P|413:214|401:255,1,86,14|0,0:0|0:0,0:0:0:0:
277,111,92743,2,0,P|267:69|279:28,1,86,2|8,0:0|0:0,0:0:0:0:
338,213,93015,1,0,1:0:0:0:
212,294,93152,1,2,0:0:0:0:
212,294,93220,1,2,0:0:0:0:
212,294,93288,6,0,L|126:287,1,86,10|8,0:0|0:0,0:0:0:0:
191,104,93561,2,0,L|276:110,1,86,2|8,0:0|0:0,0:0:0:0:
121,150,93765,1,8,0:0:0:0:
121,150,93834,2,0,B|108:108|108:108|116:67,1,86,2|0,1:2|0:0,0:0:0:0:
281,247,94106,6,0,P|293:288|286:330,1,86,10|0,0:0|0:0,0:0:0:0:
199,202,94379,1,2,0:0:0:0:
373,282,94515,1,2,0:0:0:0:
373,282,94652,1,2,1:2:0:0:
349,86,94788,1,2,0:0:0:0:
349,86,94856,1,2,0:0:0:0:
349,86,94924,6,0,L|351:171,1,86,8|8,0:0|0:0,0:0:0:0:
201,287,95197,2,0,L|198:201,1,86,2|8,0:0|0:0,0:0:0:0:
179,171,95402,1,8,0:0:0:0:
160,142,95470,1,2,1:2:0:0:
65,254,95606,1,2,0:0:0:0:
295,380,95743,6,6,P|336:371|367:342,1,86
351,171,96015,2,0,P|309:179|278:208,1,86,2|8,0:0|0:0,0:0:0:0:
497,227,96288,1,0,1:0:0:0:
497,227,96561,6,0,L|495:141,1,86,14|8,0:0|0:0,0:0:0:0:
349,85,96834,2,0,L|350:170,1,86,2|8,0:0|0:0,0:0:0:0:
322,123,97038,1,8,0:0:0:0:
293,75,97106,1,0,1:0:0:0:
293,75,97379,6,0,B|250:67|250:67|210:80,1,86,14|0,0:0|0:0,0:0:0:0:
319,255,97652,2,0,B|362:263|362:263|401:249,1,86,2|8,0:0|0:0,0:0:0:0:
182,210,97924,1,0,1:0:0:0:
182,210,98197,6,0,P|172:252|182:294,1,86,14|0,0:0|0:0,0:0:0:0:
53,191,98470,2,0,P|79:134|61:74,1,129,2|0,0:0|0:0,0:0:0:0:
0,22,98743,5,0,1:0:0:0:
55,25,98811,1,0,1:0:0:0:
111,29,98879,1,0,1:0:0:0:
167,33,98947,1,0,1:0:0:0:
223,36,99015,6,0,L|265:110,1,86,14|0,0:0|0:0,0:0:0:0:
146,219,99288,2,0,L|188:144,1,86,2|8,0:0|0:0,0:0:0:0:
342,144,99493,1,8,0:0:0:0:
342,144,99561,2,0,L|299:218,1,86,2|0,1:2|0:0,0:0:0:0:
412,94,99834,6,0,B|427:137|427:137|420:176,1,86,10|8,0:0|0:0,0:0:0:0:
265,110,100106,2,0,B|294:75|294:75|332:61,1,86,2|8,0:0|0:0,0:0:0:0:
353,230,100311,1,8,0:0:0:0:
353,230,100379,2,0,B|308:221|308:221|277:195,1,86,2|0,1:2|0:0,0:0:0:0:
135,301,100652,6,0,P|177:306|215:288,1,86,14|0,0:0|0:0,0:0:0:0:
357,183,100924,2,0,P|315:177|277:195,1,86,2|8,0:0|0:0,0:0:0:0:
192,384,101197,1,2,1:2:0:0:
401,318,101334,1,2,0:0:0:0:
161,140,101470,6,0,L|164:226,1,86,14|8,0:0|0:0,0:0:0:0:
240,43,101743,2,0,L|237:128,1,86,2|8,0:0|0:0,0:0:0:0:
97,0,101947,1,8,0:0:0:0:
97,0,102015,2,0,L|99:85,1,86,2|0,1:2|0:0,0:0:0:0:
54,198,102288,6,0,P|27:192|-1:195,2,57.3333333333333,14|0|0,0:0|0:0|0:0,0:0:0:0:
87,296,102561,2,0,P|60:302|32:299,2,57.3333333333333,2|0|0,0:0|0:0|0:0,0:0:0:0:
163,225,102834,1,2,0:0:0:0:
234,194,102924,1,0,0:0:0:0:
302,232,103015,1,0,0:0:0:0:
314,308,103106,6,0,L|312:351,1,43,10|0,0:0|0:0,0:0:0:0:
164,267,103243,2,0,L|162:224,1,43,8|0,0:0|0:0,0:0:0:0:
301,155,103379,2,0,L|322:152,4,21.5,2|0|0|0|0,0:0|0:0|0:0|0:0|0:0,0:0:0:0:
233,44,103652,2,0,L|212:41,6,21.5,2|0|0|0|0|0|0,0:0|0:0|0:0|0:0|0:0|0:0|0:0,0:0:0:0:
302,8,103924,5,14,0:0:0:0:
302,8,105015,5,2,0:0:0:0:
237,44,105105,1,2,0:0:0:0:
172,82,105196,1,2,0:0:0:0:
108,120,105287,5,2,0:0:0:0:
172,158,105380,1,2,0:0:0:0:
237,196,105471,1,2,0:0:0:0:
302,232,105561,5,14,0:0:0:0:
297,254,105970,5,0,0:0:0:0:
235,298,106106,2,0,P|201:305|167:301,1,68.8
139,372,106379,2,0,P|206:381|273:365,1,137.6
336,292,106788,1,0,0:0:0:0:
336,292,106924,6,0,L|404:292,1,68.8,2|0,0:0|0:0,0:0:0:0:
428,219,107197,2,0,L|359:219,1,68.8,2|0,0:0|0:0,0:0:0:0:
277,233,107470,1,2,0:0:0:0:
277,233,107538,1,2,0:0:0:0:
277,233,107606,1,2,0:0:0:0:
217,165,107743,2,0,P|183:156|150:164,1,68.8,2|0,0:0|0:0,0:0:0:0:
98,219,108015,2,0,P|76:113|18:204,1,275.2,2|0,0:0|0:0,0:0:0:0:
17,203,108834,5,2,0:0:0:0:
17,203,109243,5,0,0:0:0:0:
85,145,109379,2,0,L|153:147,1,68.8
221,88,109652,2,0,B|195:139|195:139|216:216,1,137.6
319,118,110061,1,0,0:0:0:0:
319,118,110197,6,0,L|300:49,1,68.8,2|0,0:0|0:0,0:0:0:0:
408,109,110470,2,0,L|389:175,1,68.8,2|0,0:0|0:0,0:0:0:0:
349,261,110743,1,2,0:0:0:0:
349,261,110811,1,2,0:0:0:0:
349,261,110879,1,2,0:0:0:0:
274,200,111015,2,0,B|240:197|240:197|208:210,1,68.8,2|0,0:0|0:0,0:0:0:0:
139,270,111288,2,0,P|117:158|29:231,1,275.2,2|0,0:0|0:0,0:0:0:0:
29,231,112106,5,14,0:0:0:0:
61,265,112379,6,0,L|138:259,1,77.3999976379395
177,145,112652,2,0,L|99:150,1,77.3999976379395,0|0,1:0|0:0,0:0:0:0:
230,215,112924,2,0,P|263:148|235:78,2,154.799995275879,8|8|2,0:0|0:0|1:2,0:0:0:0:
230,214,113743,6,0,L|308:220,1,77.3999976379395,10|0,0:0|0:0,0:0:0:0:
390,293,114015,1,10,0:0:0:0:
390,293,114084,1,2,0:0:0:0:
390,293,114152,1,2,0:0:0:0:
476,144,114288,2,0,P|483:181|475:219,1,77.3999976379395,2|0,1:2|0:0,0:0:0:0:
376,87,114561,5,10,0:0:0:0:
376,87,114834,5,8,0:0:0:0:
476,144,114970,1,8,0:0:0:0:
276,144,115106,1,0,1:0:0:0:
276,144,115379,6,0,P|268:181|276:219,1,77.3999976379395,10|0,0:0|0:0,0:0:0:0:
390,293,115652,2,0,P|398:255|390:217,1,77.3999976379395,8|0,0:0|0:0,0:0:0:0:
298,65,115924,2,0,B|259:63|259:63|223:80,1,77.3999976379395,0|0,1:2|0:0,0:0:0:0:
156,170,116197,5,8,0:0:0:0:
156,170,116470,5,8,0:0:0:0:
275,144,116606,1,8,0:0:0:0:
60,97,116743,2,0,P|45:152|55:209,1,116.099996456909,2|0,1:2|0:0,0:0:0:0:
85,249,117015,6,0,L|162:246,1,77.3999976379395,10|0,0:0|0:0,0:0:0:0:
283,152,117288,1,10,0:0:0:0:
283,152,117356,1,2,0:0:0:0:
283,152,117424,1,2,0:0:0:0:
264,334,117561,2,0,P|252:297|258:259,1,77.3999976379395,2|0,1:2|0:0,0:0:0:0:
426,209,117834,6,0,L|387:211,1,38.6999988189698,8|0,0:0|0:0,0:0:0:0:
434,201,118106,6,0,L|395:203,1,38.6999988189698,8|0,0:0|0:0,0:0:0:0:
442,193,118379,6,0,L|480:190,1,38.6999988189698,10|0,0:0|0:0,0:0:0:0:
450,185,118652,5,6,1:2:0:0:
428,143,118924,5,2,0:0:0:0:
364,98,119061,1,0,0:0:0:0:
292,126,119197,1,0,0:0:0:0:
220,154,119333,1,0,0:0:0:0:
155,108,119470,6,0,L|147:32,1,77.3999976379395,2|0,0:0|0:0,0:0:0:0:
78,67,119743,2,0,L|86:143,1,77.3999976379395,2|0,0:0|0:0,0:0:0:0:
16,177,120015,2,0,L|8:101,1,77.3999976379395,2|0,0:0|0:0,0:0:0:0:
81,220,120288,5,2,1:2:0:0:
115,250,120561,5,2,0:0:0:0:
188,225,120697,1,0,0:0:0:0:
246,275,120834,1,0,0:0:0:0:
319,250,120970,1,0,0:0:0:0:
377,300,121106,5,2,0:0:0:0:
377,300,121379,5,8,0:0:0:0:
188,225,121515,1,8,0:0:0:0:
188,225,121584,1,8,0:0:0:0:
188,225,121651,1,8,0:0:0:0:
348,99,121787,1,8,0:0:0:0:
232,351,121924,5,2,1:2:0:0:
212,308,122197,5,2,0:0:0:0:
141,337,122333,1,0,0:0:0:0:
67,318,122469,1,0,0:0:0:0:
18,260,122606,1,0,0:0:0:0:
189,150,122743,6,0,P|197:188|188:224,1,77.3999976379395,2|0,1:2|0:0,0:0:0:0:
120,187,123015,2,0,P|111:149|121:112,1,77.3999976379395,2|0,0:0|0:0,0:0:0:0:
191,75,123288,2,0,P|199:112|189:149,1,77.3999976379395,2|0,0:0|0:0,0:0:0:0:
123,33,123561,5,2,1:2:0:0:
170,0,123834,5,2,0:0:0:0:
221,57,123970,2,0,L|212:81,2,25.7999992126465
298,63,124106,1,0,0:0:0:0:
359,17,124243,1,0,0:0:0:0:
188,149,124379,5,2,1:2:0:0:
188,149,124652,2,0,L|205:224,2,77.3999976379395,2|0|2,1:2|0:0|1:2,0:0:0:0:
10,131,125197,5,14,0:0:0:0:
39,174,125470,5,10,0:0:0:0:
188,149,125606,1,0,0:0:0:0:
20,81,125743,1,10,0:0:0:0:
116,197,125879,1,0,0:0:0:0:
241,82,126015,6,0,L|326:88,1,86,14|0,0:0|0:0,0:0:0:0:
194,236,126288,1,10,0:0:0:0:
194,236,126424,1,8,0:0:0:0:
170,25,126561,1,10,0:0:0:0:
170,25,126697,1,8,0:0:0:0:
358,186,126834,5,14,0:0:0:0:
324,225,127106,5,10,0:0:0:0:
326,88,127243,1,0,0:0:0:0:
194,236,127379,1,10,0:0:0:0:
192,99,127516,1,0,0:0:0:0:
263,300,127652,6,0,P|208:330|146:319,1,129,14|8,0:0|0:0,0:0:0:0:
116,300,127924,1,10,0:0:0:0:
258,162,128061,1,0,0:0:0:0:
453,269,128197,1,10,0:0:0:0:
453,269,128265,1,8,0:0:0:0:
453,269,128334,2,0,L|457:296,2,21.5
467,184,128470,5,10,0:0:0:0:
430,154,128538,1,0,0:0:0:0:
384,146,128606,1,0,0:0:0:0:
339,160,128674,1,0,0:0:0:0:
306,193,128742,5,0,0:0:0:0:
258,162,128811,1,0,0:0:0:0:
211,132,128879,2,0,L|204:89,1,43
110,10,129015,2,0,L|101:78,1,68.8,8|0,0:3|0:0,0:0:0:0:
31,283,129288,5,2,0:0:0:0:
70,320,129356,1,0,0:0:0:0:
124,319,129424,1,0,0:0:0:0:
161,278,129492,1,0,0:0:0:0:
157,224,129560,5,2,0:0:0:0:
170,228,129629,1,0,0:0:0:0:
182,232,129697,2,0,L|222:245,1,43
325,198,129834,2,0,L|304:192,4,21.5,2|0|0|0|0,0:0|0:0|0:0|0:0|0:0,0:0:0:0:
410,296,130106,5,0,0:0:0:0:
446,255,130174,1,0,0:0:0:0:
463,202,130242,1,0,0:0:0:0:
455,147,130310,1,0,0:0:0:0:
425,100,130379,6,0,L|387:81,1,43,2|0,0:0|0:0,0:0:0:0:
245,142,130515,2,0,L|283:122,1,43,2|0,0:0|0:0,0:0:0:0:
467,39,130652,6,0,L|428:19,1,43,2|0,0:0|0:0,0:0:0:0:
203,80,130788,2,0,L|241:60,1,43,2|0,0:0|0:0,0:0:0:0:
326,198,130924,6,0,L|300:199,3,25.7999992126465,2|0|0|0,0:0|0:0|0:0|0:0,0:0:0:0:
237,250,131197,6,0,L|203:252,3,34.4,2|0|0|0,0:0|0:0|0:0|0:0,0:0:0:0:
139,302,131470,6,0,L|95:305,3,43,2|0|0|0,0:0|0:0|0:0|0:0,0:0:0:0:
31,355,131743,5,6,0:1:0:0:
31,355,132288,1,0,0:0:0:0:
72,287,132561,2,0,L|69:230,2,56.7599998267822,2|0|0,0:0|0:0|0:0,0:0:0:0:
133,337,133379,5,2,0:0:0:0:
133,337,133924,1,2,0:0:0:0:
214,287,134129,1,0,0:0:0:0:
214,287,134197,2,0,L|327:296,1,113.519999653564,2|0,0:0|0:0,0:0:0:0:
411,258,135015,5,2,0:0:0:0:
411,258,135561,1,2,0:0:0:0:
459,194,135834,2,0,P|486:187|511:173,2,56.7599998267822,2|2|2,0:0|0:0|0:0,0:0:0:0:
379,186,136652,6,0,P|307:145|231:177,1,170.279999480347,2|0,0:0|0:0,0:0:0:0:
194,247,137743,1,2,0:0:0:0:
98,172,138015,1,2,0:0:0:0:
98,172,138152,1,2,0:0:0:0:
98,172,138288,6,0,L|92:115,2,56.7599998267822,2|2|2,0:0|0:0|0:0,0:0:0:0:
67,245,139106,2,0,L|20:277,2,56.7599998267822,2|2|2,0:0|0:0|0:0,0:0:0:0:
145,235,139924,6,0,L|196:258,1,56.7599998267822,2|2,0:0|0:0,0:0:0:0:
275,249,140470,1,2,0:0:0:0:
145,235,140743,2,0,L|196:258,1,56.7599998267822,2|2,0:0|0:0,0:0:0:0:
275,249,141289,1,2,0:0:0:0:
325,188,141561,5,2,0:0:0:0:
325,188,142106,1,2,0:0:0:0:
364,179,142243,1,0,0:0:0:0:
401,192,142379,2,0,L|413:183,2,14.1899999566956,2|0|2,0:0|0:0|0:0,0:0:0:0:
411,230,142652,1,2,0:0:0:0:
334,321,143061,5,0,0:0:0:0:
334,321,143197,2,0,P|266:302|201:327,1,141.899999566956,2|0,0:0|0:0,0:0:0:0:
82,384,144015,5,0,0:0:0:0:
82,384,144084,1,0,0:0:0:0:
82,384,144152,1,0,0:0:0:0:
88,341,144220,1,0,0:0:0:0:
94,298,144288,6,0,L|100:255,1,43
197,167,144424,2,0,L|190:209,1,43
126,90,144561,6,0,P|86:25|66:99,1,193.50000738144,2|0,0:0|0:0,0:0:0:0:
3,259,144834,6,0,P|50:241|99:255,1,103.199996850586,14|0,0:0|0:0,0:0:0:0:
293,171,145106,2,0,P|245:153|196:167,1,103.199996850586,8|0,0:0|0:0,0:0:0:0:
250,349,145379,2,0,B|243:236|243:236|268:269,1,154.799995275879,8|0,0:0|0:0,0:0:0:0:
374,381,145652,6,0,P|357:332|368:282,1,103.199996850586,10|0,0:0|0:0,0:0:0:0:
503,170,145856,1,8,0:0:0:0:
472,197,145924,2,0,L|369:210,1,103.199996850586,10|0,0:2|0:0,0:0:0:0:
268,45,146197,2,0,L|370:58,1,103.199996850586,10|0,0:0|0:0,0:0:0:0:
206,137,146470,2,0,L|308:150,1,103.199996850586,10|0,0:0|0:0,0:0:0:0:
123,0,146743,6,0,P|143:46|132:97,1,103.199996850586,8|0,0:0|0:0,0:0:0:0:
16,257,147015,2,0,P|58:194|133:180,1,154.799995275879,10|0,0:0|0:0,0:0:0:0:
205,217,147288,5,10,0:0:0:0:
110,384,147424,1,0,0:0:0:0:
110,384,147493,1,8,0:0:0:0:
110,384,147561,2,0,L|113:280,1,103.199996850586,8|0,0:2|0:0,0:0:0:0:
287,135,147834,2,0,L|281:289,1,154.799995275879,10|0,0:0|0:0,0:0:0:0:
281,289,148106,6,0,P|325:264|376:267,1,103.199996850586,14|0,0:0|0:0,0:0:0:0:
468,140,148379,2,0,P|423:164|372:161,1,103.199996850586,8|0,0:0|0:0,0:0:0:0:
227,39,148652,2,0,P|248:110|201:168,1,154.799995275879,10|0,0:0|0:0,0:0:0:0:
114,92,148924,5,10,0:0:0:0:
114,92,148993,2,0,L|165:95,1,51.599998425293,2|0,0:0|0:0,0:0:0:0:
138,238,149129,1,8,0:0:0:0:
102,234,149198,2,0,L|0:226,1,103.199996850586,10|0,0:0|0:0,0:0:0:0:
201,168,149470,2,0,L|303:175,1,103.199996850586,10|0,0:0|0:0,0:0:0:0:
448,348,149743,5,14,0:0:0:0:
492,64,149879,1,0,0:0:0:0:
492,64,149947,1,0,0:0:0:0:
492,64,150016,1,0,0:0:0:0:
361,339,150152,5,14,0:0:0:0:
401,69,150288,1,0,0:0:0:0:
401,69,150356,1,0,0:0:0:0:
401,69,150425,1,0,0:0:0:0:
274,330,150561,5,14,0:0:0:0:
312,74,150697,1,0,0:0:0:0:
312,74,150765,1,0,0:0:0:0:
312,74,150834,1,0,0:0:0:0:
187,321,150970,5,14,0:0:0:0:
224,77,151106,1,2,0:0:0:0:
224,77,151174,1,0,0:0:0:0:
224,76,151243,2,0,L|215:133,1,51.599998425293,2|0,0:0|0:0,0:0:0:0:
116,247,151379,5,8,0:0:0:0:
116,247,151515,1,8,0:0:0:0:
390,250,151652,6,0,L|289:233,1,103.199996850586,14|0,0:0|0:0,0:0:0:0:
381,111,151924,2,0,L|482:127,1,103.199996850586,2|0,0:0|0:0,0:0:0:0:
434,318,152197,5,10,0:0:0:0:
434,318,152265,2,0,P|410:327|384:327,1,51.599998425293,2|0,0:0|0:0,0:0:0:0:
482,127,152402,1,8,0:0:0:0:
504,154,152470,2,0,P|515:203|499:251,1,103.199996850586,10|0,0:0|0:0,0:0:0:0:
306,156,152743,2,0,P|294:106|310:58,1,103.199996850586,10|0,0:0|0:0,0:0:0:0:
129,257,153015,5,14,0:0:0:0:
129,257,153084,2,0,L|180:261,1,51.599998425293,2|0,0:0|0:0,0:0:0:0:
261,353,153288,2,0,L|158:361,1,103.199996850586,10|0,0:0|0:0,0:0:0:0:
203,164,153561,2,0,L|305:155,1,103.199996850586,10|0,0:0|0:0,0:0:0:0:
129,257,153834,5,14,0:0:0:0:
129,257,153903,2,0,L|180:261,1,51.599998425293,2|0,0:0|0:0,0:0:0:0:
298,349,154039,1,8,0:0:0:0:
261,353,154107,2,0,L|158:361,1,103.199996850586,10|0,0:0|0:0,0:0:0:0:
305,155,154380,2,0,L|407:146,1,103.199996850586,14|0,0:0|0:0,0:0:0:0:
130,52,154652,5,14,0:0:0:0:
130,52,155197,5,2,0:0:0:0:
98,159,155334,1,2,0:0:0:0:
299,109,155470,1,10,0:0:0:0:
299,109,155538,1,0,0:0:0:0:
299,109,155607,2,0,L|296:66,1,43
267,216,155743,1,10,0:0:0:0:
267,216,156152,5,2,0:0:0:0:
15,152,156288,5,8,0:0:0:0:
299,109,156424,1,8,0:0:0:0:
194,376,156561,5,8,0:0:0:0:
151,92,156697,1,8,0:0:0:0:
418,196,156834,5,8,0:0:0:0:
134,239,156970,1,8,0:0:0:0:
447,107,157106,5,8,0:0:0:0:
492,140,157174,1,0,0:0:0:0:
509,193,157242,1,0,0:0:0:0:
495,247,157310,1,0,0:0:0:0:
451,283,157379,2,0,L|446:311,4,27.9499987205506
353,124,157652,2,0,L|347:96,6,27.9499987205506
323,212,157924,5,6,0:0:0:0:
255,240,158197,1,2,0:0:0:0:
187,212,158470,1,2,0:0:0:0:
167,141,158743,5,2,0:0:0:0:
187,212,159015,1,2,0:0:0:0:
255,240,159288,1,2,0:0:0:0:
262,56,159561,5,2,0:0:0:0:
190,71,159834,1,2,0:0:0:0:
118,86,160106,1,2,0:0:0:0:
46,101,160379,5,2,0:0:0:0:
46,101,160447,1,2,0:0:0:0:
118,86,160652,1,2,0:0:0:0:
190,71,160924,2,0,L|221:90,3,36.5500006971359,10|8|8|8,0:0|0:0|0:0|0:0,0:0:0:0:
421,52,161470,5,6,0:0:0:0:
411,124,161743,1,2,0:0:0:0:
401,196,162015,5,2,0:0:0:0:
411,124,162288,1,2,0:0:0:0:
421,52,162561,1,2,0:0:0:0:
294,146,162834,5,2,0:0:0:0:
225,169,163106,1,2,0:0:0:0:
153,153,163379,1,2,0:0:0:0:
112,92,163652,6,0,L|77:104,1,36.5500006971359,10|0,0:0|0:0,0:0:0:0:
153,153,163924,2,0,L|129:181,1,36.5500006971359,10|0,0:0|0:0,0:0:0:0:
225,169,164197,2,0,L|218:205,3,36.5500006971359,10|8|8|8,0:0|0:0|0:0|0:0,0:0:0:0:
385,61,164743,5,6,1:2:0:0:
382,90,165015,1,2,1:2:0:0:
379,119,165288,1,2,1:2:0:0:
376,148,165561,1,2,1:2:0:0:
373,177,165834,1,0,1:2:0:0:
209,43,165970,1,8,0:0:0:0:
209,43,166038,1,8,0:0:0:0:
209,43,166106,5,2,1:2:0:0:
212,72,166378,1,2,1:2:0:0:
215,101,166651,1,2,1:2:0:0:
217,130,166924,5,2,1:2:0:0:
206,171,166992,1,0,0:0:0:0:
175,202,167060,1,0,0:0:0:0:
134,215,167128,1,0,0:0:0:0:
91,205,167197,2,0,L|74:200,4,18.275000348568,2|0|0|0|0,0:0|0:0|0:0|0:0|0:0,0:0:0:0:
168,332,167470,2,0,L|150:337,6,18.275000348568,2|0|0|0|0|0|0,0:0|0:0|0:0|0:0|0:0|0:0|0:0,0:0:0:0:
242,297,167743,5,10,0:0:0:0:
217,130,167879,1,0,0:0:0:0:
168,332,168015,5,8,0:0:0:0:
217,130,168151,1,8,0:0:0:0:
331,315,168288,1,14,0:0:0:0:
142,223,168424,1,8,0:0:0:0:
142,223,168493,1,8,0:0:0:0:
142,223,168561,5,10,0:0:0:0:
371,182,168697,1,0,0:0:0:0:
133,129,168834,5,10,0:0:0:0:
371,182,168970,1,8,0:0:0:0:
135,301,169106,1,14,0:0:0:0:
192,30,169243,1,8,0:0:0:0:
192,30,169311,1,8,0:0:0:0:
192,30,169379,5,0,0:0:0:0:
158,15,169447,1,0,0:0:0:0:
121,14,169515,1,0,0:0:0:0:
86,24,169583,1,0,0:0:0:0:
56,44,169651,1,0,0:0:0:0:
33,72,169719,1,0,0:0:0:0:
20,106,169788,1,0,0:0:0:0:
18,142,169856,1,0,0:0:0:0:
28,177,169924,1,0,0:0:0:0:
37,212,169993,1,0,0:0:0:0:
35,248,170061,1,0,0:0:0:0:
22,282,170130,1,0,0:0:0:0:
0,310,170197,5,2,0:0:0:0:
70,383,170470,5,2,0:0:0:0:
124,332,170560,1,2,0:0:0:0:
199,326,170651,1,2,0:0:0:0:
262,365,170743,2,0,P|297:377|334:371,1,73.1000013942719,10|0,0:0|0:0,0:0:0:0:
468,289,171015,6,0,L|463:374,1,86,14|0,0:0|0:0,0:0:0:0:
364,201,171288,2,0,L|368:286,1,86,10|0,0:0|0:0,0:0:0:0:
468,113,171561,2,0,L|463:198,1,86,10|0,0:0|0:0,0:0:0:0:
292,140,171834,6,0,P|327:114|369:106,1,86,10|0,0:0|0:0,0:0:0:0:
276,232,172038,1,0,0:0:0:0:
276,232,172106,2,0,P|236:215|209:182,1,86,10|0,0:0|0:0,0:0:0:0:
364,201,172379,2,0,P|369:243|354:283,1,86,10|0,0:0|0:0,0:0:0:0:
158,349,172652,6,0,L|166:263,1,86,10|0,0:0|0:0,0:0:0:0:
311,310,172924,2,0,L|275:231,1,86,10|0,0:0|0:0,0:0:0:0:
424,199,173197,2,0,L|354:148,1,86,10|0,0:0|0:0,0:0:0:0:
188,129,173470,6,0,P|229:136|269:120,1,86,10|0,0:0|0:0,0:0:0:0:
94,187,173674,1,0,0:0:0:0:
94,187,173743,2,0,P|52:194|12:178,1,86,10|0,0:0|0:0,0:0:0:0:
193,240,174015,2,0,P|234:247|274:231,1,86,10|0,0:0|0:0,0:0:0:0:
199,44,174288,6,0,L|188:129,1,86,10|0,0:0|0:0,0:0:0:0:
274,231,174561,2,0,L|285:146,1,86,10|0,0:0|0:0,0:0:0:0:
370,247,174834,2,0,L|360:333,1,86,10|0,0:0|0:0,0:0:0:0:
368,148,175106,6,0,B|327:157|327:157|285:145,1,86,10|0,0:0|0:0,0:0:0:0:
178,11,175311,1,0,0:0:0:0:
178,11,175379,2,0,B|206:42|206:42|216:84,1,86,10|0,0:0|0:0,0:0:0:0:
155,245,175652,2,0,B|167:204|167:204|198:174,1,86,10|0,0:0|0:0,0:0:0:0:
2,213,175924,6,0,L|85:193,1,86,10|0,0:0|0:0,0:0:0:0:
238,264,176197,2,0,L|154:244,1,86,10|0,0:0|0:0,0:0:0:0:
2,314,176470,2,0,L|85:294,1,86,10|0,0:0|0:0,0:0:0:0:
253,182,176743,6,0,P|235:221|238:264,1,86,10|0,2:0|2:0,2:0:0:0:
337,143,176947,1,0,0:0:0:0:
337,143,177015,2,0,P|312:109|275:90,1,86,10|0,0:0|0:0,0:0:0:0:
327,235,177288,1,8,0:0:0:0:
429,28,177423,1,8,0:0:0:0:
429,28,177492,1,8,0:0:0:0:
429,28,177560,5,14,0:0:0:0:
401,267,177697,1,8,0:0:0:0:
273,89,177834,5,10,0:0:0:0:
505,84,177970,1,8,0:0:0:0:
253,182,178106,5,10,0:0:0:0:
429,28,178242,1,8,0:0:0:0:
401,267,178379,5,10,0:0:0:0:
336,18,178515,1,0,0:0:0:0:
336,18,178584,1,0,0:0:0:0:
336,18,178652,5,2,0:0:0:0:
145,100,178788,1,8,0:0:0:0:
310,256,178924,5,10,0:0:0:0:
203,25,179061,1,0,0:0:0:0:
203,25,179129,1,0,0:0:0:0:
203,25,179197,5,10,0:0:0:0:
429,28,179334,1,8,0:0:0:0:
253,182,179470,5,10,0:0:0:0:
336,18,179606,1,8,0:0:0:0:
310,256,179743,5,10,0:0:0:0:
273,89,179879,1,8,0:0:0:0:
432,253,180015,5,10,0:0:0:0:
426,295,180083,1,0,0:0:0:0:
402,335,180151,1,0,0:0:0:0:
366,362,180219,1,0,0:0:0:0:
322,373,180288,2,0,L|304:385,4,21.5,2|0|0|0|0,0:0|0:0|0:0|0:0|0:0,0:0:0:0:
216,283,180561,2,0,L|195:277,6,21.5,2|0|0|0|0|0|0,0:0|0:0|0:0|0:0|0:0|0:0|0:0,0:0:0:0:
135,328,180834,5,14,0:0:0:0:
135,328,181379,5,8,0:0:0:0:
170,77,181515,1,8,0:0:0:0:
170,77,181584,1,8,0:0:0:0:
170,77,181652,1,14,0:0:0:0:
170,77,182197,5,8,0:0:0:0:
287,303,182333,1,8,0:0:0:0:
287,303,182402,1,8,0:0:0:0:
287,303,182470,1,14,0:0:0:0:
287,303,183288,6,0,P|342:291|393:314,1,114.666666666667,14|0,0:0|0:0,0:0:0:0:
444,377,183970,1,2,0:0:0:0:
511,281,184106,6,0,L|500:126,1,154.799995275879,14|0,0:0|0:0,0:0:0:0:
458,55,184652,2,0,P|432:58|407:54,1,51.599998425293,2|0,0:0|0:0,0:0:0:0:
500,126,184924,2,0,P|425:140|352:119,1,154.799995275879,2|0,0:0|0:0,0:0:0:0:
293,53,185470,6,0,L|312:5,1,51.599998425293,2|0,0:0|0:0,0:0:0:0:
350,118,185743,2,0,B|370:220|370:220|351:267,1,154.799995275879,2|2,0:0|0:0,0:0:0:0:
268,296,186288,5,2,0:0:0:0:
284,211,186424,1,2,0:0:0:0:
333,352,186561,2,0,P|266:383|199:349,1,154.799995275879,2|0,0:0|0:0,0:0:0:0:
165,201,187106,1,2,0:0:0:0:
165,201,187243,1,2,0:0:0:0:
165,201,187379,6,0,P|93:188|82:116,1,154.799995275879,2|0,0:0|0:0,0:0:0:0:
115,34,187924,2,0,L|166:32,1,51.599998425293,2|0,0:0|0:0,0:0:0:0:
81,116,188197,2,0,L|235:110,1,154.799995275879,2|0,0:0|0:0,0:0:0:0:
307,62,188743,6,0,P|311:37|306:12,1,51.599998425293,2|0,0:0|0:0,0:0:0:0:
235,109,189015,2,0,P|215:182|235:257,1,154.799995275879,2|0,0:0|0:0,0:0:0:0:
294,326,189561,1,2,0:0:0:0:
205,342,189697,1,2,0:0:0:0:
323,241,189834,6,0,P|397:230|443:287,1,154.799995275879,2|0,0:0|0:0,0:0:0:0:
497,189,190379,1,2,0:0:0:0:
497,189,190515,1,2,0:0:0:0:
497,189,190652,6,0,L|495:124,1,64.5000024604798
434,2,190924,2,0,L|432:66,1,64.5000024604798,8|0,0:0|0:0,0:0:0:0:
343,169,191197,2,0,P|297:181|252:166,1,96.7500036907198,2|0,1:2|0:0,0:0:0:0:
232,148,191470,6,0,P|240:179|234:210,1,64.5000024604798,10|0,0:0|0:0,0:0:0:0:
107,216,191743,2,0,P|130:194|160:183,1,64.5000024604798,8|0,0:0|0:0,0:0:0:0:
260,286,192015,2,0,P|213:287|173:261,1,96.7500036907198,2|0,1:2|0:0,0:0:0:0:
158,282,192288,6,0,L|147:345,2,64.5000024604798,10|0|8,0:0|0:0|0:0,0:0:0:0:
160,182,192697,1,2,0:0:0:0:
69,230,192834,1,2,1:2:0:0:
73,127,192970,1,2,0:0:0:0:
246,237,193106,6,0,P|293:237|331:208,1,96.7500036907198,10|8,0:0|0:0,0:0:0:0:
348,188,193379,1,8,0:0:0:0:
269,160,193515,1,8,0:0:0:0:
373,344,193652,1,2,1:2:0:0:
373,344,193788,1,2,0:0:0:0:
373,344,193924,6,0,P|405:344|436:337,1,64.5000024604798,10|0,0:0|0:0,0:0:0:0:
411,181,194197,2,0,P|378:180|347:187,1,64.5000024604798,8|0,0:0|0:0,0:0:0:0:
254,315,194470,2,0,P|216:288|168:291,1,96.7500036907198,2|0,1:2|0:0,0:0:0:0:
146,304,194743,6,0,L|138:239,1,64.5000024604798,10|0,0:0|0:0,0:0:0:0:
89,71,195015,1,8,0:0:0:0:
52,189,195152,1,8,0:0:0:0:
197,48,195288,2,0,L|290:73,1,96.7500036907198,2|0,1:2|0:0,0:0:0:0:
315,82,195561,6,0,P|310:50|316:18,2,64.5000024604798,10|0|8,0:0|0:0|0:0,0:0:0:0:
361,178,195970,1,2,0:0:0:0:
426,93,196106,1,2,1:2:0:0:
361,178,196243,1,2,0:0:0:0:
214,77,196379,6,0,L|182:84,1,32.2500012302399,10|0,0:0|0:0,0:0:0:0:
218,85,196652,6,0,L|186:92,1,32.2500012302399,10|0,0:0|0:0,0:0:0:0:
222,93,196924,6,0,L|190:100,1,32.2500012302399,10|0,0:0|0:0,0:0:0:0:
226,101,197197,5,6,1:2:0:0:
210,144,197470,5,2,0:0:0:0:
221,219,197606,1,0,0:0:0:0:
182,284,197742,1,0,0:0:0:0:
111,311,197879,1,0,0:0:0:0:
79,167,198015,6,0,P|118:169|149:190,1,77.3999976379395,2|0,0:0|0:0,0:0:0:0:
182,284,198288,2,0,P|213:305|252:307,1,77.3999976379395,2|0,0:0|0:0,0:0:0:0:
332,251,198561,2,0,P|370:253|401:274,1,77.3999976379395,2|0,0:0|0:0,0:0:0:0:
490,367,198834,5,2,1:2:0:0:
467,326,199106,5,2,0:0:0:0:
479,250,199242,1,0,0:0:0:0:
441,181,199379,1,0,0:0:0:0:
455,105,199515,1,0,0:0:0:0:
307,19,199652,6,0,P|298:56|306:93,1,77.3999976379395,2|0,0:0|0:0,0:0:0:0:
401,249,199924,1,8,0:0:0:0:
238,139,200061,1,8,0:0:0:0:
238,139,200129,1,8,0:0:0:0:
238,139,200197,1,8,0:0:0:0:
442,181,200334,1,10,0:0:0:0:
197,207,200470,5,2,1:2:0:0:
160,236,200743,5,2,0:0:0:0:
89,211,200879,1,0,0:0:0:0:
61,141,201015,1,0,0:0:0:0:
96,75,201152,1,0,0:0:0:0:
15,200,201288,6,0,P|18:238|40:269,1,77.3999976379395,2|0,1:2|0:0,0:0:0:0:
160,236,201561,2,0,P|171:259|190:276,2,51.599998425293,2|0|2,0:0|0:0|0:0,0:0:0:0:
234,213,201834,2,0,P|271:217|306:201,1,77.3999976379395,2|0,0:0|0:0,0:0:0:0:
405,86,202106,5,2,1:2:0:0:
370,55,202379,5,2,0:0:0:0:
292,62,202515,2,0,L|278:41,2,25.7999992126465
237,117,202652,1,0,0:0:0:0:
160,125,202788,1,8,0:0:0:0:
246,252,202924,5,2,1:2:0:0:
246,252,203197,2,0,L|321:234,2,77.3999976379395,2|0|2,1:2|0:0|1:2,0:0:0:0:
130,343,203743,5,14,0:0:0:0:
100,300,204015,5,10,0:0:0:0:
138,165,204152,1,0,0:0:0:0:
180,285,204288,1,10,0:0:0:0:
142,150,204425,1,0,0:0:0:0:
0,224,204561,6,0,P|41:233|82:223,1,86,14|0,0:0|0:0,0:0:0:0:
211,103,204834,1,10,0:0:0:0:
211,103,204970,1,8,0:0:0:0:
41,144,205106,1,10,0:0:0:0:
41,144,205243,1,8,0:0:0:0:
264,203,205379,5,14,0:0:0:0:
303,169,205652,5,10,0:0:0:0:
337,33,205788,1,0,0:0:0:0:
438,131,205924,1,10,0:0:0:0:
303,169,206060,1,0,0:0:0:0:
485,68,206197,6,0,P|517:122|499:182,1,129,14|8,0:0|0:0,0:0:0:0:
475,209,206470,1,10,0:0:0:0:
303,169,206606,1,8,0:0:0:0:
467,296,206743,1,10,0:0:0:0:
467,296,206811,1,8,0:0:0:0:
467,296,206879,2,0,L|492:297,2,21.5,8|0|0,0:0|0:0|0:0,0:0:0:0:
391,327,207015,5,0,0:0:0:0:
356,359,207083,1,0,0:0:0:0:
310,368,207151,1,0,0:0:0:0:
266,354,207219,1,0,0:0:0:0:
235,319,207287,5,0,0:0:0:0:
181,336,207356,1,0,0:0:0:0:
127,352,207424,2,0,L|84:346,1,43
130,205,207561,2,0,P|138:239|133:272,1,68.8,8|0,0:3|0:0,0:0:0:0:
33,124,207834,5,0,0:0:0:0:
80,155,207902,1,0,0:0:0:0:
134,165,207970,1,0,0:0:0:0:
188,151,208038,1,0,0:0:0:0:
231,116,208106,5,0,0:0:0:0:
233,129,208174,1,0,0:0:0:0:
235,141,208243,2,0,L|242:183,1,43
330,227,208379,2,0,L|333:205,4,21.5
243,352,208652,5,0,0:0:0:0:
186,343,208720,1,0,0:0:0:0:
142,310,208788,1,0,0:0:0:0:
118,260,208856,1,0,0:0:0:0:
120,205,208924,6,0,L|134:164,1,43,2|0,0:0|0:0,0:0:0:0:
252,36,209061,2,0,L|238:77,1,43,2|0,0:0|0:0,0:0:0:0:
214,261,209197,6,0,L|228:220,1,43,2|0,0:0|0:0,0:0:0:0:
346,92,209334,2,0,L|332:133,1,43,2|0,0:0|0:0,0:0:0:0:
308,317,209470,5,6,0:1:0:0:
308,317,209743,1,2,0:0:0:0:
308,317,210015,1,2,0:0:0:0:
473,102,210288,6,0,P|393:78|331:132,1,172,10|0,0:0|0:0,0:0:0:0:
276,271,210697,1,10,0:0:0:0:
412,163,210834,1,10,0:0:0:0:
263,185,210970,1,2,0:0:0:0:
358,304,211106,5,8,0:0:0:0:
358,304,211380,1,0,0:0:0:0:
374,290,211448,1,0,0:0:0:0:
391,277,211516,1,0,0:0:0:0:
408,263,211584,1,0,0:0:0:0:
424,250,211652,1,10,0:0:0:0:
196,239,211924,5,6,0:1:0:0:
196,239,212470,1,0,0:0:0:0:
135,195,212743,2,0,P|106:193|79:203,2,57.3333333333333,2|0|0,0:0|0:0|0:0,0:0:0:0:
200,158,213561,5,2,0:0:0:0:
200,158,214106,1,2,0:0:0:0:
276,108,214311,1,0,0:0:0:0:
276,107,214379,2,0,P|331:101|380:130,1,114.666666666667,2|0,0:0|0:0,0:0:0:0:
430,217,215197,5,2,0:0:0:0:
430,217,215743,1,0,0:0:0:0:
382,274,216015,2,0,L|384:331,2,57.3333333333333,2|0|0,0:0|0:0|0:0,0:0:0:0:
325,224,216834,6,0,B|280:210|243:238|243:238|206:266|161:252,1,172,2|0,0:0|0:0,0:0:0:0:
101,210,217924,1,2,0:0:0:0:
185,102,218197,1,2,0:0:0:0:
185,102,218334,1,2,0:0:0:0:
185,103,218470,6,0,L|187:160,2,57.3333333333333,2|2|2,0:0|0:0|0:0,0:0:0:0:
246,60,219288,2,0,L|248:2,2,57.3333333333333,2|2|2,0:0|0:0|0:0,0:0:0:0:
299,112,220106,6,0,P|326:119|355:116,1,57.3333333333333,2|2,0:0|0:0,0:0:0:0:
420,81,220652,1,2,0:0:0:0:
299,112,220924,2,0,P|326:119|355:116,1,57.3333333333333,2|2,0:0|0:0,0:0:0:0:
420,81,221470,1,2,0:0:0:0:
471,134,221743,5,2,0:0:0:0:
471,134,222288,1,0,0:0:0:0:
479,161,222424,1,0,0:0:0:0:
474,189,222561,2,0,L|486:196,2,14.3333333333333,2|0|2,0:0|0:0|0:0,0:0:0:0:
456,211,222834,1,2,0:0:0:0:
358,264,223243,5,0,0:0:0:0:
358,264,223379,2,0,P|290:250|266:186,1,143.333333333333,2|0,0:0|0:0,0:0:0:0:
310,48,224197,5,0,0:0:0:0:
310,48,224265,1,0,0:0:0:0:
310,48,224334,1,0,0:0:0:0:
267,50,224402,1,0,0:0:0:0:
224,52,224470,6,0,L|181:53,1,43,2|0,0:0|0:0,0:0:0:0:
223,188,224606,2,0,L|265:186,1,43,2|0,0:0|0:0,0:0:0:0:
438,133,224743,6,0,P|391:77|398:149,1,193.50000738144,2|0,0:0|0:0,0:0:0:0:
486,262,225015,6,0,P|407:236|375:312,1,180.599994488526,6|0,0:0|0:0,0:0:0:0:
385,348,225561,2,0,L|281:351,1,103.2,10|0,0:0|0:0,0:0:0:0:
214,311,225834,6,0,P|244:256|229:195,1,129,14|0,0:0|0:0,0:0:0:0:
64,173,226106,2,0,P|97:227|158:246,1,129,14|0,0:0|0:0,0:0:0:0:
258,112,226379,2,0,P|194:113|149:156,1,129,14|0,0:0|0:0,0:0:0:0:
167,335,226652,5,10,0:0:0:0:
64,173,226788,1,8,0:0:0:0:
82,352,226924,5,8,0:0:0:0:
149,156,227060,1,8,0:0:0:0:
284,311,227197,1,10,0:0:0:0:
326,319,227265,1,8,0:0:0:0:
366,306,227333,1,8,0:0:0:0:
394,273,227401,1,8,0:0:0:0:
402,232,227470,6,0,L|395:146,1,86,14|0,0:0|0:0,0:0:0:0:
510,346,227743,1,14,0:0:0:0:
510,346,227879,1,2,0:0:0:0:
321,238,228015,1,14,0:0:0:0:
321,238,228084,1,0,0:0:0:0:
321,238,228152,1,0,0:0:0:0:
317,195,228220,1,0,0:0:0:0:
314,152,228288,6,0,L|323:49,1,103.199996850586,14|0,0:0|0:0,0:0:0:0:
203,230,228561,2,0,L|193:127,1,103.199996850586,8|0,0:0|0:0,0:0:0:0:
325,281,228834,2,0,B|284:268|251:293|251:293|218:318|178:305,1,154.799995275879,10|0,0:0|0:0,0:0:0:0:
109,203,229106,6,0,P|160:202|203:230,1,103.199996850586,10|0,0:0|0:0,0:0:0:0:
38,358,229311,1,8,0:0:0:0:
38,358,229379,2,0,L|48:255,1,103.199996850586,10|0,0:0|0:0,0:0:0:0:
193,127,229652,2,0,L|203:230,1,103.199996850586,10|0,0:0|0:0,0:0:0:0:
62,9,229924,5,14,0:0:0:0:
367,27,230060,1,0,0:0:0:0:
367,27,230128,1,0,0:0:0:0:
367,27,230196,1,0,0:0:0:0:
57,91,230334,5,14,0:0:0:0:
347,108,230470,1,0,0:0:0:0:
347,108,230538,1,0,0:0:0:0:
347,108,230607,1,0,0:0:0:0:
52,173,230743,5,14,0:0:0:0:
328,189,230880,1,0,0:0:0:0:
328,189,230948,1,0,0:0:0:0:
328,189,231015,1,0,0:0:0:0:
47,255,231151,5,14,0:0:0:0:
309,271,231288,1,2,0:0:0:0:
309,271,231356,1,0,0:0:0:0:
309,271,231424,2,0,L|257:267,1,51.599998425293,2|0,0:0|0:0,0:0:0:0:
178,180,231561,5,10,0:0:0:0:
178,180,231697,1,8,0:0:0:0:
428,92,231834,6,0,L|421:195,1,103.199996850586,14|0,0:0|0:0,0:0:0:0:
240,112,232106,2,0,L|247:9,1,103.199996850586,10|0,0:0|0:0,0:0:0:0:
316,184,232379,5,10,0:0:0:0:
316,184,232447,2,0,P|291:192|266:191,1,51.599998425293,2|0,0:0|0:0,0:0:0:0:
108,120,232584,1,8,0:0:0:0:
143,99,232652,2,0,P|193:90|240:112,1,103.199996850586,10|0,0:0|0:0,0:0:0:0:
220,260,232924,2,0,P|169:268|123:247,1,103.199996850586,10|0,0:0|0:0,0:0:0:0:
319,132,233197,5,14,0:0:0:0:
319,132,233265,2,0,L|316:183,1,51.599998425293,2|0,0:0|0:0,0:0:0:0:
406,277,233470,2,0,L|508:264,1,103.199996850586,10|0,0:0|0:0,0:0:0:0:
341,365,233743,2,0,L|443:352,1,103.199996850586,10|0,0:0|0:0,0:0:0:0:
318,132,234015,5,14,0:0:0:0:
318,132,234083,2,0,L|315:183,1,51.599998425293,2|0,0:0|0:0,0:0:0:0:
365,282,234220,1,8,0:0:0:0:
406,277,234288,2,0,L|508:264,1,103.199996850586,10|0,0:0|0:0,0:0:0:0:
238,377,234561,2,0,L|340:364,1,103.199996850586,14|0,0:0|0:0,0:0:0:0:
176,208,234834,6,0,P|160:257|171:306,1,103.199996850586,10|0,0:0|0:0,0:0:0:0:
314,183,235106,2,0,P|330:134|319:85,1,103.199996850586,10|0,0:0|0:0,0:0:0:0:
256,262,235379,5,10,0:0:0:0:
84,144,235515,1,10,0:0:0:0:
84,144,235584,1,8,0:0:0:0:
84,144,235652,6,0,L|32:150,1,51.599998425293,10|0,0:0|0:0,0:0:0:0:
101,67,235788,2,0,L|152:73,1,51.599998425293,2|0,0:0|0:0,0:0:0:0:
318,84,235924,5,10,0:0:0:0:
93,228,236061,1,8,0:0:0:0:
93,228,236197,1,8,0:0:0:0:
360,245,236334,1,10,0:0:0:0:
360,245,236402,1,8,0:0:0:0:
360,245,236470,5,12,0:0:0:0:
93,228,236606,1,8,0:0:0:0:
318,84,236743,5,8,0:0:0:0:
219,332,236878,1,8,0:0:0:0:
153,74,237015,5,8,0:0:0:0:
429,189,237152,1,8,0:0:0:0:
429,189,237220,1,8,0:0:0:0:
429,189,237288,5,8,0:0:0:0:
473,163,237356,1,0,0:0:0:0:
497,119,237424,1,0,0:0:0:0:
495,68,237492,1,0,0:0:0:0:
467,25,237561,2,0,L|463:0,4,25.7999992126465
327,104,237834,2,0,L|330:78,6,25.7999992126465
331,193,238106,6,0,P|379:177|429:189,1,103.199996850586,14|0,0:0|0:0,0:0:0:0:
381,323,238379,1,10,0:0:0:0:
381,323,238447,1,2,0:0:0:0:
381,323,238515,2,0,L|383:272,1,51.599998425293,2|0,0:0|0:0,0:0:0:0:
245,234,238652,2,0,L|247:337,1,103.199996850586,10|0,0:0|0:0,0:0:0:0:
68,225,238924,5,10,0:0:0:0:
68,225,238993,2,0,L|119:228,1,51.599998425293,2|0,0:0|0:0,0:0:0:0:
181,130,239129,1,8,0:0:0:0:
140,132,239197,2,0,L|36:138,1,103.199996850586,10|0,0:0|0:0,0:0:0:0:
258,187,239470,2,0,P|276:139|267:89,1,103.199996850586,10|0,0:0|0:0,0:0:0:0:
412,5,239743,6,0,L|399:107,1,103.199996850586,10|0,0:0|0:0,0:0:0:0:
325,251,240015,1,10,0:0:0:0:
267,89,240152,5,2,0:0:0:0:
403,224,240288,1,10,0:0:0:0:
330,43,240424,1,2,0:0:0:0:
192,261,240561,6,0,P|144:280|94:273,1,103.199996850586,10|0,0:0|0:0,0:0:0:0:
47,156,240765,1,8,0:0:0:0:
71,122,240834,2,0,P|118:102|168:109,1,103.199996850586,8|0,0:0|0:0,0:0:0:0:
327,164,241106,2,0,P|279:184|229:177,1,103.199996850586,8|0,0:0|0:0,0:0:0:0:
451,347,241379,6,0,L|456:243,1,103.199996850586,14|0,0:0|0:0,0:0:0:0:
327,164,241652,1,10,0:0:0:0:
324,215,241720,1,2,0:0:0:0:
321,267,241788,2,0,L|318:318,1,51.599998425293,2|0,0:0|0:0,0:0:0:0:
230,377,241924,2,0,P|206:309|134:315,1,154.799995275879,10|0,0:0|0:0,0:0:0:0:
46,375,242197,5,10,0:0:0:0:
46,374,242265,2,0,P|53:350|53:324,1,51.599998425293,2|0,0:0|0:0,0:0:0:0:
15,183,242402,1,8,0:0:0:0:
43,211,242470,2,0,P|89:231|140:225,1,103.199996850586,10|0,0:0|0:0,0:0:0:0:
335,172,242743,1,10,0:0:0:0:
335,172,242811,1,2,0:0:0:0:
335,172,242879,2,0,L|342:223,1,51.599998425293,2|0,0:0|0:0,0:0:0:0:
448,343,243015,5,14,0:0:0:0:
478,36,243152,1,0,0:0:0:0:
478,36,243220,1,0,0:0:0:0:
478,36,243288,1,0,0:0:0:0:
362,336,243424,5,14,0:0:0:0:
390,43,243561,1,0,0:0:0:0:
390,43,243629,1,0,0:0:0:0:
390,43,243697,1,0,0:0:0:0:
276,329,243834,5,14,0:0:0:0:
302,50,243971,1,0,0:0:0:0:
302,50,244039,1,0,0:0:0:0:
302,50,244107,1,0,0:0:0:0:
190,322,244243,5,14,0:0:0:0:
214,56,244380,1,0,0:0:0:0:
214,56,244448,1,0,0:0:0:0:
214,56,244515,2,0,L|215:21,2,34.3999989501953,2|2|2,0:0|0:0|0:0,0:0:0:0:
149,128,244652,5,10,0:0:0:0:
149,128,244788,1,8,0:0:0:0:
366,0,244924,6,0,P|384:48|369:97,1,103.199996850586,14|0,0:0|0:0,0:0:0:0:
242,248,245197,2,0,P|224:200|239:151,1,103.199996850586,10|0,0:0|0:0,0:0:0:0:
364,305,245470,5,10,0:0:0:0:
364,305,245538,2,0,L|312:300,1,51.599998425293,2|0,0:0|0:0,0:0:0:0:
303,198,245674,1,8,0:0:0:0:
344,203,245743,2,0,L|446:213,1,103.199996850586,10|0,0:0|0:0,0:0:0:0:
313,380,246015,1,2,0:0:0:0:
151,188,246152,1,8,0:0:0:0:
151,188,246220,1,8,0:0:0:0:
151,188,246288,5,10,0:0:0:0:
364,305,246424,1,8,0:0:0:0:
123,288,246561,5,10,0:0:0:0:
344,203,246697,1,8,0:0:0:0:
112,106,246834,5,10,0:0:0:0:
223,331,246970,1,8,0:0:0:0:
223,331,247038,1,8,0:0:0:0:
223,331,247106,5,10,0:0:0:0:
264,300,247174,1,0,0:0:0:0:
314,291,247242,1,0,0:0:0:0:
364,305,247310,1,0,0:0:0:0:
402,339,247379,2,0,L|409:363,4,25.7999992126465,2|0|0|0|0,0:0|0:0|0:0|0:0|0:0,0:0:0:0:
479,172,247652,2,0,L|487:197,6,25.7999992126465,2|0|0|0|0|0|0,0:0|0:0|0:0|0:0|0:0|0:0|0:0,0:0:0:0:
433,95,247924,5,14,0:0:0:0:
433,95,248470,5,2,0:0:0:0:
367,179,248606,1,2,0:0:0:0:
210,89,248743,1,10,0:0:0:0:
210,89,248811,1,2,0:0:0:0:
210,89,248879,2,0,L|212:131,1,43,2|0,0:0|0:0,0:0:0:0:
220,239,249015,1,8,0:0:0:0:
220,239,249424,5,2,0:0:0:0:
342,73,249561,5,10,0:0:0:0:
90,206,249697,1,8,0:0:0:0:
376,313,249834,5,8,0:0:0:0:
175,69,249970,1,8,0:0:0:0:
5,349,250106,5,8,0:0:0:0:
354,194,250243,1,8,0:0:0:0:
50,30,250379,5,8,0:0:0:0:
24,79,250447,1,0,0:0:0:0:
23,131,250515,1,0,0:0:0:0:
48,178,250583,1,0,0:0:0:0:
90,206,250652,2,0,L|113:217,4,25.7999992126465,2|0|0|0|0,0:0|0:0|0:0|0:0|0:0,0:0:0:0:
175,69,250924,2,0,L|152:80,6,25.7999992126465
253,105,251197,6,0,P|300:83|350:90,2,103.199996850586,2|0|2,0:0|0:0|0:0,0:0:0:0:
209,172,252015,5,2,0:0:0:0:
209,172,252288,5,2,0:0:0:0:
244,259,252424,1,0,0:0:0:0:
244,259,252493,1,0,0:0:0:0:
244,259,252561,1,0,0:0:0:0:
327,269,252697,1,0,0:0:0:0:
384,206,252834,1,2,0:0:0:0:
384,206,253106,5,2,0:0:0:0:
417,294,253243,1,0,0:0:0:0:
417,294,253311,1,0,0:0:0:0:
417,294,253379,1,0,0:0:0:0:
368,362,253515,1,0,0:0:0:0:
281,374,253652,2,0,P|197:318|101:347,1,206.399993701172,2|2,0:0|0:0,0:0:0:0:
102,348,254470,6,0,P|124:301|117:251,2,103.199996850586,2|0|0,0:0|0:0|0:0,0:0:0:0:
102,348,255288,1,2,0:0:0:0:
58,204,255561,2,0,P|77:187|101:177,1,51.599998425293,2|0,0:0|0:0,0:0:0:0:
178,189,255834,2,0,P|201:178|221:162,1,51.599998425293,2|0,0:0|0:0,0:0:0:0:
279,67,256106,5,2,0:0:0:0:
351,110,256379,1,2,0:0:0:0:
279,67,256652,5,2,0:0:0:0:
351,110,256788,1,2,0:0:0:0:
428,76,256924,1,2,0:0:0:0:
432,80,257470,5,2,0:0:0:0:
432,80,257538,1,2,0:0:0:0:
491,207,257743,5,2,0:0:0:0:
417,165,258015,1,2,0:0:0:0:
491,207,258288,5,2,0:0:0:0:
417,165,258424,1,2,0:0:0:0:
341,204,258561,2,0,P|247:238|163:185,1,206.399993701172,2|2,0:0|0:0,0:0:0:0:
163,185,259379,5,2,0:0:0:0:
148,267,259652,1,2,0:0:0:0:
163,185,259924,5,2,0:0:0:0:
148,267,260060,1,2,0:0:0:0:
132,348,260197,2,0,P|221:305|303:359,1,206.399993701172,2|2,0:0|0:0,0:0:0:0:
303,359,261015,5,2,0:0:0:0:
364,262,261288,1,2,0:0:0:0:
311,140,261561,1,2,0:0:0:0:
161,117,261834,1,2,0:0:0:0:
60,255,262106,1,2,0:0:0:0:
60,255,262379,5,2,0:0:0:0:
161,117,262515,1,2,0:0:0:0:
217,312,262652,1,10,0:0:0:0:
217,312,263061,5,2,0:0:0:0:
170,195,263197,1,2,0:0:0:0:
60,255,263334,1,2,0:0:0:0:
327,252,263470,5,8,0:0:0:0:
327,252,263743,2,0,L|357:253,1,30.0999990814209,2|0,0:0|0:0,0:0:0:0:
281,156,263879,2,0,L|250:154,1,30.0999990814209,2|0,0:0|0:0,0:0:0:0:
235,60,264015,5,2,0:0:0:0:
170,195,264152,1,2,0:0:0:0:
392,117,264288,1,10,0:0:0:0:
392,117,264697,5,2,0:0:0:0:
327,252,264834,1,2,0:0:0:0:
477,241,264970,1,2,0:0:0:0:
235,60,265106,6,0,L|236:94,1,34.4,8|0,0:0|0:0,0:0:0:0:
170,195,265243,1,0,0:0:0:0:
170,195,265311,1,0,0:0:0:0:
170,195,265379,2,0,L|135:197,1,34.4
292,250,265515,2,0,L|327:252,1,34.4
170,307,265652,1,2,0:0:0:0:
170,307,265924,5,2,0:0:0:0:
239,272,266197,1,2,0:0:0:0:
313,292,266470,1,2,0:0:0:0:
382,257,266743,5,2,0:0:0:0:
313,292,267016,1,2,0:0:0:0:
239,272,267289,1,2,0:0:0:0:
132,106,267561,5,2,0:0:0:0:
138,182,267834,1,2,0:0:0:0:
95,246,268106,1,2,0:0:0:0:
52,310,268379,5,2,0:0:0:0:
52,310,268447,1,2,0:0:0:0:
95,246,268652,1,2,0:0:0:0:
138,182,268924,2,8,L|180:176,3,43,10|8|8|8,0:0|0:0|0:0|0:0,0:0:0:0:
331,90,269470,5,14,0:0:0:0:
369,157,269743,1,2,0:0:0:0:
357,233,270015,5,2,0:0:0:0:
369,157,270288,1,2,0:0:0:0:
331,90,270561,1,2,0:0:0:0:
205,255,270834,5,2,0:0:0:0:
281,244,271106,1,2,0:0:0:0:
357,233,271379,1,2,0:0:0:0:
434,223,271652,6,0,L|448:264,1,43,10|0,0:0|0:0,0:0:0:0:
357,233,271924,2,0,L|371:274,1,43,10|0,0:0|0:0,0:0:0:0:
281,244,272197,2,8,L|295:285,3,43,10|8|8|8,0:0|0:0|0:0|0:0,0:0:0:0:
149,72,272743,5,14,1:2:0:0:
112,75,273015,1,2,1:2:0:0:
75,79,273288,1,2,1:2:0:0:
38,84,273561,1,2,1:2:0:0:
2,89,273834,1,2,1:2:0:0:
223,222,273970,1,8,0:0:0:0:
223,222,274038,1,8,0:0:0:0:
223,222,274106,5,14,1:2:0:0:
187,218,274378,1,2,1:2:0:0:
149,214,274651,1,2,1:2:0:0:
112,210,274924,5,2,1:2:0:0:
157,202,274992,1,0,0:0:0:0:
192,176,275060,1,0,0:0:0:0:
214,136,275128,1,0,0:0:0:0:
215,92,275197,2,0,L|215:68,4,21.5
323,198,275470,2,0,L|320:174,6,21.5
289,279,275743,5,14,0:0:0:0:
380,29,275879,1,8,0:0:0:0:
457,263,276015,5,10,0:0:0:0:
215,92,276152,1,8,0:0:0:0:
500,159,276288,5,10,0:0:0:0:
243,352,276424,1,8,0:0:0:0:
243,352,276493,1,8,0:0:0:0:
243,352,276561,5,10,0:0:0:0:
298,61,276697,1,8,0:0:0:0:
412,366,276834,5,10,0:0:0:0:
151,205,276970,1,8,0:0:0:0:
399,110,277106,5,10,0:0:0:0:
74,339,277243,1,8,0:0:0:0:
74,339,277311,1,8,0:0:0:0:
74,339,277379,5,2,0:0:0:0:
116,307,277447,1,0,0:0:0:0:
168,300,277515,1,0,0:0:0:0:
220,313,277583,1,0,0:0:0:0:
263,344,277652,1,2,0:0:0:0:
308,374,277720,1,0,0:0:0:0:
360,383,277788,1,0,0:0:0:0:
411,366,277856,1,0,0:0:0:0:
450,332,277924,1,2,0:0:0:0:
469,282,277992,1,0,0:0:0:0:
463,229,278061,1,0,0:0:0:0:
434,186,278129,1,0,0:0:0:0:
390,159,278197,5,10,0:0:0:0:
220,313,278470,5,2,0:0:0:0:
248,237,278561,1,2,0:0:0:0:
222,160,278652,1,2,0:0:0:0:
161,112,278743,2,0,P|102:99|43:113,1,86,2|0,0:2|0:0,0:0:0:0:
312,63,279015,5,10,0:0:0:0:
312,63,279288,6,0,L|301:174,1,111.799994882202,14|0,0:0|0:0,0:0:0:0:
89,214,279561,2,0,L|78:103,1,111.799994882202,10|0,0:0|0:0,0:0:0:0:
129,303,279834,6,0,P|74:309|24:285,1,111.799994882202,10|0,0:0|0:0,0:0:0:0:
197,225,280038,1,8,0:0:0:0:
217,264,280106,2,0,P|223:318|199:368,1,111.799994882202,10|0,0:0|0:0,0:0:0:0:
89,214,280379,2,0,P|82:159|106:109,1,111.799994882202,10|0,0:0|0:0,0:0:0:0:
217,264,280652,6,0,B|272:274|272:274|325:259,1,111.799994882202,10|0,0:0|0:0,0:0:0:0:
417,76,280924,2,0,B|380:119|380:119|366:172,1,111.799994882202,10|0,0:0|0:0,0:0:0:0:
479,343,281197,2,0,B|460:289|460:289|420:251,1,111.799994882202,10|0,0:0|0:0,0:0:0:0:
196,154,281470,6,0,L|216:263,1,111.799994882202,10|0,0:0|0:0,0:0:0:0:
365,172,281674,1,8,0:0:0:0:
378,128,281743,2,0,L|357:18,1,111.799994882202,10|0,0:0|0:0,0:0:0:0:
196,154,282015,1,10,0:0:0:0:
325,258,282152,1,2,0:0:0:0:
253,87,282288,6,0,P|202:65|148:78,1,111.799994882202,10|0,0:0|0:0,0:0:0:0:
101,198,282561,2,0,P|155:191|195:154,1,111.799994882202,10|0,0:0|0:0,0:0:0:0:
38,114,282765,1,0,0:0:0:0:
9,149,282834,2,0,P|7:186|17:222,2,74.5333299214683,10|0|2,0:0|0:0|0:0,0:0:0:0:
70,83,283106,6,0,L|181:75,1,111.799994882202,10|0,0:0|0:0,0:0:0:0:
311,128,283311,1,2,0:0:0:0:
311,127,283379,2,0,P|338:103|353:69,2,74.5333299214683,10|0|2,0:0|0:0|0:0,0:0:0:0:
363,220,283652,2,0,P|399:212|428:190,2,74.5333299214683,10|0|2,0:0|0:0|0:0,0:0:0:0:
362,325,283924,5,10,0:0:0:0:
217,192,284061,1,2,0:0:0:0:
217,192,284129,1,2,0:0:0:0:
217,192,284197,2,0,L|105:202,1,111.799994882202,10|0,0:0|0:0,0:0:0:0:
119,336,284402,1,2,0:0:0:0:
119,336,284470,2,0,L|230:325,1,111.799994882202,10|0,0:0|0:0,0:0:0:0:
363,220,284675,1,2,0:0:0:0:
363,220,284743,6,0,L|474:230,1,111.799994882202,10|0,0:0|0:0,0:0:0:0:
453,362,284947,1,2,0:0:0:0:
453,362,285015,2,0,L|341:351,1,111.799994882202,10|0,0:0|0:0,0:0:0:0:
286,340,285220,1,2,0:0:0:0:
231,326,285288,1,10,0:0:0:0:
359,108,285424,1,10,0:0:0:0:
362,164,285493,1,10,0:0:0:0:
363,220,285561,6,0,L|370:256,5,37.2666649607341,10|0|0|0|0|0,0:0|0:0|0:0|0:0|0:0|0:0,0:0:0:0:
284,192,285834,2,0,L|276:155,5,37.2666649607341,10|0|0|0|0|0,0:0|0:0|0:0|0:0|0:0|0:0,0:0:0:0:
235,253,286106,2,0,L|242:289,5,37.2666649607341,10|0|0|0|0|0,0:0|0:0|0:0|0:0|0:0|0:0,0:0:0:0:
156,225,286379,6,0,L|119:232,5,37.2666649607341,10|0|0|0|0|0,0:0|0:0|0:0|0:0|0:0|0:0,0:0:0:0:
159,144,286652,2,0,L|195:151,5,37.2666649607341,10|0|0|0|0|0,0:0|0:0|0:0|0:0|0:0|0:0,0:0:0:0:
156,63,286924,2,0,L|119:70,5,37.2666649607341,10|0|0|0|0|0,0:0|0:0|0:0|0:0|0:0|0:0,0:0:0:0:
43,33,287197,6,0,P|44:51|41:70,5,37.2666649607341,10|0|0|0|0|0,0:0|0:0|0:0|0:0|0:0|0:0,0:0:0:0:
6,142,287470,2,0,P|4:160|7:179,5,37.2666649607341,10|0|0|0|0|0,0:0|0:0|0:0|0:0|0:0|0:0,0:0:0:0:
43,251,287743,2,0,P|44:269|41:288,5,37.2666649607341,10|0|0|0|0|0,0:0|0:0|0:0|0:0|0:0|0:0,0:0:0:0:
86,358,288015,6,0,L|49:364,5,37.2666649607341,10|0|0|0|0|0,0:0|0:0|0:0|0:0|0:0|0:0,0:0:0:0:
163,352,288288,2,0,L|187:380,5,37.2666649607341,10|0|0|0|0|0,0:0|0:0|0:0|0:0|0:0|0:0,0:0:0:0:
120,289,288561,2,0,L|132:253,5,37.2666649607341,10|0|0|0|0|0,0:0|0:0|0:0|0:0|0:0|0:0,0:0:0:0:
204,209,288834,5,14,0:0:0:0:
204,209,289379,6,0,L|252:225,1,51.599998425293,10|0,0:0|0:0,0:0:0:0:
477,306,289515,1,0,0:0:0:0:
477,306,289584,1,0,0:0:0:0:
477,306,289652,1,14,0:0:0:0:
477,306,290197,6,0,L|443:266,1,51.599998425293,10|0,0:0|0:0,0:0:0:0:
289,86,290333,1,0,0:0:0:0:
289,86,290402,1,0,0:0:0:0:
289,86,290470,1,14,0:0:0:0:
289,86,291288,5,0,0:0:0:0:
289,86,291356,1,0,0:0:0:0:
289,86,291424,1,0,0:0:0:0:
292,142,291493,1,0,0:0:0:0:
295,197,291561,6,0,L|299:253,1,55.8999974411012
370,96,291697,2,0,L|374:40,1,55.8999974411012
215,171,291834,6,0,P|174:182|134:171,1,83.8499961616518,2|0,0:0|0:0,0:0:0:0:
66,112,292106,5,2,0:0:0:0:
68,137,292379,1,2,0:0:0:0:
73,188,292652,1,2,0:0:0:0:
78,265,292924,5,2,0:0:0:0:
160,202,293197,1,2,0:0:0:0:
262,124,293470,1,2,0:0:0:0:
391,209,293743,5,10,0:0:0:0:
391,209,294561,5,0,0:0:0:0:
391,209,294629,1,0,0:0:0:0:
391,209,294697,1,0,0:0:0:0:
380,264,294765,1,0,0:0:0:0:
370,321,294834,6,0,L|360:377,1,55.8999974411012
269,241,294970,2,0,L|278:297,1,55.8999974411012
331,124,295106,6,0,P|290:135|249:125,1,83.8499961616518
140,66,295379,6,0,B|146:33|191:22|223:58|197:98|159:100|159:100|111:96|111:96|64:109|55:198|55:198|49:265|-6:310|-6:310|100:319|100:319|128:352|165:354|198:328|198:328|306:336|306:336|267:289|269:222|269:222|269:147|251:127,1,990.720024187501,14|2,0:0|0:1,0:0:0:0:
