osu file format v14

[General]
AudioFilename: audio.mp3
AudioLeadIn: 0
PreviewTime: 93811
Countdown: 0
SampleSet: Soft
StackLeniency: 0.7
Mode: 2
LetterboxInBreaks: 0
WidescreenStoryboard: 1

[Editor]
Bookmarks: 20788,38243,55697,73152,77515,86243,93879,94970,112424,116788,121152,129879,138606,142970,147334
DistanceSpacing: 1.8
BeatDivisor: 4
GridSize: 4
TimelineZoom: 2.8

[Metadata]
Title:Txxs or get the fxxk out!!
TitleUnicode:Txxs or get the fxxk out!!
Artist:Morimori Atsushi
ArtistUnicode:モリモリあつし
Creator:Nelly
Version:Salad
Source:東方神霊廟 ~ Ten Desires.
Tags:-momox momox -joakh video game instrumental osu osu! fa featured artist mpg mappers guild mg 非可逆リズム 上海アリス幻楽団 tits fuck gfto zun 東方project 上海アリス幻樂団 team shanghai alice touhou shinreibyou デザイアドライブ desire drive
BeatmapID:2908799
BeatmapSetID:1388539

[Difficulty]
HPDrainRate:4
CircleSize:3
OverallDifficulty:7
ApproachRate:7
SliderMultiplier:1.3
SliderTickRate:1

[Events]
//Background and Video events
0,0,"bg.jpg",0,0
//Break Periods
2,38443,39524
2,42806,43888
2,47170,48252
2,73352,74434
2,112624,115888
//Storyboard Layer 0 (Background)
//Storyboard Layer 1 (Fail)
//Storyboard Layer 2 (Pass)
//Storyboard Layer 3 (Foreground)
//Storyboard Layer 4 (Overlay)
//Storyboard Sound Samples

[TimingPoints]
3334,272.727272727273,4,2,1,80,1,0
20788,-100,4,2,2,80,0,1
20856,-100,4,2,1,80,0,0
29515,-100,4,2,30,80,0,0
29584,-100,4,2,1,80,0,0
33879,-100,4,2,30,80,0,0
33947,-100,4,2,1,80,0,0
38243,-100,4,2,30,80,0,1
38311,-100,4,2,1,80,0,0
40424,-100,4,2,1,80,0,0
42606,-100,4,2,1,80,0,0
44788,-100,4,2,1,80,0,0
46424,-100,4,2,2,80,0,0
46970,-100,4,2,1,80,0,0
49152,-100,4,2,1,80,0,0
51879,-100,4,2,1,80,0,0
52015,-100,4,2,1,80,0,0
52424,-100,4,2,30,80,0,0
52561,-100,4,2,1,80,0,0
52970,-100,4,2,1,80,0,0
53106,-100,4,2,1,80,0,0
55424,-100,4,2,8,80,0,0
55561,-100,4,2,1,80,0,0
55697,-100,4,2,2,80,0,1
55765,-100,4,2,1,80,0,0
60334,-100,4,2,30,80,0,0
60470,-100,4,2,1,80,0,0
61152,-100,4,2,30,80,0,0
61288,-100,4,2,1,80,0,0
64424,-100,4,2,30,80,0,0
64561,-100,4,2,1,80,0,0
68788,-100,4,2,30,80,0,0
68924,-100,4,2,1,80,0,0
69879,-100,4,2,30,80,0,0
70015,-100,4,2,1,80,0,0
73152,-100,4,2,2,80,0,0
77515,-100,4,2,30,80,0,0
77652,-100,4,2,1,80,0,0
86243,-100,4,2,2,80,0,0
93879,-100,4,2,1,80,0,0
94970,-100,4,2,2,80,0,1
103697,-100,4,2,1,80,0,0
103970,-100,4,2,2,80,0,1
108334,-100,4,2,1,80,0,1
108402,-100,4,2,2,80,0,1
112424,-100,4,2,30,80,0,0
112561,-100,4,2,1,80,0,0
116788,-100,4,2,1,80,0,1
121152,-100,4,2,1,80,0,0
125515,-100,4,2,2,80,0,0
125924,-100,4,2,1,80,0,0
129606,-100,4,2,8,80,0,0
129743,-100,4,2,1,80,0,0
129879,-100,4,2,2,80,0,1
129947,-100,4,2,1,80,0,0
138606,-100,4,2,30,80,0,0
138743,-100,4,2,1,80,0,0
142970,-100,4,2,30,80,0,0
143106,-100,4,2,1,80,0,0
144061,-100,4,2,30,80,0,0
144197,-100,4,2,1,80,0,0
145152,-100,4,2,30,80,0,0
145288,-100,4,2,1,80,0,0
145697,-100,4,2,30,80,0,0
145834,-100,4,2,1,80,0,0

[Colours]
Combo1 : 255,125,119
Combo2 : 40,131,240
Combo3 : 92,204,252
Combo4 : 128,255,179

[HitObjects]
351,68,19697,6,0,L|438:171,2,130,0|0|0,0:0|0:0|0:0,0:0:0:0:
129,313,20788,6,0,L|125:184,1,130,6|8,0:0|0:0,0:0:0:0:
255,257,21334,2,0,L|259:128,1,130,2|8,0:0|0:0,0:0:0:0:
324,112,21743,1,0,0:0:0:0:
389,45,21879,6,0,L|260:41,2,130,2|8|2,0:0|0:0|0:0,0:0:0:0:
259,245,22697,1,10,0:0:0:0:
256,185,22834,1,2,0:0:0:0:
405,282,22970,6,0,L|409:153,1,130,6|8,0:0|0:0,0:0:0:0:
279,77,23515,1,2,0:0:0:0:
408,72,23788,1,8,0:0:0:0:
278,180,24061,6,0,L|149:176,2,130,2|8|2,0:0|0:0|0:0,0:0:0:0:
408,279,24879,1,10,0:0:0:0:
343,283,25016,1,2,0:0:0:0:
194,353,25152,5,6,0:0:0:0:
75,310,25424,1,8,0:0:0:0:
25,193,25697,1,2,0:0:0:0:
77,78,25970,1,8,0:0:0:0:
136,52,26106,1,0,0:0:0:0:
196,38,26243,6,0,L|325:36,2,130,2|8|2,0:0|0:0|0:0,0:0:0:0:
66,161,27061,1,10,0:0:0:0:
131,165,27197,1,2,0:0:0:0:
281,180,27334,6,0,L|410:178,2,130,6|8|2,0:0|0:0|0:0,0:0:0:0:
151,184,28152,1,8,0:0:0:0:
397,294,28424,6,0,L|480:194,2,130,2|2|2,0:0|0:0|0:0,0:0:0:0:
267,275,29243,1,2,0:0:0:0:
264,215,29379,1,2,0:0:0:0:
413,209,29515,6,0,L|417:80,1,130,6|8,0:0|0:0,0:0:0:0:
287,39,30061,2,0,L|158:41,1,130,2|8,0:0|0:0,0:0:0:0:
222,127,30470,1,0,0:0:0:0:
287,137,30606,5,2,0:0:0:0:
157,224,30879,1,8,0:0:0:0:
287,297,31152,2,0,L|291:168,1,130,2|10,0:0|0:0,0:0:0:0:
226,157,31561,1,2,0:0:0:0:
77,228,31697,6,0,L|73:99,1,130,6|8,0:0|0:0,0:0:0:0:
203,43,32243,1,2,0:0:0:0:
74,38,32515,1,8,0:0:0:0:
204,147,32788,6,0,L|300:145,2,97.5,6|6|6,0:3|0:3|0:3,0:0:0:0:
139,152,33334,1,2,0:0:0:0:
120,214,33470,1,2,0:0:0:0:
139,152,33606,1,2,0:0:0:0:
386,278,33879,6,0,L|390:149,1,130,6|8,0:0|0:0,0:0:0:0:
260,113,34424,1,2,0:0:0:0:
390,32,34697,1,2,0:0:0:0:
325,28,34834,1,2,0:0:0:0:
176,49,34970,6,0,L|172:178,1,130,6|8,0:0|0:0,0:0:0:0:
302,281,35515,2,0,L|173:277,1,130,2|10,0:0|0:0,0:0:0:0:
107,274,35924,1,2,0:0:0:0:
257,182,36061,6,0,L|386:178,1,130,6|8,0:0|0:0,0:0:0:0:
257,74,36606,2,0,L|386:70,1,130,6|2,0:0|0:0,0:0:0:0:
139,273,37152,6,0,P|109:255|139:182,1,130,2|8,0:0|3:0,0:0:0:0:
204,180,37561,2,0,P|143:179|100:67,1,195,10|10,3:0|3:0,0:0:0:0:
347,45,38243,5,4,0:0:0:0:
106,350,40424,6,0,L|102:221,1,130,6|12,0:0|0:3,0:0:0:0:
167,215,40834,1,2,0:0:0:0:
231,210,40970,2,0,L|235:81,1,130,12|4,3:3|3:0,0:0:0:0:
365,38,41515,6,0,L|236:34,1,130,8|2,0:0|0:0,0:0:0:0:
366,140,42061,1,4,3:0:0:0:
430,135,42197,1,4,3:0:0:0:
366,140,42334,1,2,0:0:0:0:
120,156,42606,5,2,0:0:0:0:
413,290,44788,5,6,0:0:0:0:
283,276,45061,1,12,0:3:0:0:
280,211,45197,1,2,0:0:0:0:
278,146,45334,1,12,3:3:0:0:
408,109,45606,1,4,3:0:0:0:
278,35,45879,6,0,L|407:31,1,130,2|2,0:0|0:0,0:0:0:0:
161,290,46424,2,0,L|157:161,1,130,10|10,0:0|0:0,0:0:0:0:
405,131,46970,5,4,0:0:0:0:
89,289,49152,6,0,L|218:285,1,130,6|8,0:0|3:0,0:0:0:0:
284,283,49561,1,4,3:0:0:0:
349,195,49697,2,0,L|220:191,1,130,12|2,3:0|0:0,0:0:0:0:
350,41,50243,6,0,L|354:170,1,130,12|4,3:0|3:0,0:0:0:0:
224,269,50788,1,8,3:0:0:0:
288,266,50924,1,2,0:0:0:0:
353,264,51061,1,8,3:0:0:0:
106,237,51334,5,2,0:0:0:0:
103,172,51470,1,2,0:0:0:0:
168,144,51606,2,0,L|298:141,1,130,2|10,0:0|3:0,0:0:0:0:
232,52,52015,1,2,0:0:0:0:
166,58,52152,1,2,0:0:0:0:
163,123,52288,1,2,0:0:0:0:
312,292,52424,6,0,L|316:163,1,130,6|0,0:0|0:0,0:0:0:0:
185,133,52970,1,2,0:0:0:0:
120,138,53106,1,2,0:0:0:0:
185,133,53243,1,0,0:0:0:0:
431,236,53515,6,0,L|435:107,1,130,4|4,0:0|3:0,0:0:0:0:
304,182,54061,2,0,L|300:53,1,130,8|2,3:0|0:0,0:0:0:0:
170,28,54606,6,0,L|300:25,1,130,4|6,3:0|3:0,0:0:0:0:
52,267,55152,2,0,L|48:138,1,130,2|2,0:0|0:0,0:0:0:0:
113,132,55561,1,2,0:0:0:0:
262,119,55697,6,0,L|391:123,2,130,6|8|2,0:0|0:0|0:0,0:0:0:0:
132,307,56515,1,8,0:0:0:0:
129,242,56652,1,0,0:0:0:0:
127,177,56788,5,2,0:0:0:0:
257,90,57061,1,8,0:0:0:0:
127,85,57334,1,2,0:0:0:0:
257,258,57606,1,8,0:0:0:0:
260,193,57743,1,0,0:0:0:0:
111,315,57879,6,0,L|107:186,1,130,2|8,0:0|0:0,0:0:0:0:
237,109,58424,1,2,0:0:0:0:
107,104,58697,1,8,0:0:0:0:
237,89,58970,6,0,L|366:85,1,130,2|8,0:0|0:0,0:0:0:0:
237,323,59515,2,0,L|108:319,1,130,2|10,0:0|0:0,0:0:0:0:
173,280,59924,1,2,0:0:0:0:
323,246,60061,5,2,0:0:0:0:
342,308,60197,1,2,0:0:0:0:
323,246,60334,1,6,0:0:0:0:
193,224,60606,2,0,L|186:95,1,130,2|10,0:0|0:0,0:0:0:0:
251,84,61015,1,2,0:0:0:0:
401,74,61152,6,0,P|413:107|353:166,1,130,6|2,0:0|0:0,0:0:0:0:
223,169,61697,1,2,0:0:0:0:
353,335,61970,1,10,0:0:0:0:
288,327,62106,1,2,0:0:0:0:
138,321,62243,5,6,3:0:0:0:
112,211,62515,1,12,2:3:0:0:
190,106,62788,1,6,3:0:0:0:
255,93,62924,1,4,3:0:0:0:
320,83,63061,1,14,2:3:0:0:
73,74,63334,6,0,L|38:199,2,130,2|2|2,0:0|0:0|0:0,0:0:0:0:
203,45,64152,1,2,0:0:0:0:
268,42,64288,1,2,0:0:0:0:
417,93,64424,6,0,L|421:222,1,130,6|8,0:0|0:0,0:0:0:0:
290,245,64970,1,2,0:0:0:0:
420,320,65243,1,8,0:0:0:0:
355,317,65379,1,0,0:0:0:0:
206,308,65515,6,0,L|77:312,2,130,2|2|2,0:0|0:0|0:0,0:0:0:0:
336,301,66334,1,10,0:0:0:0:
339,236,66470,1,2,0:0:0:0:
190,244,66606,6,0,L|186:115,1,130,6|8,0:0|0:0,0:0:0:0:
316,191,67152,2,0,L|320:62,1,130,2|8,0:0|0:0,0:0:0:0:
190,28,67697,6,0,L|93:31,2,97.5,6|6|6,0:3|0:3|0:3,0:0:0:0:
255,124,68243,1,2,0:0:0:0:
190,121,68379,1,2,0:0:0:0:
125,119,68515,1,2,0:0:0:0:
372,346,68788,6,0,L|376:217,1,130,6|2,0:0|0:0,0:0:0:0:
311,205,69197,1,2,0:0:0:0:
246,197,69334,1,2,0:0:0:0:
116,97,69606,1,10,0:0:0:0:
181,89,69743,1,2,0:0:0:0:
330,78,69879,6,0,L|459:82,2,130,6|2|2,0:0|0:0|0:0,0:0:0:0:
200,176,70697,1,10,0:0:0:0:
197,241,70834,1,2,0:0:0:0:
346,329,70970,6,0,L|350:200,1,130,6|10,0:0|0:0,0:0:0:0:
285,192,71379,1,2,0:0:0:0:
220,181,71515,2,0,L|216:52,1,130,6|10,0:0|0:0,0:0:0:0:
464,274,72061,6,0,P|473:247|409:182,1,130,0|0,0:0|0:0,0:0:0:0:
346,178,72470,2,0,P|407:177|450:65,1,195,0|0,0:0|0:0,0:0:0:0:
204,48,73152,5,6,0:0:0:0:
256,192,75334,12,0,77243,0:0:0:0:
168,86,77515,5,6,0:0:0:0:
345,327,78197,1,0,0:0:0:0:
378,273,78334,1,0,0:0:0:0:
345,214,78470,1,0,0:0:0:0:
280,194,78606,1,0,0:0:0:0:
150,80,78879,1,0,0:0:0:0:
279,78,79152,1,0,0:0:0:0:
409,77,79424,1,0,0:0:0:0:
94,337,80379,5,0,0:0:0:0:
60,283,80515,1,0,0:0:0:0:
94,224,80652,1,0,0:0:0:0:
159,204,80788,1,0,0:0:0:0:
289,201,81061,2,0,L|420:208,2,130,0|0|0,0:0|0:0|0:0,0:0:0:0:
159,221,81879,5,0,0:0:0:0:
289,201,82152,1,0,0:0:0:0:
291,136,82288,1,0,0:0:0:0:
293,71,82424,1,0,0:0:0:0:
163,51,82697,1,0,0:0:0:0:
98,55,82834,1,0,0:0:0:0:
163,51,82970,5,0,0:0:0:0:
293,158,83243,2,0,L|163:151,2,130,0|0|0,0:0|0:0|0:0,0:0:0:0:
423,255,84061,6,0,L|227:265,2,195,0|0|0,0:0|0:0|0:0,0:0:0:0:
225,311,85288,2,0,P|181:287|225:177,1,195,0|0,0:0|0:0,0:0:0:0:
354,172,85970,1,0,0:0:0:0:
107,286,86243,6,0,L|103:157,1,130,2|8,0:0|0:0,0:0:0:0:
297,244,86924,1,2,0:0:0:0:
300,179,87061,1,8,0:0:0:0:
170,72,87334,5,2,0:0:0:0:
74,104,87606,1,8,0:0:0:0:
32,198,87879,1,0,0:0:0:0:
72,292,88152,1,8,0:0:0:0:
170,323,88424,6,0,L|299:319,1,130,2|8,0:0|0:0,0:0:0:0:
430,222,88970,2,0,L|301:218,1,130,0|8,0:0|0:0,0:0:0:0:
430,349,89515,6,0,L|434:220,1,130,2|8,0:0|0:0,0:0:0:0:
304,126,90061,1,0,0:0:0:0:
368,123,90197,1,2,0:0:0:0:
433,121,90334,1,8,0:0:0:0:
303,216,90606,6,0,L|174:212,2,130,2|8|0,0:0|0:0|0:0,0:0:0:0:
173,2,91424,6,0,L|169:131,1,130,8|2,0:0|0:0,0:0:0:0:
299,86,91970,2,0,L|303:215,1,130,8|0,0:0|0:0,0:0:0:0:
173,225,92515,1,8,0:0:0:0:
43,234,92788,6,0,L|172:238,2,130,2|8|0,0:0|0:0|0:0,0:0:0:0:
173,133,93606,1,8,0:0:0:0:
238,131,93743,1,0,0:0:0:0:
303,128,93879,5,2,0:0:0:0:
368,128,94015,2,0,P|426:147|378:345,1,325,2|2,0:0|0:0,0:0:0:0:
130,341,94970,6,0,L|10:187,2,195,6|0|8,0:0|0:0|0:0,0:0:0:0:
260,329,96061,6,0,L|264:200,1,130,2|8,0:0|0:0,0:0:0:0:
199,187,96470,1,0,0:0:0:0:
133,188,96607,2,0,L|129:59,1,130,2|8,0:0|0:0,0:0:0:0:
376,42,97152,6,0,L|496:196,2,195,2|0|8,0:0|0:0|0:0,0:0:0:0:
246,162,98243,5,2,0:0:0:0:
375,160,98515,1,8,0:0:0:0:
128,343,98788,2,0,L|124:214,1,130,2|8,0:0|0:0,0:0:0:0:
372,161,99334,5,10,0:0:0:0:
437,165,99470,1,10,0:0:0:0:
372,161,99606,1,10,0:0:0:0:
242,256,99879,2,0,L|371:252,2,130,2|8|2,0:0|0:0|0:0,0:0:0:0:
112,263,100697,5,8,0:0:0:0:
109,198,100834,1,0,0:0:0:0:
174,153,100970,2,0,L|45:149,1,130,2|10,0:0|0:0,0:0:0:0:
291,51,101515,6,0,L|389:47,2,97.5,2|2|2,0:0|0:0|0:0,0:0:0:0:
226,134,102061,2,0,L|355:138,1,130,2|8,0:0|0:0,0:0:0:0:
226,337,102606,6,0,L|222:238,1,97.5,2|2,0:0|0:0,0:0:0:0:
321,214,103015,1,2,0:0:0:0:
386,205,103152,1,2,0:0:0:0:
405,140,103288,1,2,0:0:0:0:
386,205,103424,1,8,0:0:0:0:
256,223,103697,5,10,0:0:0:0:
191,220,103834,1,10,0:0:0:0:
340,302,103970,6,0,L|469:306,2,130,6|2|8,0:0|0:0|0:0,0:0:0:0:
210,211,104788,5,2,0:0:0:0:
340,206,105061,1,8,0:0:0:0:
275,160,105197,1,0,0:0:0:0:
210,118,105334,2,0,L|81:114,1,130,2|8,0:0|0:0,0:0:0:0:
327,43,105879,6,0,L|447:197,2,195,2|0|8,0:0|0:0|0:0,0:0:0:0:
197,148,106970,5,2,0:0:0:0:
326,146,107243,1,8,0:0:0:0:
79,329,107515,2,0,L|75:200,1,130,2|8,0:0|0:0,0:0:0:0:
323,147,108061,5,2,0:0:0:0:
388,151,108197,1,2,0:0:0:0:
323,147,108334,1,6,0:0:0:0:
193,333,108606,2,0,L|189:204,1,130,2|8,0:0|0:0,0:0:0:0:
319,115,109152,6,0,L|190:111,1,130,2|8,0:0|0:0,0:0:0:0:
59,312,109697,2,0,L|55:183,1,130,2|8,0:0|0:0,0:0:0:0:
303,116,110243,6,0,L|401:112,2,97.5,2|2|0,0:0|0:0|0:0,0:0:0:0:
238,176,110788,2,0,L|234:305,1,130,2|10,0:0|0:0,0:0:0:0:
364,312,111334,6,0,L|368:214,1,97.5,2|2,0:0|0:0,0:0:0:0:
269,188,111743,1,2,0:0:0:0:
204,109,111879,1,2,0:0:0:0:
269,107,112015,1,2,0:0:0:0:
334,105,112152,1,8,0:0:0:0:
269,84,112288,1,2,0:0:0:0:
120,73,112424,5,6,0:0:0:0:
393,343,116788,6,0,L|397:214,1,130,2|2,0:0|0:0,0:0:0:0:
266,290,117334,2,0,L|262:161,1,130,2|2,0:0|0:0,0:0:0:0:
132,73,117879,6,0,L|261:69,1,130,2|2,0:0|0:0,0:0:0:0:
392,243,118424,2,0,L|396:114,1,130,2|2,0:0|0:0,0:0:0:0:
148,65,118970,6,0,L|50:61,2,97.5,2|2|2,0:0|0:0|0:0,0:0:0:0:
213,148,119515,2,0,L|84:152,1,130,2|2,0:0|0:0,0:0:0:0:
214,270,120061,6,0,L|312:274,2,97.5,2|2|2,0:0|0:0|0:0,0:0:0:0:
149,253,120606,2,0,L|145:124,1,130,2|2,0:0|0:0,0:0:0:0:
393,71,121152,5,6,0:0:0:0:
160,62,121697,5,2,0:0:0:0:
406,152,122243,5,2,0:0:0:0:
173,153,122788,5,2,0:0:0:0:
382,253,123334,5,2,0:0:0:0:
148,240,123879,5,2,0:0:0:0:
357,336,124424,5,2,0:0:0:0:
123,323,124969,5,2,0:0:0:0:
254,310,125243,1,2,0:0:0:0:
259,245,125379,1,2,0:0:0:0:
110,197,125515,5,10,0:0:0:0:
45,201,125652,1,10,0:0:0:0:
110,197,125788,1,10,0:0:0:0:
240,185,126061,2,0,L|244:56,1,130,2|8,0:0|0:0,0:0:0:0:
374,34,126606,6,0,L|503:30,1,130,2|8,0:0|0:0,0:0:0:0:
373,197,127152,1,2,0:0:0:0:
386,135,127288,1,0,0:0:0:0:
451,113,127424,1,10,0:0:0:0:
204,52,127697,5,6,0:0:0:0:
139,56,127834,1,2,0:0:0:0:
204,52,127970,1,8,0:0:0:0:
334,238,128243,2,0,L|338:109,1,130,2|8,0:0|0:0,0:0:0:0:
208,312,128788,5,2,0:0:0:0:
231,251,128924,1,2,0:0:0:0:
272,201,129061,1,2,0:0:0:0:
331,166,129197,1,2,0:0:0:0:
390,152,129334,5,2,0:0:0:0:
455,153,129470,1,2,0:0:0:0:
390,152,129606,1,2,0:0:0:0:
143,313,129879,6,0,L|139:184,1,130,6|8,0:0|0:0,0:0:0:0:
269,257,130425,2,0,L|273:128,1,130,2|8,0:0|0:0,0:0:0:0:
338,112,130834,1,0,0:0:0:0:
403,45,130970,6,0,L|274:41,2,130,2|8|2,0:0|0:0|0:0,0:0:0:0:
273,245,131788,1,10,0:0:0:0:
270,185,131925,1,2,0:0:0:0:
419,282,132061,6,0,L|423:153,1,130,6|8,0:0|0:0,0:0:0:0:
293,77,132606,1,2,0:0:0:0:
422,72,132879,1,8,0:0:0:0:
292,180,133152,6,0,L|163:176,2,130,2|8|2,0:0|0:0|0:0,0:0:0:0:
422,279,133970,1,2,0:0:0:0:
357,283,134107,1,2,0:0:0:0:
208,353,134243,5,6,0:0:0:0:
89,310,134515,1,8,0:0:0:0:
39,193,134788,1,2,0:0:0:0:
91,78,135061,1,8,0:0:0:0:
150,52,135197,1,2,0:0:0:0:
210,38,135334,6,0,L|339:36,2,130,2|8|2,0:0|0:0|0:0,0:0:0:0:
80,161,136152,1,10,0:0:0:0:
145,165,136288,1,2,0:0:0:0:
295,180,136425,6,0,L|424:178,2,130,2|2|2,0:0|0:0|0:0,0:0:0:0:
165,184,137243,1,2,0:0:0:0:
411,294,137515,6,0,L|494:194,2,130,2|2|2,0:0|0:0|0:0,0:0:0:0:
281,275,138334,1,2,0:0:0:0:
278,215,138470,1,2,0:0:0:0:
427,209,138606,6,0,L|431:80,1,130,6|2,0:0|0:0,0:0:0:0:
301,39,139152,2,0,L|172:41,1,130,2|2,0:0|0:0,0:0:0:0:
236,127,139561,1,0,0:0:0:0:
301,137,139697,5,2,0:0:0:0:
171,224,139970,1,2,0:0:0:0:
301,297,140243,2,0,L|305:168,1,130,2|2,0:0|0:0,0:0:0:0:
240,157,140652,1,2,0:0:0:0:
91,228,140788,6,0,L|87:99,1,130,6|2,0:0|0:0,0:0:0:0:
217,43,141334,1,2,0:0:0:0:
88,38,141606,1,2,0:0:0:0:
218,147,141879,6,0,L|314:145,2,97.5,6|6|6,3:0|3:0|3:0,0:0:0:0:
153,152,142425,1,2,0:0:0:0:
134,214,142561,1,2,0:0:0:0:
153,152,142697,1,2,0:0:0:0:
400,278,142970,6,0,L|404:149,1,130,6|2,0:0|0:0,0:0:0:0:
274,113,143515,1,2,0:0:0:0:
404,32,143788,1,2,0:0:0:0:
339,28,143925,1,2,0:0:0:0:
274,51,144061,6,0,L|270:180,1,130,6|2,0:0|0:0,0:0:0:0:
400,283,144606,2,0,L|271:279,1,130,2|2,0:0|0:0,0:0:0:0:
205,276,145015,1,2,0:0:0:0:
140,187,145152,6,0,L|269:183,1,130,6|2,0:0|0:0,0:0:0:0:
140,79,145697,2,0,L|269:75,1,130,6|2,0:0|0:0,0:0:0:0:
40,285,146243,6,0,P|29:258|90:195,1,130,2|0,0:0|0:0,0:0:0:0:
156,194,146652,2,0,P|95:193|52:81,1,195,0|0,0:0|0:0,0:0:0:0:
299,59,147334,5,2,0:0:0:0:
256,192,147606,12,0,149379,0:0:0:0:
