osu file format v14

[General]
AudioFilename: audio.mp3
AudioLeadIn: 0
PreviewTime: 93811
Countdown: 0
SampleSet: Soft
StackLeniency: 0.7
Mode: 2
LetterboxInBreaks: 0
WidescreenStoryboard: 1

[Editor]
Bookmarks: 20788,38243,55697,73152,77515,86243,93879,94970,112424,116788,121152,129879,138606,142970,147334
DistanceSpacing: 1.8
BeatDivisor: 4
GridSize: 4
TimelineZoom: 2.8

[Metadata]
Title:Txxs or get the fxxk out!!
TitleUnicode:Txxs or get the fxxk out!!
Artist:Morimori Atsushi
ArtistUnicode:モリモリあつし
Creator:Nelly
Version:Rain
Source:東方神霊廟 ~ Ten Desires.
Tags:-momox momox -joakh video game instrumental osu osu! fa featured artist mpg mappers guild mg 非可逆リズム 上海アリス幻楽団 tits fuck gfto zun 東方project 上海アリス幻樂団 team shanghai alice touhou shinreibyou デザイアドライブ desire drive
BeatmapID:2935386
BeatmapSetID:1388539

[Difficulty]
HPDrainRate:6
CircleSize:4
OverallDifficulty:9
ApproachRate:9
SliderMultiplier:1.62
SliderTickRate:1

[Events]
//Background and Video events
0,0,"bg.jpg",0,0
//Break Periods
2,73352,74734
//Storyboard Layer 0 (Background)
//Storyboard Layer 1 (Fail)
//Storyboard Layer 2 (Pass)
//Storyboard Layer 3 (Foreground)
//Storyboard Layer 4 (Overlay)
//Storyboard Sound Samples

[TimingPoints]
3334,272.727272727273,4,2,1,80,1,0
20788,-100,4,2,2,80,0,1
20856,-100,4,2,1,80,0,0
29515,-100,4,2,30,80,0,0
29584,-100,4,2,1,80,0,0
33879,-100,4,2,30,80,0,0
33947,-100,4,2,1,80,0,0
38243,-125,4,2,30,80,0,1
38311,-125,4,2,1,80,0,0
40424,-100,4,2,1,80,0,0
42606,-125,4,2,1,80,0,0
44788,-100,4,2,1,80,0,0
46424,-100,4,2,2,80,0,0
46970,-125,4,2,1,80,0,0
49152,-100,4,2,1,80,0,0
51879,-100,4,2,1,80,0,0
52015,-100,4,2,1,80,0,0
52424,-125,4,2,30,80,0,0
52561,-125,4,2,1,80,0,0
52970,-100,4,2,1,80,0,0
53106,-100,4,2,1,80,0,0
55424,-100,4,2,8,80,0,0
55561,-100,4,2,1,80,0,0
55697,-100,4,2,2,80,0,1
55765,-100,4,2,1,80,0,0
60334,-100,4,2,30,80,0,0
60470,-100,4,2,1,80,0,0
61152,-100,4,2,30,80,0,0
61288,-100,4,2,1,80,0,0
64424,-100,4,2,30,80,0,0
64561,-100,4,2,1,80,0,0
68788,-100,4,2,30,80,0,0
68924,-100,4,2,1,80,0,0
69879,-100,4,2,30,80,0,0
70015,-100,4,2,1,80,0,0
73152,-100,4,2,2,80,0,0
77515,-100,4,2,30,80,0,0
77652,-100,4,2,1,80,0,0
86243,-100,4,2,2,80,0,0
93879,-100,4,2,1,80,0,0
94970,-100,4,2,2,80,0,1
103697,-100,4,2,1,80,0,0
103970,-100,4,2,2,80,0,1
108334,-100,4,2,1,80,0,1
108402,-100,4,2,2,80,0,1
112424,-125,4,2,30,80,0,0
112561,-125,4,2,1,80,0,0
116788,-100,4,2,1,80,0,1
121152,-100,4,2,1,80,0,0
125515,-100,4,2,2,80,0,0
125924,-100,4,2,1,80,0,0
129606,-100,4,2,8,80,0,0
129743,-100,4,2,1,80,0,0
129879,-100,4,2,2,80,0,1
129947,-100,4,2,1,80,0,0
138606,-100,4,2,30,80,0,0
138743,-100,4,2,1,80,0,0
142970,-100,4,2,30,80,0,0
143106,-100,4,2,1,80,0,0
144061,-100,4,2,30,80,0,0
144197,-100,4,2,1,80,0,0
145152,-100,4,2,30,80,0,0
145288,-100,4,2,1,80,0,0
145697,-100,4,2,30,80,0,0
145834,-100,4,2,1,80,0,0

[Colours]
Combo1 : 255,125,119
Combo2 : 40,131,240
Combo3 : 92,204,252
Combo4 : 128,255,179

[HitObjects]
50,147,19697,6,0,L|205:101,2,162,0|0|0,0:0|0:0|0:0,0:0:0:0:
335,335,20788,6,0,L|340:253,1,81,6|0,0:0|0:0,0:0:0:0:
242,279,21061,2,0,L|237:197,1,81,8|0,0:0|0:0,0:0:0:0:
392,192,21334,2,0,P|434:173|394:88,1,162,2|8,0:0|0:0,0:0:0:0:
315,82,21743,1,0,0:0:0:0:
161,168,21879,6,0,L|322:161,1,162,2|8,0:0|0:0,0:0:0:0:
241,240,22288,1,0,0:0:0:0:
87,338,22424,2,0,L|82:256,1,81,2|0,0:0|0:0,0:0:0:0:
164,202,22697,1,10,0:0:0:0:
83,196,22834,1,2,0:0:0:0:
317,288,22970,6,0,P|373:277|391:182,1,162,6|8,0:0|0:0,0:0:0:0:
311,165,23379,1,0,0:0:0:0:
157,162,23515,2,0,L|152:80,1,81,2|0,0:0|0:0,0:0:0:0:
250,106,23788,2,0,L|255:24,1,81,8|0,0:0|0:0,0:0:0:0:
19,311,24061,6,0,P|20:270|109:201,1,162,2|8,0:0|0:0,0:0:0:0:
189,201,24470,1,0,0:0:0:0:
343,134,24606,2,0,L|261:129,1,81,2|0,0:0|0:0,0:0:0:0:
181,49,24879,2,0,L|263:44,1,81,10|2,0:0|0:0,0:0:0:0:
498,227,25152,6,0,L|416:222,1,81,6|0,0:0|0:0,0:0:0:0:
498,146,25424,2,0,L|503:64,1,81,8|0,0:0|0:0,0:0:0:0:
348,39,25697,2,0,P|306:57|345:143,1,162,2|8,0:0|0:0,0:0:0:0:
425,149,26106,1,0,0:0:0:0:
270,160,26243,6,0,P|214:171|196:266,1,162,2|8,0:0|0:0,0:0:0:0:
276,282,26652,1,0,0:0:0:0:
430,295,26788,2,0,L|435:213,1,81,2|0,0:0|0:0,0:0:0:0:
353,159,27061,1,10,0:0:0:0:
434,153,27197,1,2,0:0:0:0:
198,96,27334,6,0,L|35:93,1,162,6|8,0:0|0:0,0:0:0:0:
117,176,27743,1,0,0:0:0:0:
271,323,27879,2,0,L|276:241,1,81,2|0,0:0|0:0,0:0:0:0:
178,267,28152,2,0,L|173:185,1,81,8|0,0:0|0:0,0:0:0:0:
407,101,28424,6,0,L|252:55,2,162,2|2|2,0:0|0:0|0:0,0:0:0:0:
259,303,29243,1,2,0:0:0:0:
229,266,29311,1,2,0:0:0:0:
239,220,29379,1,2,0:0:0:0:
281,198,29447,1,2,0:0:0:0:
451,192,29515,6,0,L|456:110,1,81,6|0,0:0|0:0,0:0:0:0:
358,136,29788,2,0,L|353:54,1,81,8|0,0:0|0:0,0:0:0:0:
198,30,30061,6,0,P|142:41|124:136,1,162,2|8,0:0|0:0,0:0:0:0:
204,152,30470,1,0,0:0:0:0:
358,236,30606,2,0,L|197:229,1,162,2|8,0:0|0:0,0:0:0:0:
278,308,31015,1,0,0:0:0:0:
433,310,31152,2,0,L|473:308,2,40.5,2|2|2,0:0|0:0|0:0,0:0:0:0:
352,229,31424,1,10,0:0:0:0:
433,232,31561,1,2,0:0:0:0:
199,217,31697,6,0,P|157:198|197:113,1,162,6|8,0:0|0:0,0:0:0:0:
276,107,32106,1,0,0:0:0:0:
431,140,32243,2,0,L|349:145,1,81,2|0,0:0|0:0,0:0:0:0:
269,224,32515,2,0,L|351:229,1,81,8|0,0:0|0:0,0:0:0:0:
138,312,32788,6,0,L|17:319,2,121.5,6|6|6,0:3|0:3|0:3,0:0:0:0:
293,241,33334,1,2,0:0:0:0:
212,235,33470,1,2,0:0:0:0:
293,241,33606,1,2,0:0:0:0:
212,235,33743,1,2,0:0:0:0:
446,299,33879,5,6,0:0:0:0:
485,231,34015,1,0,0:0:0:0:
457,158,34152,1,8,0:0:0:0:
382,134,34288,1,0,0:0:0:0:
229,58,34424,2,0,L|390:52,1,162,2|2,0:0|0:0,0:0:0:0:
309,131,34834,1,2,0:0:0:0:
75,153,34970,6,0,P|66:191|153:257,1,162,6|8,0:0|0:0,0:0:0:0:
232,262,35379,1,0,0:0:0:0:
78,320,35515,2,0,L|38:318,2,40.5,2|2|2,0:0|0:0|0:0,0:0:0:0:
159,239,35788,1,10,0:0:0:0:
78,242,35924,1,2,0:0:0:0:
314,212,36061,6,0,P|355:193|315:107,1,162,6|8,0:0|0:0,0:0:0:0:
236,103,36470,1,0,0:0:0:0:
82,247,36606,2,0,L|77:165,1,81,6|0,0:0|0:0,0:0:0:0:
175,191,36879,2,0,L|180:109,1,81,2|0,0:0|0:0,0:0:0:0:
416,269,37152,6,0,P|446:258|414:163,1,162,2|8,0:0|3:0,0:0:0:0:
334,151,37561,2,0,L|320:72,2,81,10|2|8,3:0|0:0|3:0,0:0:0:0:
415,244,37970,1,10,3:0:0:0:
334,241,38106,1,2,0:0:0:0:
125,231,38243,6,0,P|90:223|131:67,1,259.2,4|8,0:0|3:0,0:0:0:0:
386,155,39334,6,0,L|122:149,1,259.2,2|8,0:0|3:0,0:0:0:0:
385,335,40424,6,0,L|389:253,1,81,6|4,0:0|3:0,0:0:0:0:
348,248,40629,1,4,3:0:0:0:
308,242,40697,1,12,0:3:0:0:
389,171,40834,1,2,0:0:0:0:
235,154,40970,2,0,L|195:157,2,40.5,12|4|4,3:3|3:0|3:0,0:0:0:0:
316,147,41243,1,4,3:0:0:0:
319,66,41379,1,2,0:0:0:0:
166,29,41515,6,0,L|85:32,2,81,8|2|2,0:0|0:0|0:0,0:0:0:0:
247,63,41924,2,0,L|258:102,2,40.5,4|4|4,3:0|3:0|3:0,0:0:0:0:
92,145,42197,1,4,3:0:0:0:
172,148,42334,1,2,0:0:0:0:
92,145,42470,1,2,0:0:0:0:
387,231,42606,6,0,P|422:223|381:67,1,259.2,2|8,0:0|3:0,0:0:0:0:
126,330,43697,6,0,L|390:324,1,259.2,2|8,0:0|3:0,0:0:0:0:
127,141,44788,5,6,0:0:0:0:
208,155,44924,2,0,L|219:194,2,40.5,4|4|12,3:0|3:0|0:3,0:0:0:0:
127,141,45197,1,2,0:0:0:0:
282,73,45334,2,0,L|322:76,2,40.5,12|4|4,3:3|3:0|3:0,0:0:0:0:
201,236,45606,1,4,3:0:0:0:
198,155,45743,1,2,0:0:0:0:
352,205,45879,6,0,L|356:125,1,81,2|2,0:0|0:0,0:0:0:0:
275,90,46152,1,2,0:0:0:0:
429,57,46288,2,0,L|388:54,1,40.5,0|0,0:0|0:0,0:0:0:0:
236,166,46424,1,10,0:0:0:0:
429,156,46697,1,10,0:0:0:0:
93,320,46970,6,0,P|58:312|99:156,1,259.2,4|8,0:0|3:0,0:0:0:0:
354,215,48061,6,0,P|354:191|194:53,1,259.2,2|8,0:0|3:0,0:0:0:0:
451,314,49152,5,6,0:0:0:0:
370,299,49288,2,0,L|359:260,2,40.5,4|0|8,3:0|0:0|3:0,0:0:0:0:
451,314,49561,1,4,3:0:0:0:
297,245,49697,2,0,L|257:242,2,40.5,12|4|4,3:0|3:0|3:0,0:0:0:0:
378,156,49970,1,2,0:0:0:0:
297,160,50106,1,2,0:0:0:0:
142,164,50243,5,12,3:0:0:0:
122,129,50311,1,0,0:0:0:0:
126,89,50379,1,4,3:0:0:0:
151,58,50447,1,4,3:0:0:0:
189,48,50515,1,4,3:0:0:0:
270,46,50652,1,2,0:0:0:0:
116,166,50788,2,0,L|111:247,1,81,8|2,3:0|0:0,0:0:0:0:
192,319,51061,1,8,3:0:0:0:
111,323,51197,1,2,0:0:0:0:
347,260,51334,6,0,L|387:263,2,40.5,2|2|2,0:0|0:0|0:0,0:0:0:0:
266,238,51606,1,2,0:0:0:0:
265,190,51674,1,2,0:0:0:0:
294,151,51743,1,2,0:0:0:0:
339,137,51811,1,2,0:0:0:0:
168,95,51879,2,0,L|87:92,1,81,10|2,3:0|0:0,0:0:0:0:
169,274,52152,1,2,0:0:0:0:
170,226,52220,1,2,0:0:0:0:
141,187,52288,1,2,0:0:0:0:
96,173,52356,1,2,0:0:0:0:
297,300,52424,6,0,P|332:292|291:136,1,259.2,6|2,0:0|0:0,0:0:0:0:
213,134,53106,1,2,0:0:0:0:
449,84,53243,1,0,0:0:0:0:
288,327,53515,6,0,P|231:315|214:220,1,162,4|4,0:0|3:0,0:0:0:0:
294,204,53924,1,4,3:0:0:0:
139,172,54061,2,0,L|135:91,1,81,8|0,3:0|0:0,0:0:0:0:
233,122,54334,2,0,L|237:41,1,81,2|0,0:0|0:0,0:0:0:0:
83,26,54606,5,4,3:0:0:0:
42,53,54674,1,4,3:0:0:0:
30,100,54743,1,4,3:0:0:0:
51,142,54811,1,4,3:0:0:0:
96,159,54879,1,6,3:0:0:0:
193,163,55015,1,0,0:0:0:0:
405,162,55152,1,2,0:0:0:0:
243,268,55424,1,2,0:0:0:0:
324,261,55561,1,2,0:0:0:0:
90,238,55697,6,0,L|85:156,1,81,6|0,0:0|0:0,0:0:0:0:
183,182,55970,2,0,L|188:100,1,81,8|0,0:0|0:0,0:0:0:0:
33,320,56243,2,0,P|19:290|91:202,1,162,2|8,0:0|0:0,0:0:0:0:
171,201,56652,1,0,0:0:0:0:
325,115,56788,6,0,L|161:110,1,162,2|8,0:0|0:0,0:0:0:0:
244,37,57197,1,0,0:0:0:0:
399,300,57334,2,0,L|404:218,1,81,2|0,0:0|0:0,0:0:0:0:
323,148,57606,1,8,0:0:0:0:
404,143,57743,1,0,0:0:0:0:
170,285,57879,6,0,P|139:271|176:178,1,162,2|8,0:0|0:0,0:0:0:0:
256,173,58288,1,0,0:0:0:0:
410,178,58424,2,0,L|415:96,1,81,2|0,0:0|0:0,0:0:0:0:
334,26,58697,1,8,0:0:0:0:
415,21,58834,1,0,0:0:0:0:
181,183,58970,6,0,L|263:178,1,81,2|0,0:0|0:0,0:0:0:0:
343,272,59243,2,0,L|261:267,1,81,8|0,0:0|0:0,0:0:0:0:
472,201,59515,2,0,L|477:119,1,81,2|0,0:0|0:0,0:0:0:0:
396,49,59788,1,10,0:0:0:0:
477,44,59924,1,2,0:0:0:0:
241,125,60061,5,2,0:0:0:0:
338,128,60197,1,2,0:0:0:0:
240,291,60334,2,0,L|235:209,1,81,6|0,0:0|0:0,0:0:0:0:
389,52,60606,2,0,L|228:47,1,162,2|10,0:0|0:0,0:0:0:0:
309,132,61015,1,2,0:0:0:0:
73,229,61152,6,0,L|234:224,1,162,6|2,0:0|0:0,0:0:0:0:
316,220,61561,1,0,0:0:0:0:
82,333,61697,1,2,0:0:0:0:
24,281,61834,1,0,0:0:0:0:
37,204,61970,1,10,0:0:0:0:
109,174,62106,1,2,0:0:0:0:
345,247,62243,6,0,L|348:166,1,81,6|6,3:0|3:0,0:0:0:0:
299,160,62447,1,4,3:0:0:0:
153,202,62515,2,0,L|150:121,1,81,12|4,2:3|3:0,0:0:0:0:
385,333,62788,1,6,3:0:0:0:
429,316,62856,1,4,3:0:0:0:
464,282,62924,1,4,3:0:0:0:
479,236,62993,1,6,3:0:0:0:
473,188,63061,1,14,2:3:0:0:
448,148,63129,1,6,3:0:0:0:
407,122,63197,1,2,0:0:0:0:
359,116,63265,1,2,0:0:0:0:
199,107,63334,5,2,0:0:0:0:
329,240,63606,2,0,L|333:160,1,81,2|4,0:0|3:0,0:0:0:0:
304,154,63777,1,4,3:0:0:0:
276,149,63811,1,4,3:0:0:0:
104,147,63879,5,2,0:0:0:0:
233,299,64152,2,0,L|236:258,1,40.5,2|2,0:0|0:0,0:0:0:0:
171,250,64288,2,0,L|168:209,1,40.5,2|2,0:0|0:0,0:0:0:0:
338,169,64424,6,0,L|420:165,1,81,6|0,0:0|0:0,0:0:0:0:
337,326,64697,2,0,L|333:245,1,81,8|0,0:0|0:0,0:0:0:0:
488,274,64970,2,0,P|501:250|430:160,1,162,2|8,0:0|0:0,0:0:0:0:
348,156,65379,1,0,0:0:0:0:
194,149,65515,6,0,P|138:160|120:255,1,162,2|2,0:0|0:0,0:0:0:0:
200,271,65924,1,0,0:0:0:0:
355,259,66061,2,0,L|395:257,2,40.5,2|2|2,0:0|0:0|0:0,0:0:0:0:
274,178,66334,1,10,0:0:0:0:
355,181,66470,1,2,0:0:0:0:
121,323,66606,6,0,P|91:313|121:218,1,162,6|8,0:0|0:0,0:0:0:0:
201,210,67015,1,0,0:0:0:0:
356,196,67152,2,0,L|361:114,1,81,2|0,0:0|0:0,0:0:0:0:
280,44,67424,1,8,0:0:0:0:
361,39,67561,1,0,0:0:0:0:
151,119,67697,6,0,L|25:114,2,121.5,6|6|6,0:3|0:3|0:3,0:0:0:0:
306,297,68243,1,2,0:0:0:0:
384,246,68379,1,2,0:0:0:0:
387,153,68515,1,2,0:0:0:0:
311,99,68652,1,2,0:0:0:0:
77,97,68788,6,0,L|72:177,1,81,6|0,0:0|0:0,0:0:0:0:
154,334,69061,2,0,L|157:293,1,40.5,2|2,0:0|0:0,0:0:0:0:
92,285,69197,2,0,L|89:244,1,40.5,2|2,0:0|0:0,0:0:0:0:
261,198,69334,2,0,L|342:194,3,81,2|0|10|2,0:0|0:0|0:0|0:0,0:0:0:0:
105,202,69879,6,0,P|70:182|115:96,1,162,6|2,0:0|0:0,0:0:0:0:
196,93,70288,2,0,L|201:51,1,40.5,2|2,0:0|0:0,0:0:0:0:
55,28,70424,2,0,L|15:30,2,40.5,2|2|2,0:0|0:0|0:0,0:0:0:0:
136,237,70697,1,10,0:0:0:0:
137,189,70765,1,2,0:0:0:0:
108,150,70834,1,2,0:0:0:0:
63,136,70902,1,2,0:0:0:0:
234,95,70970,6,0,L|314:92,1,81,6|0,0:0|0:0,0:0:0:0:
397,246,71243,1,10,0:0:0:0:
436,222,71311,1,2,0:0:0:0:
433,176,71379,1,2,0:0:0:0:
391,158,71447,1,2,0:0:0:0:
220,142,71515,6,0,L|139:139,1,81,6|0,0:0|0:0,0:0:0:0:
222,303,71788,2,0,L|225:262,1,40.5,10|2,0:0|0:0,0:0:0:0:
160,254,71924,2,0,L|157:213,1,40.5,2|2,0:0|0:0,0:0:0:0:
346,245,72061,6,0,P|388:237|399:136,1,162,0|0,0:0|0:0,0:0:0:0:
317,167,72470,2,0,L|312:87,1,81,0|0,0:0|0:0,0:0:0:0:
398,135,72743,2,0,L|403:55,1,81,0|0,0:0|0:0,0:0:0:0:
322,39,73015,1,0,0:0:0:0:
86,32,73152,5,6,0:0:0:0:
256,192,75334,12,0,77379,0:0:0:0:
177,79,77515,5,6,0:0:0:0:
333,288,78197,2,0,L|344:206,2,81,0|0|0,0:0|0:0|0:0,0:0:0:0:
178,304,78606,6,0,L|17:296,2,162,0|0|0,0:0|0:0|0:0,0:0:0:0:
332,270,79287,2,0,L|347:307,2,40.5,0|0|0,0:0|0:0|0:0,0:0:0:0:
251,252,79560,1,0,0:0:0:0:
463,181,80379,6,0,L|474:99,2,81,0|0|0,0:0|0:0|0:0,0:0:0:0:
308,274,80788,2,0,L|469:266,2,162,0|0|0,0:0|0:0|0:0,0:0:0:0:
153,218,81470,2,0,L|138:255,2,40.5,0|0|0,0:0|0:0|0:0,0:0:0:0:
234,190,81743,2,0,L|239:150,1,40.5,0|0,0:0|0:0,0:0:0:0:
67,302,81879,5,0,0:0:0:0:
37,228,82015,1,0,0:0:0:0:
68,156,82152,1,0,0:0:0:0:
142,127,82288,1,0,0:0:0:0:
296,119,82424,1,0,0:0:0:0:
215,261,82561,2,0,L|211:181,1,81,0|0,0:0|0:0,0:0:0:0:
292,118,82834,1,0,0:0:0:0:
446,107,82970,6,0,L|456:187,2,81,0|0|0,0:0|0:0|0:0,0:0:0:0:
364,165,83379,2,0,L|360:245,1,81,0|0,0:0|0:0,0:0:0:0:
205,275,83652,2,0,L|190:312,2,40.5,0|0|0,0:0|0:0|0:0,0:0:0:0:
286,257,83924,1,0,0:0:0:0:
131,335,84061,6,0,P|78:326|87:235,1,162,0|0,0:0|0:0,0:0:0:0:
167,217,84470,2,0,L|329:212,1,162,0|0,0:0|0:0,0:0:0:0:
174,157,84879,6,0,P|158:132|226:42,1,162,0|0,0:0|0:0,0:0:0:0:
379,300,85288,2,0,L|217:295,1,162,0|0,0:0|0:0,0:0:0:0:
62,269,85697,2,0,L|58:189,1,81,0|0,0:0|0:0,0:0:0:0:
99,181,85902,1,0,0:0:0:0:
140,108,85970,2,0,L|60:104,1,81,0|0,0:0|0:0,0:0:0:0:
295,267,86243,6,0,P|351:254|340:167,1,162,2|8,0:0|0:0,0:0:0:0:
184,209,86652,2,0,L|180:46,1,162,2|2,0:0|0:0,0:0:0:0:
261,136,87061,2,0,L|263:54,1,81,8|0,0:0|0:0,0:0:0:0:
418,38,87334,6,0,L|337:33,2,81,2|0|8,0:0|0:0|0:0,0:0:0:0:
272,231,87879,1,0,0:0:0:0:
353,167,88015,2,0,L|368:204,2,40.5,2|0|8,0:0|0:0|0:0,0:0:0:0:
272,149,88287,1,0,0:0:0:0:
117,140,88424,6,0,L|107:220,2,81,2|0|8,0:0|0:0|0:0,0:0:0:0:
280,298,88970,1,0,0:0:0:0:
316,228,89106,1,2,0:0:0:0:
283,157,89243,1,8,0:0:0:0:
203,143,89379,1,0,0:0:0:0:
357,116,89515,6,0,L|359:34,1,81,2|0,0:0|0:0,0:0:0:0:
278,160,89788,2,0,L|276:78,1,81,8|2,0:0|0:0,0:0:0:0:
436,246,90061,2,0,L|438:164,1,81,0|2,0:0|0:0,0:0:0:0:
398,137,90265,1,0,0:0:0:0:
357,116,90334,1,8,0:0:0:0:
50,259,90606,6,0,L|211:251,2,162,2|8|0,0:0|0:0|0:0,0:0:0:0:
131,182,91288,2,0,L|133:100,1,81,2|8,0:0|0:0,0:0:0:0:
52,80,91561,1,0,0:0:0:0:
206,54,91697,6,0,L|216:134,2,81,2|0|8,0:0|0:0|0:0,0:0:0:0:
125,32,92106,1,2,0:0:0:0:
280,242,92243,1,0,0:0:0:0:
361,177,92379,2,0,L|376:214,2,40.5,2|0|8,0:0|0:0|0:0,0:0:0:0:
280,159,92652,1,0,0:0:0:0:
126,318,92788,6,0,L|124:236,1,81,2|0,0:0|0:0,0:0:0:0:
205,266,93061,2,0,L|207:184,1,81,8|2,0:0|0:0,0:0:0:0:
126,318,93334,2,0,L|124:236,1,81,0|2,0:0|0:0,0:0:0:0:
205,108,93606,1,8,0:0:0:0:
124,104,93743,1,0,0:0:0:0:
358,147,93879,6,0,L|399:142,2,40.5,2|2|2,0:0|0:0|0:0,0:0:0:0:
277,319,94152,2,0,L|274:278,1,40.5,2|2,0:0|0:0,0:0:0:0:
339,270,94288,2,0,L|342:229,1,40.5,2|2,0:0|0:0,0:0:0:0:
172,197,94424,2,0,L|92:193,1,81,2|2,0:0|0:0,0:0:0:0:
327,122,94697,1,2,0:0:0:0:
197,293,94970,6,0,L|361:286,1,162,6|8,0:0|0:0,0:0:0:0:
440,199,95379,2,0,L|276:192,1,162,0|0,0:0|0:0,0:0:0:0:
123,174,95788,2,0,L|121:92,1,81,8|0,0:0|0:0,0:0:0:0:
357,124,96061,6,0,L|359:42,1,81,2|0,0:0|0:0,0:0:0:0:
278,43,96334,1,8,0:0:0:0:
358,43,96470,1,0,0:0:0:0:
204,264,96606,2,0,L|202:182,1,81,2|0,0:0|0:0,0:0:0:0:
300,219,96879,2,0,L|302:137,1,81,8|0,0:0|0:0,0:0:0:0:
66,188,97152,6,0,P|39:170|83:73,1,162,2|8,0:0|0:0,0:0:0:0:
161,71,97561,1,0,0:0:0:0:
315,310,97697,2,0,L|317:228,1,81,2|0,0:0|0:0,0:0:0:0:
219,265,97970,2,0,L|217:183,1,81,8|0,0:0|0:0,0:0:0:0:
453,165,98243,6,0,L|455:83,1,81,2|0,0:0|0:0,0:0:0:0:
374,84,98515,1,8,0:0:0:0:
454,84,98652,1,0,0:0:0:0:
220,271,98788,2,0,L|382:267,1,162,2|8,0:0|0:0,0:0:0:0:
235,134,99334,5,10,0:0:0:0:
316,139,99470,1,10,0:0:0:0:
162,270,99606,2,0,L|161:188,1,81,10|0,0:0|0:0,0:0:0:0:
397,340,99879,2,0,L|399:258,1,81,2|0,0:0|0:0,0:0:0:0:
301,295,100152,2,0,L|299:213,1,81,8|0,0:0|0:0,0:0:0:0:
453,180,100424,6,0,P|480:159|436:64,1,162,2|8,0:0|0:0,0:0:0:0:
353,57,100834,1,0,0:0:0:0:
199,259,100970,2,0,L|197:177,1,81,2|0,0:0|0:0,0:0:0:0:
295,214,101243,2,0,L|297:132,1,81,10|2,0:0|0:0,0:0:0:0:
63,220,101515,6,0,P|37:196|66:126,1,121.5,2|2,0:0|0:0,0:0:0:0:
107,60,101788,2,0,L|26:57,1,81,2|2,0:0|0:0,0:0:0:0:
181,197,102061,5,2,0:0:0:0:
222,278,102129,2,0,L|101:269,1,121.5,2|8,0:0|0:0,0:0:0:0:
182,194,102470,1,2,0:0:0:0:
416,179,102606,6,0,P|442:155|413:85,1,121.5,2|2,0:0|0:0,0:0:0:0:
372,19,102879,2,0,L|453:16,1,81,8|2,0:0|0:0,0:0:0:0:
298,223,103152,6,0,L|296:141,1,81,2|2,0:0|0:0,0:0:0:0:
394,178,103424,2,0,L|396:96,1,81,8|2,0:0|0:0,0:0:0:0:
197,51,103697,5,10,0:0:0:0:
294,46,103834,1,10,0:0:0:0:
60,212,103970,6,0,L|58:130,1,81,6|0,0:0|0:0,0:0:0:0:
156,257,104243,2,0,L|158:175,1,81,2|0,0:0|0:0,0:0:0:0:
60,212,104515,2,0,L|58:130,1,81,8|0,0:0|0:0,0:0:0:0:
294,181,104788,6,0,L|296:99,1,81,2|0,0:0|0:0,0:0:0:0:
215,51,105061,1,8,0:0:0:0:
296,39,105197,1,0,0:0:0:0:
60,319,105334,1,2,0:0:0:0:
26,249,105470,1,0,0:0:0:0:
54,176,105606,1,8,0:0:0:0:
127,148,105743,1,0,0:0:0:0:
361,230,105879,6,0,L|196:228,1,162,2|8,0:0|0:0,0:0:0:0:
280,146,106288,1,0,0:0:0:0:
434,69,106424,2,0,L|353:67,1,81,2|0,0:0|0:0,0:0:0:0:
434,241,106697,2,0,L|436:159,1,81,8|0,0:0|0:0,0:0:0:0:
199,301,106970,6,0,L|197:219,1,81,2|0,0:0|0:0,0:0:0:0:
295,235,107243,2,0,L|297:153,1,81,8|0,0:0|0:0,0:0:0:0:
63,63,107515,2,0,P|32:113|102:167,1,162,2|8,0:0|0:0,0:0:0:0:
247,294,108061,5,2,0:0:0:0:
166,289,108197,1,2,0:0:0:0:
321,225,108334,2,0,L|323:145,1,81,6|0,0:0|0:0,0:0:0:0:
89,194,108606,2,0,L|87:114,1,81,2|0,0:0|0:0,0:0:0:0:
185,142,108879,2,0,L|187:62,1,81,8|0,0:0|0:0,0:0:0:0:
423,291,109152,5,2,0:0:0:0:
449,252,109220,1,2,0:0:0:0:
435,207,109288,1,2,0:0:0:0:
392,190,109356,1,2,0:0:0:0:
222,176,109424,2,0,L|138:173,1,81,8|0,0:0|0:0,0:0:0:0:
223,344,109697,6,0,L|226:303,1,40.5,2|2,0:0|0:0,0:0:0:0:
161,295,109834,2,0,L|158:254,1,40.5,2|2,0:0|0:0,0:0:0:0:
328,211,109970,2,0,L|412:208,1,81,8|2,0:0|0:0,0:0:0:0:
169,193,110243,6,0,P|165:171|230:109,1,121.5,2|2,0:0|0:0,0:0:0:0:
269,111,110515,2,0,L|271:191,1,81,2|2,0:0|0:0,0:0:0:0:
117,296,110788,5,2,0:0:0:0:
76,230,110856,2,0,L|198:226,1,121.5,2|10,0:0|0:0,0:0:0:0:
115,152,111197,1,2,0:0:0:0:
351,290,111334,6,0,P|393:278|381:212,1,121.5,2|2,0:0|0:0,0:0:0:0:
342,201,111606,2,0,L|261:198,1,81,2|2,0:0|0:0,0:0:0:0:
106,160,111879,6,0,L|104:78,1,81,2|2,0:0|0:0,0:0:0:0:
185,30,112152,1,8,0:0:0:0:
104,18,112288,1,2,0:0:0:0:
311,284,112424,6,0,L|504:269,2,194.4,6|0|8,0:0|0:0|0:0,0:0:0:0:
181,255,113515,6,0,L|177:125,1,129.6,0|8,0:0|0:0,0:0:0:0:
307,215,114061,2,0,L|311:85,1,129.6,0|8,0:0|0:0,0:0:0:0:
181,45,114606,6,0,P|149:44|52:157,2,194.4,0|0|8,0:0|0:0|0:0,0:0:0:0:
311,299,115697,6,0,L|315:169,1,129.6,0|8,0:0|0:0,0:0:0:0:
185,259,116243,2,0,L|181:129,1,129.6,0|8,0:0|0:0,0:0:0:0:
343,325,116788,5,2,0:0:0:0:
384,315,116856,1,2,0:0:0:0:
420,290,116924,1,2,0:0:0:0:
444,255,116992,1,2,0:0:0:0:
453,211,117060,1,2,0:0:0:0:
444,169,117128,1,2,0:0:0:0:
420,132,117197,1,2,0:0:0:0:
384,108,117265,1,2,0:0:0:0:
339,104,117334,6,0,L|323:144,3,40.5,2|2|2|2,0:0|0:0|0:0|0:0,0:0:0:0:
389,191,117606,2,0,L|405:231,3,40.5,2|2|2|2,0:0|0:0|0:0|0:0,0:0:0:0:
267,312,117879,5,2,0:0:0:0:
220,306,117947,1,2,0:0:0:0:
201,264,118015,1,2,0:0:0:0:
226,225,118083,1,2,0:0:0:0:
271,204,118152,1,2,0:0:0:0:
296,165,118220,1,2,0:0:0:0:
277,123,118288,1,2,0:0:0:0:
230,117,118356,1,2,0:0:0:0:
95,336,118424,5,2,0:0:0:0:
56,306,118493,1,2,0:0:0:0:
32,264,118561,1,2,0:0:0:0:
25,216,118629,1,2,0:0:0:0:
37,169,118697,1,2,0:0:0:0:
65,129,118765,1,2,0:0:0:0:
105,104,118834,1,2,0:0:0:0:
153,96,118902,1,2,0:0:0:0:
326,102,118970,6,0,L|449:106,1,121.5,2|2,0:0|0:0,0:0:0:0:
406,177,119243,2,0,L|324:179,1,81,2|2,0:0|0:0,0:0:0:0:
171,246,119515,6,0,L|167:206,1,40.5,2|2,0:0|0:0,0:0:0:0:
289,197,119788,2,0,L|291:115,1,81,2|2,0:0|0:0,0:0:0:0:
55,154,120061,6,0,P|51:132|116:70,1,121.5,2|2,0:0|0:0,0:0:0:0:
156,68,120334,2,0,L|76:66,1,81,2|2,0:0|0:0,0:0:0:0:
229,307,120606,6,0,L|231:225,1,81,2|2,0:0|0:0,0:0:0:0:
133,262,120879,2,0,L|131:180,1,81,2|2,0:0|0:0,0:0:0:0:
370,115,121152,5,6,0:0:0:0:
142,115,121697,5,2,0:0:0:0:
418,161,122243,5,2,0:0:0:0:
94,161,122788,5,2,0:0:0:0:
370,115,123334,5,2,0:0:0:0:
142,115,123879,5,2,0:0:0:0:
418,161,124424,5,2,0:0:0:0:
94,161,124970,5,2,0:0:0:0:
215,297,125174,2,0,L|218:257,1,40.5,2|2,0:0|0:0,0:0:0:0:
137,237,125379,1,2,0:0:0:0:
371,164,125515,6,0,L|290:161,1,81,10|10,0:0|0:0,0:0:0:0:
372,324,125788,2,0,L|375:243,1,81,10|0,0:0|0:0,0:0:0:0:
220,298,126061,2,0,L|217:217,1,81,2|0,0:0|0:0,0:0:0:0:
315,251,126334,2,0,L|318:170,1,81,8|0,0:0|0:0,0:0:0:0:
84,201,126606,6,0,P|43:171|92:91,1,162,2|8,0:0|0:0,0:0:0:0:
171,89,127015,1,0,0:0:0:0:
326,163,127152,1,2,0:0:0:0:
245,156,127288,1,0,0:0:0:0:
326,163,127424,1,10,0:0:0:0:
245,156,127561,1,2,0:0:0:0:
479,329,127697,5,6,0:0:0:0:
488,282,127765,1,2,0:0:0:0:
463,241,127834,1,2,0:0:0:0:
418,228,127902,1,2,0:0:0:0:
264,171,127970,2,0,L|344:166,1,81,8|2,0:0|0:0,0:0:0:0:
215,274,128243,1,2,0:0:0:0:
174,223,128311,2,0,L|295:217,1,121.5,2|8,0:0|0:0,0:0:0:0:
377,211,128652,1,2,0:0:0:0:
118,219,128788,5,2,0:0:0:0:
82,216,128856,1,2,0:0:0:0:
59,186,128924,1,2,0:0:0:0:
69,149,128993,1,2,0:0:0:0:
223,83,129061,2,0,L|143:78,1,81,2|2,0:0|0:0,0:0:0:0:
354,170,129334,6,0,L|434:165,1,81,2|2,0:0|0:0,0:0:0:0:
225,221,129606,1,2,0:0:0:0:
371,239,129879,6,0,L|376:157,1,81,6|0,0:0|0:0,0:0:0:0:
278,183,130152,2,0,L|273:101,1,81,8|0,0:0|0:0,0:0:0:0:
428,321,130424,2,0,P|458:309|422:217,1,162,2|8,0:0|0:0,0:0:0:0:
341,210,130834,1,0,0:0:0:0:
187,115,130970,6,0,L|351:110,1,162,2|8,0:0|0:0,0:0:0:0:
268,37,131379,1,0,0:0:0:0:
113,300,131515,2,0,L|108:218,1,81,2|0,0:0|0:0,0:0:0:0:
189,148,131788,1,10,0:0:0:0:
108,143,131924,1,2,0:0:0:0:
342,285,132061,6,0,P|373:271|336:178,1,162,6|8,0:0|0:0,0:0:0:0:
256,173,132470,1,0,0:0:0:0:
102,178,132606,2,0,L|97:96,1,81,2|0,0:0|0:0,0:0:0:0:
178,26,132879,1,8,0:0:0:0:
97,21,133015,1,0,0:0:0:0:
331,183,133152,6,0,L|249:178,1,81,2|0,0:0|0:0,0:0:0:0:
169,272,133424,2,0,L|251:267,1,81,8|0,0:0|0:0,0:0:0:0:
40,201,133697,2,0,L|35:119,1,81,2|0,0:0|0:0,0:0:0:0:
116,49,133970,1,2,0:0:0:0:
35,44,134106,1,2,0:0:0:0:
271,125,134243,6,0,L|286:164,2,40.5,6|6|6,0:0|0:0|0:0,0:0:0:0:
188,163,134516,2,0,L|183:243,1,81,8|2,0:0|0:0,0:0:0:0:
336,296,134788,2,0,L|376:291,2,40.5,2|2|2,0:0|0:0|0:0,0:0:0:0:
255,213,135061,1,8,0:0:0:0:
336,216,135197,1,2,0:0:0:0:
181,192,135334,6,0,L|166:154,2,40.5,2|2|2,0:0|0:0|0:0,0:0:0:0:
262,73,135606,1,8,0:0:0:0:
181,70,135743,1,2,0:0:0:0:
335,168,135879,2,0,L|339:85,1,81,2|2,0:0|0:0,0:0:0:0:
257,337,136152,2,0,L|254:296,1,40.5,10|2,0:0|0:0,0:0:0:0:
319,288,136288,2,0,L|322:247,1,40.5,2|2,0:0|0:0,0:0:0:0:
168,228,136424,5,2,0:0:0:0:
132,225,136493,1,2,0:0:0:0:
109,195,136561,1,2,0:0:0:0:
119,158,136629,1,2,0:0:0:0:
274,128,136697,2,0,L|314:126,1,40.5,2|2,0:0|0:0,0:0:0:0:
274,128,136834,2,0,L|234:126,1,40.5,2|2,0:0|0:0,0:0:0:0:
387,186,136970,5,2,0:0:0:0:
423,183,137038,1,2,0:0:0:0:
446,153,137106,1,2,0:0:0:0:
436,116,137174,1,2,0:0:0:0:
281,49,137243,2,0,L|241:47,1,40.5,2|2,0:0|0:0,0:0:0:0:
281,49,137379,2,0,L|321:47,1,40.5,2|2,0:0|0:0,0:0:0:0:
164,186,137515,6,0,L|9:140,2,162,2|2|2,0:0|0:0|0:0,0:0:0:0:
294,339,138334,2,0,L|297:298,1,40.5,2|2,0:0|0:0,0:0:0:0:
232,290,138470,2,0,L|229:249,1,40.5,2|2,0:0|0:0,0:0:0:0:
375,211,138606,6,0,L|379:130,1,81,6|0,0:0|0:0,0:0:0:0:
298,160,138879,2,0,L|294:79,1,81,2|0,0:0|0:0,0:0:0:0:
145,59,139152,1,2,0:0:0:0:
274,247,139424,6,0,L|284:327,2,81,2|0|2,0:0|0:0|0:0,0:0:0:0:
127,298,139970,2,0,L|123:217,1,81,2|0,0:0|0:0,0:0:0:0:
197,190,140243,1,2,0:0:0:0:
227,117,140379,1,0,0:0:0:0:
194,46,140515,1,2,0:0:0:0:
120,21,140652,1,2,0:0:0:0:
354,169,140788,5,6,0:0:0:0:
484,154,141061,2,0,L|494:74,2,81,2|0|2,0:0|0:0|0:0,0:0:0:0:
353,329,141606,2,0,L|349:248,1,81,2|0,0:0|0:0,0:0:0:0:
430,174,141879,6,0,L|308:170,2,121.5,6|6|6,3:0|3:0|3:0,0:0:0:0:
349,107,142424,2,0,L|345:26,1,81,2|2,0:0|0:0,0:0:0:0:
430,174,142697,2,0,L|434:93,1,81,2|2,0:0|0:0,0:0:0:0:
198,59,142970,6,0,L|43:105,2,162,6|2|2,0:0|0:0|0:0,0:0:0:0:
36,296,143788,2,0,L|32:215,1,81,2|2,0:0|0:0,0:0:0:0:
187,260,144061,6,0,P|233:249|226:153,1,162,6|2,0:0|0:0,0:0:0:0:
145,142,144470,1,0,0:0:0:0:
64,132,144606,1,2,0:0:0:0:
226,355,144879,2,0,L|230:274,1,81,2|2,0:0|0:0,0:0:0:0:
75,245,145152,6,0,L|68:83,1,162,6|2,0:0|0:0,0:0:0:0:
295,212,145697,2,0,L|302:50,1,162,6|2,0:0|0:0,0:0:0:0:
74,149,146243,6,0,L|291:34,2,243,2|0|0,0:0|0:0|0:0,0:0:0:0:
431,307,147334,5,2,0:0:0:0:
256,192,147470,12,0,149379,0:0:0:0:
