osu file format v14

[General]
AudioFilename: audio.mp3
AudioLeadIn: 0
PreviewTime: 93811
Countdown: 0
SampleSet: Soft
StackLeniency: 0.7
Mode: 2
LetterboxInBreaks: 0
WidescreenStoryboard: 1

[Editor]
Bookmarks: 20788,38243,55697,73152,77515,86243,93879,94970,112424,116788,121152,129879,138606,142970,147334
DistanceSpacing: 1.8
BeatDivisor: 4
GridSize: 4
TimelineZoom: 2.8

[Metadata]
Title:Txxs or get the fxxk out!!
TitleUnicode:Txxs or get the fxxk out!!
Artist:Morimori Atsushi
ArtistUnicode:モリモリあつし
Creator:Nelly
Version:Platter
Source:東方神霊廟 ~ Ten Desires.
Tags:-momox momox -joakh video game instrumental osu osu! fa featured artist mpg mappers guild mg 非可逆リズム 上海アリス幻楽団 tits fuck gfto zun 東方project 上海アリス幻樂団 team shanghai alice touhou shinreibyou デザイアドライブ desire drive
BeatmapID:2934101
BeatmapSetID:1388539

[Difficulty]
HPDrainRate:5
CircleSize:3.5
OverallDifficulty:8
ApproachRate:8
SliderMultiplier:1.4
SliderTickRate:1

[Events]
//Background and Video events
0,0,"bg.jpg",0,0
//Break Periods
2,73352,74584
2,112624,116038
//Storyboard Layer 0 (Background)
//Storyboard Layer 1 (Fail)
//Storyboard Layer 2 (Pass)
//Storyboard Layer 3 (Foreground)
//Storyboard Layer 4 (Overlay)
//Storyboard Sound Samples

[TimingPoints]
3334,272.727272727273,4,2,1,80,1,0
20788,-100,4,2,2,80,0,1
20856,-100,4,2,1,80,0,0
29515,-100,4,2,30,80,0,0
29584,-100,4,2,1,80,0,0
33879,-100,4,2,30,80,0,0
33947,-100,4,2,1,80,0,0
38243,-125,4,2,30,80,0,1
38311,-125,4,2,1,80,0,0
40424,-100,4,2,1,80,0,0
42606,-125,4,2,1,80,0,0
44788,-100,4,2,1,80,0,0
46424,-100,4,2,2,80,0,0
46970,-125,4,2,1,80,0,0
49152,-100,4,2,1,80,0,0
51879,-100,4,2,1,80,0,0
52015,-100,4,2,1,80,0,0
52424,-125,4,2,30,80,0,0
52561,-125,4,2,1,80,0,0
52970,-100,4,2,1,80,0,0
53106,-100,4,2,1,80,0,0
55424,-100,4,2,8,80,0,0
55561,-100,4,2,1,80,0,0
55697,-100,4,2,2,80,0,1
55765,-100,4,2,1,80,0,0
60334,-100,4,2,30,80,0,0
60470,-100,4,2,1,80,0,0
61152,-100,4,2,30,80,0,0
61288,-100,4,2,1,80,0,0
64424,-100,4,2,30,80,0,0
64561,-100,4,2,1,80,0,0
68788,-100,4,2,30,80,0,0
68924,-100,4,2,1,80,0,0
69879,-100,4,2,30,80,0,0
70015,-100,4,2,1,80,0,0
73152,-100,4,2,2,80,0,0
77515,-100,4,2,30,80,0,0
77652,-100,4,2,1,80,0,0
86243,-100,4,2,2,80,0,0
93879,-100,4,2,1,80,0,0
94970,-100,4,2,2,80,0,1
103697,-100,4,2,1,80,0,0
103970,-100,4,2,2,80,0,1
108334,-100,4,2,1,80,0,1
108402,-100,4,2,2,80,0,1
112424,-100,4,2,30,80,0,0
112561,-100,4,2,1,80,0,0
116788,-100,4,2,1,80,0,1
121152,-100,4,2,1,80,0,0
125515,-100,4,2,2,80,0,0
125924,-100,4,2,1,80,0,0
129606,-100,4,2,8,80,0,0
129743,-100,4,2,1,80,0,0
129879,-100,4,2,2,80,0,1
129947,-100,4,2,1,80,0,0
138606,-100,4,2,30,80,0,0
138743,-100,4,2,1,80,0,0
142970,-100,4,2,30,80,0,0
143106,-100,4,2,1,80,0,0
144061,-100,4,2,30,80,0,0
144197,-100,4,2,1,80,0,0
145152,-100,4,2,30,80,0,0
145288,-100,4,2,1,80,0,0
145697,-100,4,2,30,80,0,0
145834,-100,4,2,1,80,0,0

[Colours]
Combo1 : 255,125,119
Combo2 : 40,131,240
Combo3 : 92,204,252
Combo4 : 128,255,179

[HitObjects]
122,221,19697,6,0,L|264:210,2,140,0|0|0,0:0|0:0|0:0,0:0:0:0:
345,312,20788,5,6,0:0:0:0:
348,242,20924,1,0,0:0:0:0:
264,161,21061,2,0,L|405:155,1,140,8|2,0:0|0:0,0:0:0:0:
166,50,21606,1,8,0:0:0:0:
96,46,21743,1,0,0:0:0:0:
166,50,21879,5,2,0:0:0:0:
306,336,22152,1,8,0:0:0:0:
323,269,22288,1,0,0:0:0:0:
302,203,22424,1,2,0:0:0:0:
249,158,22561,1,0,0:0:0:0:
181,148,22697,1,10,0:0:0:0:
179,222,22834,1,2,0:0:0:0:
403,125,22970,6,0,P|445:173|406:225,1,140,6|8,0:0|0:0,0:0:0:0:
335,232,23379,1,0,0:0:0:0:
265,313,23515,1,2,0:0:0:0:
334,311,23652,1,0,0:0:0:0:
404,309,23788,1,8,0:0:0:0:
166,243,24061,6,0,P|110:232|111:160,1,140,2|8,0:0|0:0,0:0:0:0:
180,142,24470,1,0,0:0:0:0:
249,133,24606,1,2,0:0:0:0:
109,328,24879,1,10,0:0:0:0:
105,258,25015,1,2,0:0:0:0:
333,319,25152,5,6,0:0:0:0:
337,249,25288,1,0,0:0:0:0:
260,214,25424,1,8,0:0:0:0:
120,170,25697,2,0,P|121:106|186:67,1,140,2|8,0:0|0:0,0:0:0:0:
250,65,26106,1,0,0:0:0:0:
320,149,26243,6,0,L|180:145,1,140,2|8,0:0|0:0,0:0:0:0:
251,229,26652,1,0,0:0:0:0:
405,258,26788,2,0,P|461:247|460:175,1,140,2|10,0:0|0:0,0:0:0:0:
390,157,27197,1,2,0:0:0:0:
192,133,27334,5,6,0:0:0:0:
304,340,27606,1,8,0:0:0:0:
308,270,27743,1,0,0:0:0:0:
154,192,27879,2,0,L|293:185,1,140,2|8,0:0|0:0,0:0:0:0:
364,181,28288,1,0,0:0:0:0:
166,74,28424,6,0,L|308:63,2,140,2|2|2,0:0|0:0|0:0,0:0:0:0:
307,164,29243,2,0,L|321:202,2,35,2|2|2,0:0|0:0|0:0,0:0:0:0:
57,322,29515,5,6,0:0:0:0:
53,252,29652,1,0,0:0:0:0:
137,219,29788,2,0,P|135:192|54:126,1,140,8|2,0:0|0:0,0:0:0:0:
292,69,30334,1,8,0:0:0:0:
362,72,30470,1,0,0:0:0:0:
292,69,30606,5,2,0:0:0:0:
152,176,30879,1,8,0:0:0:0:
222,173,31015,1,0,0:0:0:0:
377,198,31152,2,0,L|391:236,2,35,2|2|2,0:0|0:0|0:0,0:0:0:0:
307,124,31424,1,10,0:0:0:0:
377,121,31561,1,2,0:0:0:0:
153,317,31697,6,0,P|110:269|150:217,1,140,6|8,0:0|0:0,0:0:0:0:
220,210,32106,1,0,0:0:0:0:
262,156,32243,1,2,0:0:0:0:
261,87,32379,1,0,0:0:0:0:
217,35,32515,1,8,0:0:0:0:
150,22,32652,1,0,0:0:0:0:
374,66,32788,6,0,L|479:60,2,105,6|6|6,0:3|0:3|0:3,0:0:0:0:
304,207,33334,1,2,0:0:0:0:
300,137,33470,1,2,0:0:0:0:
370,244,33606,1,2,0:0:0:0:
374,174,33743,1,2,0:0:0:0:
150,112,33879,5,6,0:0:0:0:
80,115,34015,1,0,0:0:0:0:
150,112,34152,1,8,0:0:0:0:
289,168,34424,1,2,0:0:0:0:
149,290,34697,1,2,0:0:0:0:
145,220,34834,1,2,0:0:0:0:
299,190,34970,6,0,L|438:195,1,140,6|8,0:0|0:0,0:0:0:0:
368,278,35379,1,0,0:0:0:0:
214,290,35515,2,0,L|200:328,2,35,2|2|2,0:0|0:0|0:0,0:0:0:0:
284,216,35788,1,10,0:0:0:0:
214,213,35924,1,2,0:0:0:0:
439,221,36061,6,0,P|482:173|442:121,1,140,6|8,0:0|0:0,0:0:0:0:
372,114,36470,1,0,0:0:0:0:
219,213,36606,2,0,L|358:208,1,140,6|2,0:0|0:0,0:0:0:0:
21,329,37152,6,0,P|17:299|91:233,1,140,2|8,0:0|3:0,0:0:0:0:
176,225,37561,2,0,P|180:195|106:129,1,140,10|8,3:0|3:0,0:0:0:0:
21,128,37970,1,10,3:0:0:0:
359,318,38243,6,0,P|411:311|357:208,1,224,4|8,0:0|3:0,0:0:0:0:
140,72,39334,6,0,L|365:64,1,224,2|8,0:0|3:0,0:0:0:0:
112,339,40424,6,0,P|113:275|178:236,1,140,6|12,0:0|0:3,0:0:0:0:
243,234,40834,1,2,0:0:0:0:
313,153,40970,2,0,L|172:148,1,140,12|4,3:3|3:0,0:0:0:0:
412,339,41515,6,0,L|417:198,1,140,8|2,0:0|0:0,0:0:0:0:
353,175,41924,1,4,3:0:0:0:
327,112,42060,1,4,3:0:0:0:
355,50,42197,1,4,3:0:0:0:
420,29,42333,1,2,0:0:0:0:
153,318,42606,6,0,P|101:311|155:208,1,224,2|8,0:0|3:0,0:0:0:0:
378,72,43697,6,0,L|153:64,1,224,2|8,0:0|3:0,0:0:0:0:
405,320,44788,6,0,P|448:272|408:220,1,140,6|12,0:0|0:3,0:0:0:0:
338,213,45197,1,2,0:0:0:0:
268,130,45334,2,0,L|407:126,1,140,12|4,3:3|3:0,0:0:0:0:
170,321,45879,6,0,P|114:310|115:238,1,140,2|2,0:0|0:0,0:0:0:0:
185,215,46288,1,0,0:0:0:0:
409,261,46424,2,0,P|465:250|464:178,1,140,10|10,0:0|0:0,0:0:0:0:
61,344,46970,6,0,P|54:318|173:192,1,224,4|8,0:0|3:0,0:0:0:0:
373,318,48061,6,0,P|425:311|371:208,1,224,2|8,0:0|3:0,0:0:0:0:
120,90,49152,6,0,L|261:86,1,140,6|8,0:0|3:0,0:0:0:0:
189,170,49561,1,4,3:0:0:0:
119,187,49697,2,0,P|120:251|185:290,1,140,12|2,3:0|0:0,0:0:0:0:
418,281,50243,5,12,3:0:0:0:
488,278,50379,1,4,3:0:0:0:
418,281,50515,1,4,3:0:0:0:
353,257,50652,1,2,0:0:0:0:
326,195,50788,1,8,3:0:0:0:
353,132,50924,1,2,0:0:0:0:
416,108,51061,1,8,3:0:0:0:
80,238,51334,5,2,0:0:0:0:
77,168,51470,1,2,0:0:0:0:
161,105,51606,2,0,L|304:99,1,140,2|10,0:0|3:0,0:0:0:0:
230,183,52015,1,2,0:0:0:0:
160,195,52152,2,0,L|146:233,2,35,2|2|2,0:0|0:0|0:0,0:0:0:0:
372,317,52424,6,0,P|424:310|370:207,1,224,6|2,0:0|0:0,0:0:0:0:
300,207,53106,1,2,0:0:0:0:
75,196,53243,1,0,0:0:0:0:
215,322,53515,6,0,P|231:288|131:179,1,210,4|4,0:0|3:0,0:0:0:0:
48,248,54061,2,0,L|44:108,1,140,8|2,3:0|0:0,0:0:0:0:
282,163,54606,6,0,L|296:201,2,35,4|4|4,3:0|3:0|3:0,0:0:0:0:
212,89,54879,1,6,3:0:0:0:
282,86,55015,1,0,0:0:0:0:
57,314,55152,2,0,P|31:285|81:207,1,140,2|2,0:0|0:0,0:0:0:0:
144,196,55561,1,2,0:0:0:0:
368,176,55697,5,6,0:0:0:0:
438,172,55834,1,0,0:0:0:0:
368,176,55970,1,8,0:0:0:0:
130,330,56243,2,0,P|132:294|207:232,1,140,2|8,0:0|0:0,0:0:0:0:
270,230,56652,1,0,0:0:0:0:
332,229,56788,5,2,0:0:0:0:
191,339,57061,1,8,0:0:0:0:
143,291,57197,1,0,0:0:0:0:
151,224,57334,1,2,0:0:0:0:
209,190,57470,1,0,0:0:0:0:
140,184,57606,1,8,0:0:0:0:
69,178,57743,1,0,0:0:0:0:
293,308,57879,6,0,P|349:297|348:225,1,140,2|8,0:0|0:0,0:0:0:0:
278,207,58288,1,0,0:0:0:0:
208,202,58424,1,2,0:0:0:0:
138,198,58561,1,0,0:0:0:0:
208,202,58697,1,8,0:0:0:0:
446,274,58970,6,0,L|452:131,1,140,2|8,0:0|0:0,0:0:0:0:
312,307,59515,2,0,L|306:164,1,140,2|10,0:0|0:0,0:0:0:0:
377,154,59924,1,2,0:0:0:0:
152,125,60061,5,2,0:0:0:0:
82,121,60197,1,2,0:0:0:0:
152,125,60334,1,6,0:0:0:0:
291,181,60606,1,2,0:0:0:0:
151,291,60879,1,10,0:0:0:0:
148,212,61015,1,2,0:0:0:0:
303,223,61152,6,0,P|359:212|358:140,1,140,6|2,0:0|0:0,0:0:0:0:
288,122,61561,1,0,0:0:0:0:
134,111,61697,2,0,P|78:121|79:193,1,140,2|10,0:0|0:0,0:0:0:0:
149,212,62106,1,2,0:0:0:0:
375,314,62243,6,0,P|409:302|375:230,1,140,6|12,3:0|2:3,0:0:0:0:
236,231,62788,1,6,3:0:0:0:
245,162,62924,1,4,3:0:0:0:
292,112,63061,1,14,2:3:0:0:
359,98,63197,1,2,0:0:0:0:
135,69,63334,6,0,P|89:111|136:153,1,140,2|2,0:0|0:0,0:0:0:0:
276,149,63879,1,2,0:0:0:0:
136,238,64152,2,0,L|122:276,2,35,2|2|2,0:0|0:0|0:0,0:0:0:0:
360,212,64424,5,6,0:0:0:0:
364,142,64561,1,0,0:0:0:0:
280,81,64697,2,0,L|422:79,1,140,8|2,0:0|0:0,0:0:0:0:
181,294,65243,1,8,0:0:0:0:
177,224,65379,1,0,0:0:0:0:
247,209,65515,5,2,0:0:0:0:
387,184,65788,1,2,0:0:0:0:
391,114,65924,1,0,0:0:0:0:
236,111,66061,2,0,L|222:149,2,35,2|2|2,0:0|0:0|0:0,0:0:0:0:
321,29,66334,1,10,0:0:0:0:
237,34,66470,1,2,0:0:0:0:
461,323,66606,6,0,P|476:300|415:225,1,140,6|8,0:0|0:0,0:0:0:0:
348,215,67015,1,0,0:0:0:0:
306,161,67152,1,2,0:0:0:0:
307,92,67288,1,0,0:0:0:0:
351,40,67424,1,8,0:0:0:0:
418,27,67561,1,0,0:0:0:0:
194,71,67697,6,0,L|89:65,2,105,6|6|6,0:3|0:3|0:3,0:0:0:0:
264,98,68243,2,0,L|282:166,3,70,2|2|2|2,0:0|0:0|0:0|0:0,0:0:0:0:
58,304,68788,5,6,0:0:0:0:
29,242,68924,1,0,0:0:0:0:
53,178,69061,1,2,0:0:0:0:
84,160,69129,1,2,0:0:0:0:
115,151,69197,1,2,0:0:0:0:
270,139,69334,1,2,0:0:0:0:
130,313,69606,1,10,0:0:0:0:
126,243,69743,1,2,0:0:0:0:
350,300,69879,6,0,P|406:289|405:217,1,140,6|2,0:0|0:0,0:0:0:0:
335,204,70288,1,2,0:0:0:0:
181,190,70424,2,0,L|167:228,2,35,2|2|2,0:0|0:0|0:0,0:0:0:0:
266,108,70697,1,10,0:0:0:0:
182,113,70834,1,2,0:0:0:0:
406,298,70970,6,0,P|436:259|379:196,1,140,6|10,0:0|0:0,0:0:0:0:
352,192,71311,1,2,0:0:0:0:
317,189,71379,1,2,0:0:0:0:
163,171,71515,2,0,P|107:160|108:88,1,140,6|10,0:0|0:0,0:0:0:0:
143,82,71856,1,2,0:0:0:0:
178,75,71924,1,2,0:0:0:0:
382,91,72061,6,0,L|173:79,2,210
46,255,73152,5,6,0:0:0:0:
256,192,75334,12,0,77243,0:0:0:0:
423,73,77515,5,6,0:0:0:0:
144,319,78197,1,0,0:0:0:0:
123,253,78334,1,0,0:0:0:0:
153,192,78470,1,0,0:0:0:0:
216,168,78606,6,0,L|361:165,2,140,0|0|0,0:0|0:0|0:0,0:0:0:0:
62,150,79288,2,0,L|49:117,2,35,0|0|0,0:0|0:0|0:0,0:0:0:0:
132,172,79561,1,0,0:0:0:0:
391,322,80379,1,0,0:0:0:0:
412,256,80515,1,0,0:0:0:0:
382,195,80652,1,0,0:0:0:0:
319,171,80788,6,0,L|174:168,2,140,0|0|0,0:0|0:0|0:0,0:0:0:0:
473,153,81470,2,0,L|486:120,2,35,0|0|0,0:0|0:0|0:0,0:0:0:0:
388,248,81743,2,0,L|375:215,2,35,0|0|0,0:0|0:0|0:0,0:0:0:0:
458,303,82015,5,0,0:0:0:0:
462,233,82152,1,0,0:0:0:0:
392,215,82288,1,0,0:0:0:0:
322,203,82424,1,0,0:0:0:0:
318,125,82561,1,0,0:0:0:0:
388,53,82697,1,0,0:0:0:0:
318,49,82834,1,0,0:0:0:0:
164,42,82970,5,0,0:0:0:0:
94,46,83106,1,0,0:0:0:0:
164,42,83243,1,0,0:0:0:0:
234,58,83379,1,0,0:0:0:0:
238,128,83515,1,0,0:0:0:0:
83,166,83652,2,0,L|70:199,2,35,0|0|0,0:0|0:0|0:0,0:0:0:0:
153,143,83924,1,0,0:0:0:0:
308,293,84061,6,0,P|315:264|243:195,1,140,0|0,0:0|0:0,0:0:0:0:
329,185,84470,2,0,P|388:153|392:86,1,140,0|0,0:0|0:0,0:0:0:0:
237,56,84879,6,0,L|96:53,1,140,0|0,0:0|0:0,0:0:0:0:
252,151,85288,2,0,L|393:148,1,140,0|0,0:0|0:0,0:0:0:0:
237,315,85697,5,0,0:0:0:0:
233,245,85834,1,0,0:0:0:0:
275,250,85902,1,0,0:0:0:0:
317,259,85970,1,0,0:0:0:0:
321,189,86106,1,0,0:0:0:0:
96,166,86243,6,0,P|49:206|97:246,1,140,2|8,0:0|0:0,0:0:0:0:
168,247,86652,1,2,0:0:0:0:
308,230,86924,1,2,0:0:0:0:
237,215,87061,1,8,0:0:0:0:
234,145,87197,1,0,0:0:0:0:
389,105,87334,5,2,0:0:0:0:
459,101,87470,1,0,0:0:0:0:
389,105,87606,1,8,0:0:0:0:
249,254,87879,1,0,0:0:0:0:
319,200,88015,2,0,L|332:233,2,35,2|0|8,0:0|0:0|0:0,0:0:0:0:
249,177,88288,1,0,0:0:0:0:
95,156,88424,5,2,0:0:0:0:
25,152,88561,1,0,0:0:0:0:
95,156,88697,1,8,0:0:0:0:
235,257,88970,1,0,0:0:0:0:
165,260,89107,1,2,0:0:0:0:
95,263,89243,1,8,0:0:0:0:
165,300,89379,1,0,0:0:0:0:
319,285,89515,6,0,P|365:244|318:204,1,140,2|8,0:0|0:0,0:0:0:0:
178,195,90061,1,0,0:0:0:0:
108,192,90197,1,2,0:0:0:0:
178,195,90334,1,8,0:0:0:0:
415,322,90606,6,0,L|419:179,1,140,2|8,0:0|0:0,0:0:0:0:
278,71,91152,2,0,L|420:68,1,140,0|8,0:0|0:0,0:0:0:0:
347,114,91561,1,0,0:0:0:0:
193,331,91697,5,2,0:0:0:0:
185,262,91834,1,0,0:0:0:0:
212,198,91970,1,8,0:0:0:0:
266,155,92106,1,2,0:0:0:0:
335,144,92243,1,0,0:0:0:0:
181,81,92379,2,0,L|168:114,2,35,2|0|8,0:0|0:0|0:0,0:0:0:0:
251,58,92652,1,0,0:0:0:0:
406,274,92788,6,0,P|457:262|454:186,1,140,2|8,0:0|0:0,0:0:0:0:
314,83,93334,2,0,L|456:80,1,140,0|8,0:0|0:0,0:0:0:0:
383,126,93743,1,0,0:0:0:0:
159,228,93879,6,0,L|122:224,2,35,2|2|2,0:0|0:0|0:0,0:0:0:0:
244,222,94152,1,2,0:0:0:0:
267,196,94220,1,2,0:0:0:0:
270,162,94288,1,2,0:0:0:0:
252,133,94356,1,2,0:0:0:0:
220,121,94424,1,2,0:0:0:0:
135,113,94561,1,2,0:0:0:0:
345,98,94697,1,2,0:0:0:0:
233,322,94970,6,0,P|217:301|272:221,1,140,6|8,0:0|0:0,0:0:0:0:
356,216,95379,2,0,P|390:204|356:74,1,210,0|8,0:0|0:0,0:0:0:0:
120,323,96061,6,0,L|116:184,1,140,2|8,0:0|0:0,0:0:0:0:
185,175,96470,1,0,0:0:0:0:
255,97,96606,2,0,L|115:91,1,140,2|8,0:0|0:0,0:0:0:0:
354,291,97152,6,0,P|407:282|402:208,1,140,2|8,0:0|0:0,0:0:0:0:
333,198,97561,1,0,0:0:0:0:
263,188,97697,1,2,0:0:0:0:
123,205,97970,1,8,0:0:0:0:
361,327,98243,6,0,L|365:185,1,140,2|8,0:0|0:0,0:0:0:0:
127,306,98788,2,0,L|123:164,1,140,2|8,0:0|0:0,0:0:0:0:
460,176,99334,5,10,0:0:0:0:
445,99,99470,1,10,0:0:0:0:
376,101,99606,1,10,0:0:0:0:
236,203,99879,2,0,L|376:200,1,140,2|8,0:0|0:0,0:0:0:0:
138,317,100424,6,0,P|81:305|91:237,1,140,2|8,0:0|0:0,0:0:0:0:
160,224,100834,1,0,0:0:0:0:
228,212,100970,1,2,0:0:0:0:
368,121,101243,1,10,0:0:0:0:
300,109,101379,1,2,0:0:0:0:
146,103,101515,6,0,L|40:107,2,105,2|2|2,0:0|0:0|0:0,0:0:0:0:
216,192,102061,2,0,L|220:158,1,35,2|2,0:0|0:0,0:0:0:0:
109,266,102334,2,0,L|106:197,1,70,8|2,0:0|0:0,0:0:0:0:
260,129,102606,6,0,L|364:125,2,105,2|2|2,0:0|0:0|0:0,0:0:0:0:
189,211,103152,2,0,L|241:212,1,35,2|2,0:0|0:0,0:0:0:0:
329,335,103424,2,0,L|333:261,1,70,8|2,0:0|0:0,0:0:0:0:
178,272,103697,6,0,L|174:198,1,70,10|10,0:0|0:0,0:0:0:0:
378,94,103970,6,0,L|237:89,2,140,6|2|8,0:0|0:0|0:0,0:0:0:0:
140,273,104788,5,2,0:0:0:0:
280,240,105061,1,8,0:0:0:0:
221,198,105197,1,0,0:0:0:0:
162,159,105334,1,2,0:0:0:0:
22,139,105606,1,8,0:0:0:0:
260,319,105879,5,2,0:0:0:0:
401,292,106152,1,8,0:0:0:0:
403,222,106288,1,0,0:0:0:0:
405,152,106424,1,2,0:0:0:0:
265,162,106697,1,8,0:0:0:0:
261,92,106834,1,0,0:0:0:0:
416,204,106970,6,0,P|470:183|448:118,1,140,2|8,0:0|0:0,0:0:0:0:
210,284,107515,2,0,L|349:281,1,140,2|8,0:0|0:0,0:0:0:0:
13,281,108061,5,2,0:0:0:0:
27,205,108197,1,2,0:0:0:0:
97,190,108334,1,6,0:0:0:0:
237,107,108606,2,0,L|98:104,1,140,2|8,0:0|0:0,0:0:0:0:
336,266,109152,5,2,0:0:0:0:
374,253,109220,1,2,0:0:0:0:
394,217,109288,1,2,0:0:0:0:
383,177,109356,1,2,0:0:0:0:
348,156,109424,1,8,0:0:0:0:
278,148,109561,1,0,0:0:0:0:
124,193,109697,5,2,0:0:0:0:
89,172,109765,1,2,0:0:0:0:
78,131,109833,1,2,0:0:0:0:
98,95,109901,1,2,0:0:0:0:
136,83,109969,1,8,0:0:0:0:
206,78,110106,1,2,0:0:0:0:
362,103,110243,6,0,L|468:107,2,105,2|2|0,0:0|0:0|0:0,0:0:0:0:
292,192,110788,2,0,L|288:158,1,35,2|2,0:0|0:0,0:0:0:0:
399,266,111061,2,0,L|402:197,1,70,10|2,0:0|0:0,0:0:0:0:
248,129,111334,6,0,L|144:125,2,105,2|2|2,0:0|0:0|0:0,0:0:0:0:
319,211,111879,2,0,L|267:212,1,35,2|0,0:0|0:0,0:0:0:0:
179,335,112152,2,0,L|175:261,1,70,8|2,0:0|0:0,0:0:0:0:
399,201,112424,5,6,0:0:0:0:
100,341,116788,5,2,0:0:0:0:
82,274,116924,1,2,0:0:0:0:
116,215,117061,1,2,0:0:0:0:
181,195,117197,1,2,0:0:0:0:
252,182,117334,1,2,0:0:0:0:
269,115,117470,1,2,0:0:0:0:
235,56,117606,1,2,0:0:0:0:
170,36,117743,1,2,0:0:0:0:
331,28,117879,5,2,0:0:0:0:
397,37,118015,1,2,0:0:0:0:
427,97,118152,1,2,0:0:0:0:
394,156,118288,1,2,0:0:0:0:
233,171,118424,5,2,0:0:0:0:
198,172,118493,1,2,0:0:0:0:
168,190,118561,1,2,0:0:0:0:
150,220,118629,1,2,0:0:0:0:
149,255,118697,1,2,0:0:0:0:
164,286,118765,1,2,0:0:0:0:
191,307,118834,1,2,0:0:0:0:
413,316,118970,6,0,L|419:212,1,105,2|2,0:0|0:0,0:0:0:0:
314,170,119379,1,2,0:0:0:0:
244,103,119515,2,0,L|280:99,1,35,2|2,0:0|0:0,0:0:0:0:
384,22,119788,2,0,L|312:20,1,70,2|2,0:0|0:0,0:0:0:0:
159,19,120061,6,0,L|54:21,2,105,2|2|2,0:0|0:0|0:0,0:0:0:0:
229,132,120606,2,0,L|234:98,1,35,2|2,0:0|0:0,0:0:0:0:
129,223,120879,2,0,L|127:151,1,70,2|2,0:0|0:0,0:0:0:0:
352,62,121152,5,6,0:0:0:0:
157,52,121697,5,2,0:0:0:0:
354,141,122243,5,2,0:0:0:0:
159,149,122788,5,2,0:0:0:0:
354,226,123334,5,2,0:0:0:0:
159,232,123879,5,2,0:0:0:0:
368,304,124424,5,2,0:0:0:0:
145,310,124970,2,0,P|113:288|145:245,1,105,2|2,0:0|0:0,0:0:0:0:
188,193,125243,1,2,0:0:0:0:
118,189,125379,1,2,0:0:0:0:
319,100,125515,5,10,0:0:0:0:
389,103,125652,1,10,0:0:0:0:
319,100,125788,1,10,0:0:0:0:
179,309,126061,2,0,L|175:167,1,140,2|8,0:0|0:0,0:0:0:0:
413,251,126606,6,0,P|447:241|437:151,1,140,2|8,0:0|0:0,0:0:0:0:
371,146,127015,1,0,0:0:0:0:
216,243,127152,1,2,0:0:0:0:
213,173,127288,1,0,0:0:0:0:
298,198,127424,1,10,0:0:0:0:
300,128,127561,1,2,0:0:0:0:
146,96,127697,5,6,0:0:0:0:
108,113,127765,1,2,0:0:0:0:
92,150,127834,1,2,0:0:0:0:
106,189,127902,1,2,0:0:0:0:
142,208,127970,1,8,0:0:0:0:
212,215,128106,1,2,0:0:0:0:
282,209,128243,2,0,L|285:172,1,35,2|2,0:0|0:0,0:0:0:0:
193,317,128515,2,0,L|191:245,1,70,8|2,0:0|0:0,0:0:0:0:
346,281,128788,5,2,0:0:0:0:
386,277,128856,1,2,0:0:0:0:
415,248,128924,1,2,0:0:0:0:
419,207,128993,1,2,0:0:0:0:
395,174,129061,1,2,0:0:0:0:
325,161,129197,1,2,0:0:0:0:
255,153,129334,5,2,0:0:0:0:
325,161,129470,1,2,0:0:0:0:
123,230,129606,1,2,0:0:0:0:
263,310,129879,5,6,0:0:0:0:
266,240,130015,1,0,0:0:0:0:
173,154,130152,2,0,L|314:148,1,140,8|2,0:0|0:0,0:0:0:0:
173,50,130697,1,8,0:0:0:0:
103,46,130834,1,0,0:0:0:0:
173,50,130970,5,2,0:0:0:0:
313,336,131243,1,8,0:0:0:0:
330,269,131379,1,0,0:0:0:0:
309,203,131515,1,2,0:0:0:0:
239,170,131652,1,0,0:0:0:0:
309,155,131788,1,10,0:0:0:0:
377,145,131925,1,2,0:0:0:0:
170,109,132061,6,0,P|120:115|115:193,1,140,6|8,0:0|0:0,0:0:0:0:
184,232,132470,1,0,0:0:0:0:
254,313,132606,1,2,0:0:0:0:
249,237,132743,1,0,0:0:0:0:
179,232,132879,1,8,0:0:0:0:
417,257,133152,6,0,P|451:220|403:160,1,140,2|8,0:0|0:0,0:0:0:0:
334,142,133561,1,0,0:0:0:0:
265,133,133697,1,2,0:0:0:0:
405,328,133970,1,2,0:0:0:0:
409,258,134106,1,2,0:0:0:0:
184,269,134243,6,0,L|171:302,2,35,6|6|6,0:0|0:0|0:0,0:0:0:0:
254,199,134515,1,8,0:0:0:0:
184,189,134652,1,2,0:0:0:0:
338,186,134788,1,2,0:0:0:0:
358,157,134856,1,2,0:0:0:0:
365,123,134924,1,2,0:0:0:0:
338,60,135061,1,8,0:0:0:0:
275,36,135197,1,2,0:0:0:0:
120,33,135334,6,0,L|80:37,2,35,2|2|2,0:0|0:0|0:0,0:0:0:0:
190,43,135606,1,8,0:0:0:0:
238,110,135743,1,2,0:0:0:0:
236,193,135879,1,2,0:0:0:0:
186,259,136015,1,2,0:0:0:0:
116,270,136152,2,0,L|103:303,2,35,10|2|2,0:0|0:0|0:0,0:0:0:0:
340,332,136424,5,2,0:0:0:0:
377,307,136493,1,2,0:0:0:0:
400,268,136561,1,2,0:0:0:0:
404,223,136629,1,2,0:0:0:0:
387,181,136697,1,2,0:0:0:0:
354,151,136765,1,2,0:0:0:0:
311,138,136834,1,2,0:0:0:0:
157,284,136970,5,2,0:0:0:0:
114,270,137038,1,2,0:0:0:0:
81,241,137106,1,2,0:0:0:0:
64,198,137175,1,2,0:0:0:0:
67,154,137243,1,2,0:0:0:0:
90,114,137311,1,2,0:0:0:0:
128,89,137379,1,2,0:0:0:0:
326,46,137515,6,0,L|184:35,2,140,2|2|2,0:0|0:0|0:0,0:0:0:0:
186,147,138334,2,0,L|172:185,2,35,2|2|2,0:0|0:0|0:0,0:0:0:0:
436,201,138606,5,6,0:0:0:0:
506,197,138743,1,0,0:0:0:0:
436,201,138879,1,2,0:0:0:0:
296,182,139152,1,2,0:0:0:0:
156,257,139424,1,2,0:0:0:0:
166,194,139561,1,0,0:0:0:0:
236,175,139697,5,2,0:0:0:0:
376,262,139970,1,2,0:0:0:0:
379,192,140106,1,0,0:0:0:0:
357,126,140243,1,2,0:0:0:0:
312,73,140379,1,0,0:0:0:0:
251,41,140515,1,2,0:0:0:0:
181,33,140652,1,2,0:0:0:0:
335,316,140788,6,0,P|393:268|372:217,1,140,6|2,0:0|0:0,0:0:0:0:
302,210,141197,1,0,0:0:0:0:
260,156,141334,1,2,0:0:0:0:
261,87,141470,1,0,0:0:0:0:
305,35,141606,1,2,0:0:0:0:
372,22,141743,1,0,0:0:0:0:
218,37,141879,6,0,L|113:31,2,105,6|6|6,3:0|3:0|3:0,0:0:0:0:
288,179,142425,1,2,0:0:0:0:
292,109,142561,1,2,0:0:0:0:
222,216,142697,1,2,0:0:0:0:
218,146,142834,1,2,0:0:0:0:
427,187,142970,5,6,0:0:0:0:
431,115,143106,1,0,0:0:0:0:
361,112,143243,1,2,0:0:0:0:
222,168,143515,1,2,0:0:0:0:
362,290,143788,1,2,0:0:0:0:
366,220,143925,1,2,0:0:0:0:
212,190,144061,6,0,L|73:195,1,140,6|2,0:0|0:0,0:0:0:0:
143,278,144470,1,0,0:0:0:0:
213,287,144606,1,2,0:0:0:0:
353,269,144879,1,2,0:0:0:0:
356,199,145015,1,2,0:0:0:0:
201,181,145152,6,0,P|158:133|198:81,1,140,6|2,0:0|0:0,0:0:0:0:
268,74,145561,1,0,0:0:0:0:
338,25,145697,2,0,L|199:20,1,140,6|2,0:0|0:0,0:0:0:0:
437,338,146243,6,0,P|441:308|367:242,1,140,2|0,0:0|0:0,0:0:0:0:
282,234,146652,2,0,P|278:204|352:138,1,140,0|0,0:0|0:0,0:0:0:0:
437,137,147061,1,0,0:0:0:0:
101,108,147334,5,2,0:0:0:0:
256,192,147606,12,0,149379,0:0:0:0:
