osu file format v14

[General]
AudioFilename: audio.mp3
AudioLeadIn: 0
PreviewTime: 93811
Countdown: 0
SampleSet: Soft
StackLeniency: 0.7
Mode: 2
LetterboxInBreaks: 0
WidescreenStoryboard: 1

[Editor]
Bookmarks: 20788,38243,55697,73152,77515,86243,93879,94970,112424,116788,121152,129879,138606,142970,147334
DistanceSpacing: 1.8
BeatDivisor: 4
GridSize: 4
TimelineZoom: 4.099999

[Metadata]
Title:Txxs or get the fxxk out!!
TitleUnicode:Txxs or get the fxxk out!!
Artist:Morimori Atsushi
ArtistUnicode:モリモリあつし
Creator:Nelly
Version:Divine Spirit
Source:東方神霊廟 ~ Ten Desires.
Tags:-momox momox -joakh video game instrumental osu osu! fa featured artist mpg mappers guild mg 非可逆リズム 上海アリス幻楽団 tits fuck gfto zun 東方project 上海アリス幻樂団 team shanghai alice touhou shinreibyou デザイアドライブ desire drive
BeatmapID:2867757
BeatmapSetID:1388539

[Difficulty]
HPDrainRate:6
CircleSize:4
OverallDifficulty:9.6
ApproachRate:9.6
SliderMultiplier:2.2
SliderTickRate:2

[Events]
//Background and Video events
0,0,"bg.jpg",0,0
//Break Periods
2,73352,74825
//Storyboard Layer 0 (Background)
//Storyboard Layer 1 (Fail)
//Storyboard Layer 2 (Pass)
//Storyboard Layer 3 (Foreground)
//Storyboard Layer 4 (Overlay)
//Storyboard Sound Samples

[TimingPoints]
3334,272.727272727273,4,2,1,80,1,0
20788,-100,4,2,2,80,0,1
20856,-100,4,2,1,80,0,0
29515,-100,4,2,30,80,0,0
29584,-100,4,2,1,80,0,0
33879,-100,4,2,30,80,0,0
33947,-100,4,2,1,80,0,0
38243,-166.666666666667,4,2,30,80,0,1
38311,-166.666666666667,4,2,1,80,0,0
40424,-100,4,2,1,80,0,0
42606,-166.666666666667,4,2,1,80,0,0
44788,-100,4,2,1,80,0,0
46424,-100,4,2,2,80,0,0
46970,-166.666666666667,4,2,1,80,0,0
49152,-100,4,2,1,80,0,0
51879,-45.4545454545455,4,2,1,80,0,0
52015,-100,4,2,1,80,0,0
52424,-166.666666666667,4,2,30,80,0,0
52561,-166.666666666667,4,2,1,80,0,0
52970,-45.4545454545455,4,2,1,80,0,0
53106,-100,4,2,1,80,0,0
55424,-100,4,2,8,80,0,0
55561,-100,4,2,1,80,0,0
55697,-100,4,2,2,80,0,1
55765,-100,4,2,1,80,0,0
60334,-100,4,2,30,80,0,0
60470,-100,4,2,1,80,0,0
61152,-100,4,2,30,80,0,0
61288,-100,4,2,1,80,0,0
64424,-100,4,2,30,80,0,0
64561,-100,4,2,1,80,0,0
68788,-100,4,2,30,80,0,0
68924,-100,4,2,1,80,0,0
69879,-100,4,2,30,80,0,0
70015,-100,4,2,1,80,0,0
73152,-100,4,2,2,80,0,0
77515,-166.666666666667,4,2,30,80,0,0
77652,-166.666666666667,4,2,1,80,0,0
86243,-125,4,2,2,80,0,0
93879,-100,4,2,1,80,0,0
94970,-100,4,2,2,80,0,1
103697,-100,4,2,1,80,0,0
103970,-100,4,2,2,80,0,1
108334,-100,4,2,1,80,0,1
108402,-100,4,2,2,80,0,1
112424,-166.666666666667,4,2,30,80,0,0
112561,-166.666666666667,4,2,1,80,0,0
116788,-100,4,2,1,80,0,1
121152,-100,4,2,1,80,0,0
125515,-100,4,2,2,80,0,0
125924,-100,4,2,1,80,0,0
129606,-100,4,2,8,80,0,0
129743,-100,4,2,1,80,0,0
129879,-100,4,2,2,80,0,1
129947,-100,4,2,1,80,0,0
138606,-125,4,2,30,80,0,0
138743,-125,4,2,1,80,0,0
142970,-166.666666666667,4,2,30,80,0,0
143106,-166.666666666667,4,2,1,80,0,0
144061,-166.666666666667,4,2,30,80,0,0
144197,-166.666666666667,4,2,1,80,0,0
145152,-166.666666666667,4,2,30,80,0,0
145288,-166.666666666667,4,2,1,80,0,0
145697,-166.666666666667,4,2,30,80,0,0
145834,-166.666666666667,4,2,1,80,0,0

[Colours]
Combo1 : 255,125,119
Combo2 : 40,131,240
Combo3 : 92,204,252
Combo4 : 128,255,179

[HitObjects]
93,253,19697,5,0,0:0:0:0:
256,192,19970,5,0,0:0:0:0:
419,130,20243,5,0,0:0:0:0:
106,340,20788,6,0,L|103:231,1,110,6|0,0:0|0:0,0:0:0:0:
302,148,21061,1,8,0:0:0:0:
170,141,21197,1,0,0:0:0:0:
369,258,21334,2,0,L|478:255,1,110,2|0,0:0|0:0,0:0:0:0:
281,49,21606,1,8,0:0:0:0:
413,42,21743,1,0,0:0:0:0:
214,342,21879,6,0,L|211:233,1,110,2|0,0:0|0:0,0:0:0:0:
410,150,22152,2,0,L|301:147,1,110,8|0,0:0|0:0,0:0:0:0:
103,300,22424,2,0,L|100:191,1,110,2|0,0:0|0:0,0:0:0:0:
299,52,22697,1,10,0:0:0:0:
100,45,22834,1,2,0:0:0:0:
297,242,22970,6,0,L|406:239,1,110,6|0,0:0|0:0,0:0:0:0:
208,137,23243,1,8,0:0:0:0:
340,130,23379,1,0,0:0:0:0:
142,230,23515,1,2,0:0:0:0:
341,322,23652,1,0,0:0:0:0:
208,328,23788,1,8,0:0:0:0:
406,228,23924,1,0,0:0:0:0:
207,199,24061,6,0,L|205:90,1,110,2|0,0:0|0:0,0:0:0:0:
338,42,24334,2,0,L|229:39,1,110,8|0,0:0|0:0,0:0:0:0:
426,147,24606,2,0,L|317:144,1,110,2|0,0:0|0:0,0:0:0:0:
117,250,24879,1,10,0:0:0:0:
315,249,25015,1,2,0:0:0:0:
116,154,25152,6,0,L|7:151,1,110,6|0,0:0|0:0,0:0:0:0:
204,47,25424,1,8,0:0:0:0:
72,54,25561,1,0,0:0:0:0:
271,338,25697,2,0,L|273:229,1,110,2|0,0:0|0:0,0:0:0:0:
140,273,25970,2,0,L|138:164,1,110,8|0,0:0|0:0,0:0:0:0:
337,109,26243,6,0,L|446:106,1,110,2|0,0:0|0:0,0:0:0:0:
250,221,26515,1,8,0:0:0:0:
382,214,26652,1,0,0:0:0:0:
183,323,26788,1,2,0:0:0:0:
381,127,26924,1,0,0:0:0:0:
248,119,27061,1,10,0:0:0:0:
381,127,27197,1,2,0:0:0:0:
182,224,27334,6,0,L|73:221,1,110,6|0,0:0|0:0,0:0:0:0:
269,313,27606,1,8,0:0:0:0:
136,319,27743,1,0,0:0:0:0:
334,219,27879,1,2,0:0:0:0:
135,127,28015,1,0,0:0:0:0:
268,121,28152,1,8,0:0:0:0:
70,221,28288,1,0,0:0:0:0:
419,253,28424,5,2,0:0:0:0:
256,192,28697,5,2,0:0:0:0:
93,130,28970,5,2,0:0:0:0:
313,328,29243,6,0,L|259:326,1,55,2|2,0:0|0:0,0:0:0:0:
104,315,29379,2,0,L|50:313,1,55,2|2,0:0|0:0,0:0:0:0:
262,240,29515,6,0,L|371:237,1,110,6|0,0:0|0:0,0:0:0:0:
173,146,29788,1,8,0:0:0:0:
305,139,29924,1,0,0:0:0:0:
106,43,30061,2,0,L|215:40,1,110,2|0,0:0|0:0,0:0:0:0:
415,144,30334,1,8,0:0:0:0:
283,137,30470,1,0,0:0:0:0:
481,340,30606,6,0,L|483:231,1,110,2|0,0:0|0:0,0:0:0:0:
284,232,30879,1,8,0:0:0:0:
416,225,31015,1,0,0:0:0:0:
217,322,31152,5,2,0:0:0:0:
184,322,31186,1,2,0:0:0:0:
217,322,31220,1,2,0:0:0:0:
184,322,31254,1,2,0:0:0:0:
217,322,31288,1,2,0:0:0:0:
414,138,31424,1,10,0:0:0:0:
215,136,31561,1,2,0:0:0:0:
412,321,31697,6,0,L|303:318,1,110,6|0,0:0|0:0,0:0:0:0:
103,236,31970,1,8,0:0:0:0:
235,229,32106,1,0,0:0:0:0:
36,152,32243,1,2,0:0:0:0:
234,132,32379,1,0,0:0:0:0:
102,140,32515,1,8,0:0:0:0:
100,261,32652,1,0,0:0:0:0:
385,331,32788,5,6,0:3:0:0:
203,324,32993,1,6,0:3:0:0:
385,331,33197,1,6,0:3:0:0:
142,227,33334,5,2,0:0:0:0:
339,186,33470,1,2,0:0:0:0:
207,174,33606,1,2,0:0:0:0:
406,115,33743,1,2,0:0:0:0:
208,87,33879,6,0,L|98:84,1,110,6|0,0:0|0:0,0:0:0:0:
297,201,34152,1,8,0:0:0:0:
165,189,34288,1,0,0:0:0:0:
363,306,34424,2,0,L|253:303,1,110,2|0,0:0|0:0,0:0:0:0:
54,224,34697,1,2,0:0:0:0:
253,222,34834,1,2,0:0:0:0:
55,117,34970,6,0,L|165:114,1,110,6|0,0:0|0:0,0:0:0:0:
364,36,35243,1,8,0:0:0:0:
232,24,35379,1,0,0:0:0:0:
429,301,35515,5,2,0:0:0:0:
462,301,35549,1,2,0:0:0:0:
429,301,35584,1,2,0:0:0:0:
462,301,35618,1,2,0:0:0:0:
429,301,35652,1,2,0:0:0:0:
232,209,35788,1,10,0:0:0:0:
431,207,35924,1,2,0:0:0:0:
232,317,36061,6,0,L|122:314,1,110,6|0,0:0|0:0,0:0:0:0:
321,194,36334,1,8,0:0:0:0:
122,196,36470,1,0,0:0:0:0:
320,89,36606,1,6,0:0:0:0:
187,91,36743,1,0,0:0:0:0:
320,89,36879,1,2,0:0:0:0:
122,196,37015,1,0,0:0:0:0:
368,328,37152,6,0,P|392:323|368:225,1,165,2|0,0:0|0:0,0:0:0:0:
182,218,37424,1,8,3:0:0:0:
304,198,37561,2,0,L|308:89,1,110,10|2,3:0|0:0,0:0:0:0:
186,48,37834,2,0,L|131:46,1,55,8|8,3:0|3:0,0:0:0:0:
285,154,37970,2,0,L|176:150,1,110,10|2,3:0|0:0,0:0:0:0:
418,305,38243,6,0,P|441:300|415:132,1,263.99999194336,4|8,0:0|3:0,0:0:0:0:
127,58,39334,6,0,L|396:54,1,263.99999194336,2|8,0:0|3:0,0:0:0:0:
94,305,40424,5,6,0:0:0:0:
216,290,40561,2,0,L|217:236,1,55,4|4,3:0|3:0,0:0:0:0:
151,184,40697,2,0,L|263:180,1,110,12|2,0:3|0:0,0:0:0:0:
393,217,40970,1,12,3:3:0:0:
435,183,41038,1,4,3:0:0:0:
444,130,41106,1,4,3:0:0:0:
416,84,41174,1,4,3:0:0:0:
364,68,41243,1,4,3:0:0:0:
231,64,41379,1,2,0:0:0:0:
363,316,41515,5,8,0:0:0:0:
241,296,41652,2,0,L|238:187,1,110,2|2,0:0|0:0,0:0:0:0:
370,115,41924,2,0,L|424:117,2,55,4|4|4,3:0|3:0|3:0,0:0:0:0:
237,25,42197,2,0,L|347:21,1,110,4|2,3:0|0:0,0:0:0:0:
479,43,42470,1,2,0:0:0:0:
94,305,42606,6,0,P|71:300|97:132,1,263.99999194336,2|8,0:0|3:0,0:0:0:0:
385,58,43697,6,0,L|116:54,1,263.99999194336,2|8,0:0|3:0,0:0:0:0:
418,305,44788,5,6,0:0:0:0:
297,294,44924,1,4,3:0:0:0:
295,239,44993,1,4,3:0:0:0:
293,184,45061,1,12,0:3:0:0:
184,156,45197,1,2,0:0:0:0:
293,184,45334,1,12,3:3:0:0:
341,160,45402,1,4,3:0:0:0:
360,110,45470,1,4,3:0:0:0:
339,60,45538,1,4,3:0:0:0:
290,38,45606,1,4,3:0:0:0:
157,32,45743,1,2,0:0:0:0:
289,275,45879,6,0,L|291:166,1,110,2|2,0:0|0:0,0:0:0:0:
158,208,46152,2,0,L|156:99,1,110,2|0,0:0|0:0,0:0:0:0:
222,89,46356,1,0,0:0:0:0:
474,97,46424,5,10,0:0:0:0:
38,137,46697,5,10,0:0:0:0:
418,305,46970,6,0,P|441:300|415:132,1,263.99999194336,4|8,0:0|3:0,0:0:0:0:
127,58,48061,6,0,L|396:54,1,263.99999194336,2|8,0:0|3:0,0:0:0:0:
94,344,49152,6,0,L|88:234,1,110,6|4,0:0|3:0,0:0:0:0:
220,287,49424,2,0,L|226:177,1,110,8|4,3:0|3:0,0:0:0:0:
227,122,49629,1,4,3:0:0:0:
201,74,49697,1,12,3:0:0:0:
156,44,49765,1,4,3:0:0:0:
102,38,49834,1,4,3:0:0:0:
234,25,49970,1,2,0:0:0:0:
102,160,50106,1,2,0:0:0:0:
156,159,50174,1,4,3:0:0:0:
211,158,50243,5,12,3:0:0:0:
344,276,50379,1,4,3:0:0:0:
289,275,50447,1,4,3:0:0:0:
234,274,50515,1,4,3:0:0:0:
367,181,50652,1,2,0:0:0:0:
235,160,50788,2,0,L|233:50,1,110,8|2,3:0|0:0,0:0:0:0:
366,38,51061,1,8,3:0:0:0:
234,33,51197,1,2,0:0:0:0:
477,265,51334,6,0,L|420:264,1,55,2|2,0:0|0:0,0:0:0:0:
246,262,51470,1,2,0:0:0:0:
356,351,51606,2,0,L|359:295,1,55,2|2,0:0|0:0,0:0:0:0:
281,300,51743,2,0,L|284:244,1,55,2|2,0:0|0:0,0:0:0:0:
453,172,51879,6,0,L|211:161,1,242.000007385254,10|2,3:0|0:0,0:0:0:0:
344,278,52152,1,2,0:0:0:0:
372,220,52220,1,2,0:0:0:0:
350,159,52288,1,2,0:0:0:0:
291,134,52356,1,2,0:0:0:0:
94,305,52424,6,0,P|70:299|97:131,1,247.4999924469,6|0,0:0|0:0,0:0:0:0:
109,132,52970,6,0,L|350:127,1,242.000007385254,2|2,0:0|0:0,0:0:0:0:
86,338,53243,2,0,L|83:229,1,110,0|0,0:0|0:0,0:0:0:0:
390,286,53515,6,0,P|414:281|390:183,1,165,4|0,0:0|0:0,0:0:0:0:
323,180,53788,2,0,L|321:70,1,110,4|4,3:0|3:0,0:0:0:0:
388,62,53993,1,4,3:0:0:0:
179,38,54061,6,0,P|155:43|179:141,1,165,8|0,3:0|0:0,0:0:0:0:
357,143,54334,2,0,L|467:142,1,110,2|0,0:0|0:0,0:0:0:0:
226,317,54606,6,0,L|224:263,1,55,4|4,3:0|3:0,0:0:0:0:
302,267,54743,2,0,L|300:213,1,55,4|4,3:0|3:0,0:0:0:0:
223,136,54879,2,0,L|333:133,1,110,6|0,3:0|0:0,0:0:0:0:
38,246,55152,5,2,0:0:0:0:
474,287,55424,6,0,L|476:177,1,110,2|2,0:0|0:0,0:0:0:0:
189,92,55697,6,0,L|299:90,1,110,6|0,0:0|0:0,0:0:0:0:
100,203,55970,1,8,0:0:0:0:
232,193,56106,1,0,0:0:0:0:
33,316,56243,2,0,L|30:207,1,110,2|0,0:0|0:0,0:0:0:0:
227,307,56515,1,8,0:0:0:0:
95,297,56652,1,0,0:0:0:0:
292,220,56788,6,0,L|402:218,1,110,2|0,0:0|0:0,0:0:0:0:
203,125,57061,1,8,0:0:0:0:
335,115,57197,1,0,0:0:0:0:
136,36,57334,1,2,0:0:0:0:
333,323,57470,1,0,0:0:0:0:
201,313,57606,1,8,0:0:0:0:
333,323,57743,1,0,0:0:0:0:
135,342,57879,6,0,L|131:232,1,110,2|0,0:0|0:0,0:0:0:0:
330,140,58152,1,8,0:0:0:0:
198,130,58288,1,0,0:0:0:0:
395,62,58424,1,2,0:0:0:0:
196,222,58561,1,0,0:0:0:0:
328,213,58697,1,8,0:0:0:0:
196,222,58834,1,0,0:0:0:0:
437,332,58970,6,0,L|441:223,1,110,2|0,0:0|0:0,0:0:0:0:
242,130,59243,1,8,0:0:0:0:
374,121,59379,1,0,0:0:0:0:
177,273,59515,2,0,L|68:269,1,110,2|0,0:0|0:0,0:0:0:0:
266,161,59788,1,10,0:0:0:0:
68,164,59924,1,2,0:0:0:0:
267,62,60061,5,2,0:0:0:0:
135,53,60197,1,2,0:0:0:0:
334,284,60334,2,0,L|443:280,1,110,6|0,0:0|0:0,0:0:0:0:
246,341,60606,2,0,L|242:232,1,110,2|0,0:0|0:0,0:0:0:0:
441,109,60879,1,10,0:0:0:0:
243,112,61015,1,2,0:0:0:0:
442,314,61152,6,0,P|457:283|381:201,1,165,6|2,0:0|0:0,0:0:0:0:
205,114,61424,1,2,0:0:0:0:
337,105,61561,1,0,0:0:0:0:
139,194,61697,1,2,0:0:0:0:
338,286,61834,1,0,0:0:0:0:
206,277,61970,1,10,0:0:0:0:
404,202,62106,2,0,L|350:198,1,55,2|2,0:0|0:0,0:0:0:0:
137,313,62243,5,6,3:0:0:0:
105,303,62277,1,4,3:0:0:0:
83,280,62311,1,4,3:0:0:0:
75,248,62345,1,4,3:0:0:0:
83,217,62379,1,6,3:0:0:0:
106,193,62413,1,4,3:0:0:0:
137,184,62447,1,4,3:0:0:0:
335,121,62515,5,12,2:3:0:0:
308,120,62549,1,4,3:0:0:0:
282,120,62584,1,4,3:0:0:0:
256,119,62618,1,4,3:0:0:0:
229,118,62652,1,4,3:0:0:0:
202,117,62686,1,4,3:0:0:0:
176,117,62720,1,4,3:0:0:0:
369,236,62788,5,6,3:0:0:0:
402,233,62822,1,4,3:0:0:0:
369,236,62856,1,4,3:0:0:0:
143,236,62924,1,4,3:0:0:0:
110,233,62959,1,4,3:0:0:0:
143,236,62993,1,6,3:0:0:0:
369,236,63061,5,14,2:3:0:0:
402,233,63095,1,4,3:0:0:0:
369,236,63129,1,6,3:0:0:0:
143,236,63197,1,2,0:0:0:0:
110,233,63231,1,0,0:0:0:0:
143,236,63265,1,2,0:0:0:0:
419,253,63334,5,2,0:0:0:0:
256,192,63606,6,0,L|254:83,1,110,2|4,0:0|3:0,0:0:0:0:
282,81,63777,1,4,3:0:0:0:
309,81,63811,1,4,3:0:0:0:
336,81,63845,1,4,3:0:0:0:
440,76,63879,5,2,0:0:0:0:
219,328,64152,6,0,L|273:326,1,55,2|2,0:0|0:0,0:0:0:0:
408,315,64288,2,0,L|462:313,1,55,2|2,0:0|0:0,0:0:0:0:
250,240,64424,6,0,L|141:237,1,110,6|0,0:0|0:0,0:0:0:0:
339,146,64697,1,8,0:0:0:0:
207,139,64834,1,0,0:0:0:0:
406,43,64970,2,0,L|297:40,1,110,2|0,0:0|0:0,0:0:0:0:
97,144,65243,1,8,0:0:0:0:
229,137,65379,1,0,0:0:0:0:
31,340,65515,6,0,L|29:231,1,110,2|0,0:0|0:0,0:0:0:0:
228,232,65788,1,2,0:0:0:0:
96,225,65924,1,0,0:0:0:0:
295,322,66061,5,2,0:0:0:0:
328,322,66095,1,2,0:0:0:0:
295,322,66129,1,2,0:0:0:0:
328,322,66163,1,2,0:0:0:0:
295,322,66197,1,2,0:0:0:0:
98,138,66334,1,10,0:0:0:0:
297,136,66470,1,2,0:0:0:0:
100,321,66606,6,0,L|209:318,1,110,6|0,0:0|0:0,0:0:0:0:
409,236,66879,1,8,0:0:0:0:
277,229,67015,1,0,0:0:0:0:
476,152,67152,1,2,0:0:0:0:
278,132,67288,1,0,0:0:0:0:
410,140,67424,1,8,0:0:0:0:
412,261,67561,1,0,0:0:0:0:
127,331,67697,5,6,0:3:0:0:
309,324,67902,1,6,0:3:0:0:
127,331,68106,1,6,0:3:0:0:
370,227,68243,5,2,0:0:0:0:
173,186,68379,1,2,0:0:0:0:
305,174,68515,1,2,0:0:0:0:
106,115,68652,1,2,0:0:0:0:
304,87,68788,6,0,L|414:84,1,110,6|0,0:0|0:0,0:0:0:0:
215,259,69061,2,0,L|213:202,1,55,2|2,0:0|0:0,0:0:0:0:
290,218,69197,2,0,L|288:161,1,55,2|2,0:0|0:0,0:0:0:0:
78,72,69334,2,0,L|188:69,1,110,2|0,0:0|0:0,0:0:0:0:
387,185,69606,1,10,0:0:0:0:
188,183,69743,1,2,0:0:0:0:
385,360,69879,6,0,L|388:250,1,110,6|0,0:0|0:0,0:0:0:0:
189,269,70152,1,2,0:0:0:0:
166,207,70220,1,2,0:0:0:0:
192,149,70288,1,2,0:0:0:0:
252,126,70356,1,2,0:0:0:0:
429,301,70424,5,2,0:0:0:0:
462,301,70459,1,2,0:0:0:0:
429,301,70493,1,2,0:0:0:0:
462,301,70527,1,2,0:0:0:0:
429,301,70561,1,2,0:0:0:0:
232,273,70697,2,0,L|229:218,1,55,10|2,0:0|0:0,0:0:0:0:
307,235,70834,2,0,L|304:180,1,55,2|2,0:0|0:0,0:0:0:0:
149,113,70970,6,0,L|39:110,1,110,6|0,0:0|0:0,0:0:0:0:
238,298,71243,2,0,L|292:294,1,55,10|2,0:0|0:0,0:0:0:0:
238,222,71379,2,0,L|184:218,1,55,2|2,0:0|0:0,0:0:0:0:
392,135,71515,2,0,L|282:131,1,110,6|0,0:0|0:0,0:0:0:0:
83,277,71788,2,0,L|137:275,1,55,10|2,0:0|0:0,0:0:0:0:
292,264,71924,2,0,L|346:262,1,55,2|2,0:0|0:0,0:0:0:0:
135,192,72061,6,0,P|99:182|138:52,1,220,0|0,0:0|0:0,0:0:0:0:
246,47,72470,1,0,0:0:0:0:
400,232,72606,2,0,L|403:121,1,110,0|0,0:0|0:0,0:0:0:0:
270,83,72879,1,0,0:0:0:0:
402,80,73015,1,0,0:0:0:0:
159,252,73152,5,6,0:0:0:0:
256,192,75334,12,0,77379,0:0:0:0:
372,91,77515,5,6,0:0:0:0:
153,184,78197,6,0,L|142:251,2,65.9999979858399,0|0|0,0:0|0:0|0:0,0:0:0:0:
299,85,78606,2,0,L|163:87,2,131.99999597168,0|0|0,0:0|0:0|0:0,0:0:0:0:
445,158,79288,2,0,L|450:191,2,32.99999899292,0|0|0,0:0|0:0|0:0,0:0:0:0:
299,186,79561,1,0,0:0:0:0:
142,258,80379,6,0,L|131:325,2,65.9999979858399,0|0|0,0:0|0:0|0:0,0:0:0:0:
288,196,80788,2,0,L|419:194,2,131.99999597168,0|0|0,0:0|0:0|0:0,0:0:0:0:
142,177,81470,2,0,L|133:144,2,32.99999899292,0|0|0,0:0|0:0|0:0,0:0:0:0:
288,111,81743,2,0,L|297:78,2,32.99999899292,0|0|0,0:0|0:0|0:0,0:0:0:0:
142,177,82015,6,0,L|131:244,2,65.9999979858399,0|0|0,0:0|0:0|0:0,0:0:0:0:
288,256,82424,2,0,L|299:323,1,65.9999979858399,0|0,0:0|0:0,0:0:0:0:
179,341,82697,1,0,0:0:0:0:
299,341,82834,1,0,0:0:0:0:
179,341,82970,5,0,0:0:0:0:
131,277,83106,1,0,0:0:0:0:
119,200,83243,1,0,0:0:0:0:
144,126,83379,1,0,0:0:0:0:
200,72,83515,1,0,0:0:0:0:
346,65,83652,2,0,L|355:98,2,32.99999899292,0|0|0,0:0|0:0|0:0,0:0:0:0:
201,60,83924,1,0,0:0:0:0:
347,342,84061,6,0,L|354:209,1,131.99999597168,0|0,0:0|0:0,0:0:0:0:
208,281,84470,2,0,L|201:148,1,131.99999597168,0|0,0:0|0:0,0:0:0:0:
55,227,84879,6,0,L|62:94,1,131.99999597168,0|0,0:0|0:0,0:0:0:0:
208,281,85288,2,0,L|201:148,1,131.99999597168,0|0,0:0|0:0,0:0:0:0:
347,215,85697,6,0,L|350:148,1,65.9999979858399,0|0,0:0|0:0,0:0:0:0:
290,140,85902,1,0,0:0:0:0:
231,132,85970,2,0,L|228:65,1,65.9999979858399,0|0,0:0|0:0,0:0:0:0:
458,318,86243,6,0,P|478:290|411:190,1,176,2|8,0:0|0:0,0:0:0:0:
270,217,86652,2,0,P|250:189|317:89,1,176,2|2,0:0|0:0,0:0:0:0:
458,54,87061,2,0,L|366:51,1,88,8|0,0:0|0:0,0:0:0:0:
176,300,87334,6,0,L|173:213,1,88,2|0,0:0|0:0,0:0:0:0:
313,142,87606,2,0,L|137:137,1,176,8|0,0:0|0:0,0:0:0:0:
279,20,88015,2,0,L|292:66,2,44,2|0|8,0:0|0:0|0:0,0:0:0:0:
138,10,88288,1,0,0:0:0:0:
349,297,88424,6,0,L|352:210,1,88,2|0,0:0|0:0,0:0:0:0:
211,247,88697,2,0,P|183:230|214:115,1,176,8|0,0:0|0:0,0:0:0:0:
355,83,89106,2,0,L|266:79,1,88,2|8,0:0|0:0,0:0:0:0:
126,90,89379,1,0,0:0:0:0:
320,328,89515,6,0,L|323:241,1,88,2|0,0:0|0:0,0:0:0:0:
182,270,89788,2,0,L|185:183,1,88,8|2,0:0|0:0,0:0:0:0:
380,99,90061,1,0,0:0:0:0:
292,114,90197,2,0,L|274:155,2,44,2|0|8,0:0|0:0|0:0,0:0:0:0:
434,189,90470,1,0,0:0:0:0:
227,348,90606,6,0,L|224:261,1,88,2|0,0:0|0:0,0:0:0:0:
365,191,90879,2,0,L|273:188,1,88,8|2,0:0|0:0,0:0:0:0:
135,204,91152,2,0,L|132:117,1,88,0|2,0:0|0:0,0:0:0:0:
272,57,91424,1,8,0:0:0:0:
130,49,91561,1,0,0:0:0:0:
323,323,91697,6,0,L|326:236,1,88,2|0,0:0|0:0,0:0:0:0:
185,171,91970,2,0,L|278:167,1,88,8|2,0:0|0:0,0:0:0:0:
131,262,92243,1,0,0:0:0:0:
272,246,92379,2,0,L|290:205,2,44,2|0|8,0:0|0:0|0:0,0:0:0:0:
131,262,92652,1,0,0:0:0:0:
342,343,92788,6,0,L|346:254,1,88,2|0,0:0|0:0,0:0:0:0:
204,300,93061,2,0,L|200:211,1,88,8|2,0:0|0:0,0:0:0:0:
59,257,93334,2,0,L|63:168,1,88,0|2,0:0|0:0,0:0:0:0:
203,114,93606,1,8,0:0:0:0:
61,120,93743,1,0,0:0:0:0:
302,287,93879,6,0,L|247:284,1,55,2|2,0:0|0:0,0:0:0:0:
49,273,94015,1,2,0:0:0:0:
292,204,94152,2,0,L|296:149,1,55,2|2,0:0|0:0,0:0:0:0:
219,168,94288,2,0,L|223:113,1,55,2|2,0:0|0:0,0:0:0:0:
300,48,94424,2,0,L|191:43,1,110,2|2,0:0|0:0,0:0:0:0:
472,176,94697,1,2,0:0:0:0:
36,222,94970,6,0,L|32:112,1,110,6|0,0:0|0:0,0:0:0:0:
231,56,95243,1,8,0:0:0:0:
99,51,95379,1,0,0:0:0:0:
296,149,95515,1,2,0:0:0:0:
99,145,95652,1,0,0:0:0:0:
298,276,95788,2,0,L|407:272,1,110,8|0,0:0|0:0,0:0:0:0:
209,232,96061,6,0,L|206:123,1,110,2|0,0:0|0:0,0:0:0:0:
405,87,96334,1,8,0:0:0:0:
208,83,96470,1,0,0:0:0:0:
405,192,96606,2,0,L|296:188,1,110,2|0,0:0|0:0,0:0:0:0:
96,332,96879,2,0,L|205:328,1,110,8|0,0:0|0:0,0:0:0:0:
405,301,97152,6,0,L|408:192,1,110,2|0,0:0|0:0,0:0:0:0:
211,98,97424,1,8,0:0:0:0:
343,93,97561,1,0,0:0:0:0:
145,191,97697,1,2,0:0:0:0:
344,289,97834,1,0,0:0:0:0:
212,284,97970,1,8,0:0:0:0:
344,289,98106,1,0,0:0:0:0:
145,344,98243,6,0,L|36:340,1,110,2|0,0:0|0:0,0:0:0:0:
232,212,98515,1,8,0:0:0:0:
100,207,98652,1,0,0:0:0:0:
297,121,98788,2,0,L|406:117,1,110,2|0,0:0|0:0,0:0:0:0:
97,55,99061,1,8,0:0:0:0:
452,291,99334,5,10,0:0:0:0:
255,287,99470,1,10,0:0:0:0:
452,190,99606,2,0,L|455:81,1,110,10|0,0:0|0:0,0:0:0:0:
256,27,99879,1,2,0:0:0:0:
388,22,100015,1,0,0:0:0:0:
189,113,100152,2,0,L|80:109,1,110,8|0,0:0|0:0,0:0:0:0:
276,198,100424,6,0,L|385:194,1,110,2|0,0:0|0:0,0:0:0:0:
187,299,100697,1,8,0:0:0:0:
384,295,100834,1,0,0:0:0:0:
185,197,100970,1,2,0:0:0:0:
317,192,101106,1,0,0:0:0:0:
118,97,101243,1,10,0:0:0:0:
315,93,101379,1,2,0:0:0:0:
63,335,101515,6,0,P|51:306|125:216,1,165,2|2,0:0|0:0,0:0:0:0:
304,149,101788,2,0,L|192:146,1,110,2|2,0:0|0:0,0:0:0:0:
393,297,102061,1,2,0:0:0:0:
250,280,102129,2,0,L|247:170,1,110,2|0,0:0|0:0,0:0:0:0:
425,209,102334,2,0,L|428:99,1,110,8|2,0:0|0:0,0:0:0:0:
143,51,102606,6,0,L|308:48,1,165,2|2,0:0|0:0,0:0:0:0:
107,296,102879,2,0,L|105:187,1,110,8|2,0:0|0:0,0:0:0:0:
305,141,103152,1,2,0:0:0:0:
173,136,103288,1,2,0:0:0:0:
370,340,103424,2,0,L|372:231,1,110,8|2,0:0|0:0,0:0:0:0:
173,136,103697,5,10,0:0:0:0:
372,134,103834,1,10,0:0:0:0:
131,281,103970,6,0,L|21:278,1,110,6|0,0:0|0:0,0:0:0:0:
220,179,104243,1,2,0:0:0:0:
88,174,104379,1,0,0:0:0:0:
285,81,104515,2,0,L|395:78,1,110,8|0,0:0|0:0,0:0:0:0:
196,341,104788,6,0,L|194:232,1,110,2|0,0:0|0:0,0:0:0:0:
393,139,105061,1,8,0:0:0:0:
194,137,105197,1,0,0:0:0:0:
393,44,105334,1,2,0:0:0:0:
261,39,105470,1,0,0:0:0:0:
459,318,105606,2,0,L|461:209,1,110,8|0,0:0|0:0,0:0:0:0:
262,139,105879,6,0,L|372:136,1,110,2|0,0:0|0:0,0:0:0:0:
173,246,106152,1,8,0:0:0:0:
305,251,106288,1,0,0:0:0:0:
108,329,106424,1,2,0:0:0:0:
307,149,106561,1,0,0:0:0:0:
108,147,106697,1,8,0:0:0:0:
241,139,106834,1,0,0:0:0:0:
439,252,106970,6,0,L|328:248,1,110,2|0,0:0|0:0,0:0:0:0:
130,77,107243,1,8,0:0:0:0:
263,69,107379,1,0,0:0:0:0:
65,175,107515,2,0,L|176:171,1,110,2|0,0:0|0:0,0:0:0:0:
462,206,107788,1,8,0:0:0:0:
58,311,108061,5,2,0:0:0:0:
257,309,108197,1,2,0:0:0:0:
58,227,108334,2,0,L|55:118,1,110,6|0,0:0|0:0,0:0:0:0:
252,55,108606,1,2,0:0:0:0:
119,47,108743,1,0,0:0:0:0:
316,151,108879,2,0,L|427:147,1,110,8|0,0:0|0:0,0:0:0:0:
227,285,109152,6,0,L|173:281,1,55,2|2,0:0|0:0,0:0:0:0:
349,209,109288,2,0,L|295:205,1,55,2|2,0:0|0:0,0:0:0:0:
118,176,109424,2,0,L|8:179,1,110,8|0,0:0|0:0,0:0:0:0:
285,285,109697,6,0,L|339:281,1,55,2|2,0:0|0:0,0:0:0:0:
163,209,109834,2,0,L|217:205,1,55,2|2,0:0|0:0,0:0:0:0:
394,176,109970,2,0,L|504:179,1,110,8|2,0:0|0:0,0:0:0:0:
171,343,110243,6,0,P|140:333|173:240,1,165,2|2,0:0|0:0,0:0:0:0:
349,167,110515,2,0,L|240:162,1,110,2|2,0:0|0:0,0:0:0:0:
438,305,110788,1,2,0:0:0:0:
295,273,110856,2,0,L|290:164,1,110,2|0,0:0|0:0,0:0:0:0:
468,218,111061,2,0,L|473:109,1,110,10|2,0:0|0:0,0:0:0:0:
164,328,111334,6,0,P|125:306|169:221,1,165,2|2,0:0|0:0,0:0:0:0:
348,154,111606,2,0,L|236:151,1,110,2|2,0:0|0:0,0:0:0:0:
435,251,111879,1,2,0:0:0:0:
238,240,112015,1,2,0:0:0:0:
437,343,112152,2,0,L|325:340,1,110,8|2,0:0|0:0,0:0:0:0:
42,327,112424,6,0,L|241:316,2,197.99999395752,6|0|8,0:0|0:0|0:0,0:0:0:0:
280,340,113515,6,0,L|284:209,1,131.99999597168,0|8,0:0|0:0,0:0:0:0:
98,249,114061,2,0,L|94:118,1,131.99999597168,0|8,0:0|0:0,0:0:0:0:
305,79,114606,6,0,L|503:89,2,197.99999395752,0|0|8,0:0|0:0|0:0,0:0:0:0:
67,339,115697,6,0,L|63:208,1,131.99999597168,0|8,0:0|0:0,0:0:0:0:
303,173,116243,2,0,L|434:168,1,131.99999597168,0|8,0:0|0:0,0:0:0:0:
82,340,116788,5,2,0:0:0:0:
40,292,116856,1,2,0:0:0:0:
54,229,116924,1,2,0:0:0:0:
111,203,116993,1,2,0:0:0:0:
287,187,117061,2,0,L|347:183,1,55,2|2,0:0|0:0,0:0:0:0:
166,105,117197,2,0,L|106:101,1,55,2|2,0:0|0:0,0:0:0:0:
290,277,117334,6,0,L|350:273,1,55,2|2,0:0|0:0,0:0:0:0:
290,358,117470,2,0,L|230:354,1,55,2|2,0:0|0:0,0:0:0:0:
411,191,117606,2,0,L|471:187,1,55,2|2,0:0|0:0,0:0:0:0:
290,109,117743,2,0,L|230:105,1,55,2|2,0:0|0:0,0:0:0:0:
444,357,117879,5,2,0:0:0:0:
486,309,117947,1,2,0:0:0:0:
472,246,118015,1,2,0:0:0:0:
415,220,118084,1,2,0:0:0:0:
205,165,118152,2,0,L|265:161,1,55,2|2,0:0|0:0,0:0:0:0:
414,152,118288,2,0,L|474:148,1,55,2|2,0:0|0:0,0:0:0:0:
293,329,118424,6,0,L|233:333,1,55,2|2,0:0|0:0,0:0:0:0:
294,248,118561,2,0,L|354:252,1,55,2|2,0:0|0:0,0:0:0:0:
171,177,118697,2,0,L|117:173,1,55,2|2,0:0|0:0,0:0:0:0:
294,104,118834,2,0,L|349:100,1,55,2|2,0:0|0:0,0:0:0:0:
117,292,118970,6,0,P|83:281|116:189,1,165,2|2,0:0|0:0,0:0:0:0:
294,104,119243,2,0,L|184:101,1,110,2|2,0:0|0:0,0:0:0:0:
425,299,119515,1,2,0:0:0:0:
280,285,119584,2,0,L|278:174,1,110,2|0,0:0|0:0,0:0:0:0:
454,210,119788,2,0,L|456:99,1,110,2|2,0:0|0:0,0:0:0:0:
165,75,120061,6,0,L|330:69,1,165,2|2,0:0|0:0,0:0:0:0:
152,169,120334,2,0,L|40:164,1,110,2|2,0:0|0:0,0:0:0:0:
240,282,120606,1,2,0:0:0:0:
107,272,120743,1,2,0:0:0:0:
305,185,120879,1,2,0:0:0:0:
106,183,121015,1,2,0:0:0:0:
393,317,121152,5,6,0:0:0:0:
119,317,121697,5,2,0:0:0:0:
451,216,122243,5,2,0:0:0:0:
61,216,122788,5,2,0:0:0:0:
393,317,123334,5,2,0:0:0:0:
119,317,123879,5,2,0:0:0:0:
451,216,124424,5,2,0:0:0:0:
61,216,124970,5,2,0:0:0:0:
242,175,125174,2,0,L|245:118,1,55,2|2,0:0|0:0,0:0:0:0:
112,86,125379,1,2,0:0:0:0:
310,279,125515,5,10,0:0:0:0:
111,273,125652,1,10,0:0:0:0:
308,192,125788,1,10,0:0:0:0:
176,184,125924,1,0,0:0:0:0:
375,109,126061,2,0,L|486:104,1,110,2|0,0:0|0:0,0:0:0:0:
286,230,126334,1,8,0:0:0:0:
418,222,126470,1,0,0:0:0:0:
221,333,126606,6,0,L|110:328,1,110,2|0,0:0|0:0,0:0:0:0:
310,220,126879,1,8,0:0:0:0:
111,214,127015,1,0,0:0:0:0:
310,125,127152,1,2,0:0:0:0:
112,110,127288,1,0,0:0:0:0:
244,101,127424,1,10,0:0:0:0:
112,110,127561,1,2,0:0:0:0:
310,326,127697,6,0,L|314:272,1,55,6|2,0:0|0:0,0:0:0:0:
236,278,127834,2,0,L|240:224,1,55,2|2,0:0|0:0,0:0:0:0:
395,177,127970,2,0,L|504:172,1,110,8|2,0:0|0:0,0:0:0:0:
306,58,128243,1,2,0:0:0:0:
503,277,128379,1,2,0:0:0:0:
371,263,128515,1,8,0:0:0:0:
503,277,128652,1,2,0:0:0:0:
262,346,128788,6,0,L|258:292,1,55,2|2,0:0|0:0,0:0:0:0:
335,301,128924,2,0,L|331:247,1,55,2|2,0:0|0:0,0:0:0:0:
153,189,129061,2,0,L|42:185,1,110,2|2,0:0|0:0,0:0:0:0:
286,110,129334,6,0,L|314:107,1,27.5,2|0,0:0|0:0,0:0:0:0:
132,60,129470,2,0,L|104:57,1,27.5,2|0,0:0|0:0,0:0:0:0:
440,39,129606,5,2,0:0:0:0:
44,319,129879,6,0,L|40:208,1,110,6|0,0:0|0:0,0:0:0:0:
239,144,130152,1,8,0:0:0:0:
107,135,130288,1,0,0:0:0:0:
304,253,130424,2,0,L|414:248,1,110,2|0,0:0|0:0,0:0:0:0:
215,157,130697,1,8,0:0:0:0:
347,148,130834,1,0,0:0:0:0:
149,40,130970,6,0,L|259:35,1,110,2|0,0:0|0:0,0:0:0:0:
456,160,131243,1,8,0:0:0:0:
324,151,131379,1,0,0:0:0:0:
127,282,131515,2,0,L|237:277,1,110,2|0,0:0|0:0,0:0:0:0:
38,169,131788,1,10,0:0:0:0:
236,182,131924,1,2,0:0:0:0:
37,306,132061,6,0,L|33:197,1,110,6|0,0:0|0:0,0:0:0:0:
232,110,132334,1,8,0:0:0:0:
100,101,132470,1,0,0:0:0:0:
298,208,132606,1,2,0:0:0:0:
99,197,132743,1,0,0:0:0:0:
296,307,132879,1,8,0:0:0:0:
164,298,133015,1,0,0:0:0:0:
363,309,133152,6,0,L|366:198,1,110,2|0,0:0|0:0,0:0:0:0:
234,257,133424,2,0,L|231:146,1,110,8|0,0:0|0:0,0:0:0:0:
430,79,133697,2,0,L|321:76,1,110,2|0,0:0|0:0,0:0:0:0:
121,174,133970,1,2,0:0:0:0:
320,163,134106,1,2,0:0:0:0:
121,275,134243,6,0,L|66:271,2,55,6|6|6,0:0|0:0|0:0,0:0:0:0:
319,199,134515,1,8,0:0:0:0:
120,174,134652,1,2,0:0:0:0:
317,331,134788,1,2,0:0:0:0:
320,276,134856,1,2,0:0:0:0:
322,221,134924,1,2,0:0:0:0:
122,88,135061,1,8,0:0:0:0:
321,63,135197,1,2,0:0:0:0:
122,186,135334,5,2,0:0:0:0:
177,183,135402,1,2,0:0:0:0:
232,181,135470,1,2,0:0:0:0:
364,199,135606,1,8,0:0:0:0:
165,290,135743,1,2,0:0:0:0:
297,298,135879,1,2,0:0:0:0:
165,290,136015,1,2,0:0:0:0:
408,108,136152,2,0,L|350:105,1,55,10|2,0:0|0:0,0:0:0:0:
177,90,136288,2,0,L|119:87,1,55,2|2,0:0|0:0,0:0:0:0:
331,312,136424,5,2,0:0:0:0:
343,258,136492,1,2,0:0:0:0:
331,205,136560,1,2,0:0:0:0:
299,161,136628,1,2,0:0:0:0:
252,133,136696,1,2,0:0:0:0:
198,127,136764,1,2,0:0:0:0:
379,66,136834,2,0,L|437:63,1,55,2|2,0:0|0:0,0:0:0:0:
259,247,136970,6,0,L|201:244,1,55,2|2,0:0|0:0,0:0:0:0:
259,330,137106,2,0,L|317:327,1,55,2|2,0:0|0:0,0:0:0:0:
136,146,137243,2,0,L|78:143,1,55,2|2,0:0|0:0,0:0:0:0:
259,330,137379,2,0,L|317:327,1,55,2|2,0:0|0:0,0:0:0:0:
75,280,137515,5,2,0:0:0:0:
256,192,137788,5,2,0:0:0:0:
437,104,138061,5,2,0:0:0:0:
199,328,138334,6,0,L|196:273,1,55,2|2,0:0|0:0,0:0:0:0:
273,271,138470,2,0,L|270:216,1,55,2|2,0:0|0:0,0:0:0:0:
112,160,138606,6,0,L|24:156,1,88,6|0,0:0|0:0,0:0:0:0:
236,334,138879,2,0,L|239:246,1,88,2|0,0:0|0:0,0:0:0:0:
115,247,139152,2,0,L|112:159,1,88,2|0,0:0|0:0,0:0:0:0:
235,107,139424,1,2,0:0:0:0:
111,98,139561,1,0,0:0:0:0:
322,219,139697,6,0,L|410:215,1,88,2|0,0:0|0:0,0:0:0:0:
286,132,139970,1,2,0:0:0:0:
410,123,140106,1,0,0:0:0:0:
215,232,140243,1,2,0:0:0:0:
91,223,140379,1,0,0:0:0:0:
284,327,140515,1,2,0:0:0:0:
160,318,140652,1,2,0:0:0:0:
371,296,140788,6,0,L|373:208,1,88,6|0,0:0|0:0,0:0:0:0:
249,132,141061,1,2,0:0:0:0:
373,123,141197,1,0,0:0:0:0:
160,56,141334,1,2,0:0:0:0:
373,123,141470,1,0,0:0:0:0:
249,132,141606,1,2,0:0:0:0:
373,123,141743,1,0,0:0:0:0:
145,229,141879,5,6,3:0:0:0:
277,230,142084,1,6,3:0:0:0:
145,229,142288,1,6,3:0:0:0:
268,334,142424,2,0,L|270:246,1,88,2|2,0:0|0:0,0:0:0:0:
146,252,142697,2,0,L|148:164,1,88,2|2,0:0|0:0,0:0:0:0:
397,59,142970,6,0,L|263:62,2,131.99999597168,6|2|2,0:0|0:0|0:0,0:0:0:0:
238,182,143788,1,2,0:0:0:0:
317,191,143924,1,2,0:0:0:0:
171,276,144061,6,0,L|37:279,2,131.99999597168,6|2|2,0:0|0:0|0:0,0:0:0:0:
330,262,144879,1,2,0:0:0:0:
409,232,145015,1,2,0:0:0:0:
263,166,145152,6,0,L|132:164,1,131.99999597168,6|2,0:0|0:0,0:0:0:0:
369,59,145697,2,0,L|500:57,1,131.99999597168,6|2,0:0|0:0,0:0:0:0:
75,310,146243,6,0,P|62:282|120:215,1,131.99999597168,2|0,0:0|0:0,0:0:0:0:
200,208,146652,1,0,0:0:0:0:
279,202,146788,2,0,L|289:135,2,65.9999979858399,0|0|0,0:0|0:0|0:0,0:0:0:0:
200,208,147197,1,0,0:0:0:0:
488,274,147334,5,2,0:0:0:0:
256,192,147470,12,0,149379,0:0:0:0:
