osu file format v14

[General]
AudioFilename: audio.mp3
AudioLeadIn: 0
PreviewTime: 93811
Countdown: 0
SampleSet: Soft
StackLeniency: 0.7
Mode: 2
LetterboxInBreaks: 0
WidescreenStoryboard: 1

[Editor]
Bookmarks: 20788,38243,55697,73152,77515,86243,93879,94970,112424,116788,121152,129879,138606,142970,147334
DistanceSpacing: 0.5
BeatDivisor: 4
GridSize: 4
TimelineZoom: 2.8

[Metadata]
Title:Txxs or get the fxxk out!!
TitleUnicode:Txxs or get the fxxk out!!
Artist:Morimori Atsushi
ArtistUnicode:モリモリあつし
Creator:Nelly
Version:Cup
Source:東方神霊廟 ~ Ten Desires.
Tags:-momox momox -joakh video game instrumental osu osu! fa featured artist mpg mappers guild mg 非可逆リズム 上海アリス幻楽団 tits fuck gfto zun 東方project 上海アリス幻樂団 team shanghai alice touhou shinreibyou デザイアドライブ desire drive
BeatmapID:2895870
BeatmapSetID:1388539

[Difficulty]
HPDrainRate:3
CircleSize:2.5
OverallDifficulty:6
ApproachRate:6
SliderMultiplier:1.2
SliderTickRate:1

[Events]
//Background and Video events
0,0,"bg.jpg",0,0
//Break Periods
2,38443,39374
2,42806,43738
2,47170,48102
2,73352,74284
2,112624,115738
//Storyboard Layer 0 (Background)
//Storyboard Layer 1 (Fail)
//Storyboard Layer 2 (Pass)
//Storyboard Layer 3 (Foreground)
//Storyboard Layer 4 (Overlay)
//Storyboard Sound Samples

[TimingPoints]
3334,272.727272727273,4,2,1,80,1,0
20788,-100,4,2,2,80,0,1
20856,-100,4,2,1,80,0,0
29515,-100,4,2,30,80,0,0
29584,-100,4,2,1,80,0,0
33879,-100,4,2,30,80,0,0
33947,-100,4,2,1,80,0,0
38243,-100,4,2,30,80,0,1
38311,-100,4,2,1,80,0,0
40424,-100,4,2,1,80,0,0
42606,-100,4,2,1,80,0,0
44788,-100,4,2,1,80,0,0
46424,-100,4,2,2,80,0,0
46970,-100,4,2,1,80,0,0
49152,-100,4,2,1,80,0,0
51879,-100,4,2,1,80,0,0
52015,-100,4,2,1,80,0,0
52424,-100,4,2,30,80,0,0
52561,-100,4,2,1,80,0,0
52970,-100,4,2,1,80,0,0
53106,-100,4,2,1,80,0,0
55424,-100,4,2,8,80,0,0
55561,-100,4,2,1,80,0,0
55697,-100,4,2,2,80,0,1
55765,-100,4,2,1,80,0,0
60334,-100,4,2,30,80,0,0
60470,-100,4,2,1,80,0,0
61152,-100,4,2,30,80,0,0
61288,-100,4,2,1,80,0,0
64424,-100,4,2,30,80,0,0
64561,-100,4,2,1,80,0,0
68788,-100,4,2,30,80,0,0
68924,-100,4,2,1,80,0,0
69879,-100,4,2,30,80,0,0
70015,-100,4,2,1,80,0,0
73152,-100,4,2,2,80,0,0
77515,-100,4,2,30,80,0,0
77652,-100,4,2,1,80,0,0
86243,-100,4,2,2,80,0,0
93879,-100,4,2,1,80,0,0
94970,-100,4,2,2,80,0,1
103697,-100,4,2,1,80,0,0
103970,-100,4,2,2,80,0,1
108334,-100,4,2,1,80,0,1
108402,-100,4,2,2,80,0,1
112424,-100,4,2,30,80,0,0
112561,-100,4,2,1,80,0,0
116788,-100,4,2,1,80,0,1
121152,-100,4,2,1,80,0,0
125515,-100,4,2,2,80,0,0
125924,-100,4,2,1,80,0,0
129606,-100,4,2,8,80,0,0
129743,-100,4,2,1,80,0,0
129879,-100,4,2,2,80,0,1
129947,-100,4,2,1,80,0,0
138606,-100,4,2,30,80,0,0
138743,-100,4,2,1,80,0,0
142970,-100,4,2,30,80,0,0
143106,-100,4,2,1,80,0,0
144061,-100,4,2,30,80,0,0
144197,-100,4,2,1,80,0,0
145152,-100,4,2,30,80,0,0
145288,-100,4,2,1,80,0,0
145697,-100,4,2,30,80,0,0
145834,-100,4,2,1,80,0,0

[Colours]
Combo1 : 255,125,119
Combo2 : 40,131,240
Combo3 : 92,204,252
Combo4 : 128,255,179

[HitObjects]
145,111,19697,6,0,L|108:225,2,120,0|0|0,0:0|0:0|0:0,0:0:0:0:
386,321,20788,6,0,L|391:201,1,120,6|8,0:0|0:0,0:0:0:0:
270,256,21334,2,0,L|265:136,1,120,2|8,0:0|0:0,0:0:0:0:
145,57,21879,5,2,0:0:0:0:
264,51,22152,1,8,0:0:0:0:
144,144,22424,2,0,L|139:264,1,120,2|10,0:0|0:0,0:0:0:0:
206,280,22834,1,2,0:0:0:0:
272,292,22970,6,0,L|391:286,1,120,6|8,0:0|0:0,0:0:0:0:
272,195,23515,2,0,L|267:75,1,120,2|8,0:0|0:0,0:0:0:0:
387,41,24061,5,2,0:0:0:0:
267,34,24334,1,8,0:0:0:0:
387,139,24606,2,0,L|507:134,1,120,2|10,0:0|0:0,0:0:0:0:
440,225,25015,1,2,0:0:0:0:
373,229,25152,6,0,L|370:108,1,120,6|8,0:0|0:0,0:0:0:0:
250,176,25697,2,0,L|247:297,1,120,2|8,0:0|0:0,0:0:0:0:
126,353,26243,5,2,0:0:0:0:
20,272,26515,1,8,0:0:0:0:
6,156,26788,1,2,0:0:0:0:
85,58,27061,1,10,0:0:0:0:
145,42,27197,1,2,0:0:0:0:
205,27,27334,6,0,L|325:23,1,120,6|8,0:0|0:0,0:0:0:0:
202,140,27879,2,0,L|197:260,1,120,2|8,0:0|0:0,0:0:0:0:
317,279,28424,6,0,L|388:181,2,120,2|2|2,0:0|0:0|0:0,0:0:0:0:
196,298,29243,1,2,0:0:0:0:
190,238,29379,1,2,0:0:0:0:
263,222,29515,6,0,L|268:102,1,120,6|8,0:0|0:0,0:0:0:0:
148,63,30061,2,0,L|28:58,1,120,2|8,0:0|0:0,0:0:0:0:
148,286,30606,6,0,L|153:166,1,120,2|8,0:0|0:0,0:0:0:0:
273,263,31152,2,0,L|278:143,1,120,2|10,0:0|0:0,0:0:0:0:
211,129,31561,1,2,0:0:0:0:
145,120,31697,6,0,L|140:240,1,120,6|8,0:0|0:0,0:0:0:0:
261,254,32243,1,2,0:0:0:0:
381,262,32515,1,8,0:0:0:0:
261,289,32788,6,0,L|169:287,2,90,6|6|6,0:3|0:3|0:3,0:0:0:0:
333,280,33334,2,0,L|338:159,1,120,2|2,0:0|0:0,0:0:0:0:
218,59,33879,6,0,L|338:54,1,120,6|8,0:0|0:0,0:0:0:0:
458,249,34424,2,0,L|463:128,1,120,2|2,0:0|0:0,0:0:0:0:
396,117,34834,1,2,0:0:0:0:
330,108,34970,6,0,L|211:112,2,120,6|8|2,0:0|0:0|0:0,0:0:0:0:
210,227,35788,1,10,0:0:0:0:
207,291,35924,1,2,0:0:0:0:
280,330,36061,6,0,L|284:211,1,120,6|8,0:0|0:0,0:0:0:0:
164,228,36606,2,0,L|160:109,1,120,6|2,0:0|0:0,0:0:0:0:
280,75,37152,6,0,L|447:146,2,180,2|10|10,0:0|3:0|3:0,0:0:0:0:
160,68,38243,5,4,0:0:0:0:
343,312,40424,6,0,L|348:192,1,120,6|12,0:0|0:3,0:0:0:0:
227,267,40970,2,0,L|222:147,1,120,12|4,3:3|3:0,0:0:0:0:
342,55,41515,6,0,L|223:51,1,120,8|2,0:0|0:0,0:0:0:0:
102,165,42061,1,4,3:0:0:0:
222,160,42334,1,2,0:0:0:0:
342,155,42606,5,2,0:0:0:0:
71,331,44788,6,0,L|66:211,1,120,6|12,0:0|0:3,0:0:0:0:
187,121,45334,1,12,3:3:0:0:
67,118,45606,1,4,3:0:0:0:
187,346,45879,6,0,L|192:226,1,120,2|2,0:0|0:0,0:0:0:0:
312,142,46424,1,10,0:0:0:0:
192,137,46697,1,10,0:0:0:0:
72,132,46970,5,4,0:0:0:0:
444,124,49152,6,0,L|325:120,1,120,6|8,0:0|3:0,0:0:0:0:
204,246,49697,2,0,L|323:242,1,120,12|2,3:0|0:0,0:0:0:0:
203,334,50243,6,0,L|198:214,1,120,12|4,3:0|3:0,0:0:0:0:
318,129,50788,1,8,3:0:0:0:
198,124,51061,1,8,3:0:0:0:
318,129,51334,5,2,0:0:0:0:
101,293,51879,1,2,0:0:0:0:
96,233,52016,1,2,0:0:0:0:
91,174,52152,1,10,3:0:0:0:
181,324,52424,6,0,L|300:320,1,120,6|0,0:0|0:0,0:0:0:0:
421,212,52970,1,2,0:0:0:0:
361,209,53106,1,2,0:0:0:0:
301,207,53243,1,0,0:0:0:0:
181,195,53515,6,0,L|176:75,1,120,4|4,0:0|3:0,0:0:0:0:
296,163,54061,2,0,L|301:43,1,120,8|2,3:0|0:0,0:0:0:0:
181,29,54606,6,0,L|62:25,1,120,4|6,3:0|3:0,0:0:0:0:
182,126,55152,1,2,0:0:0:0:
186,246,55424,1,2,0:0:0:0:
306,350,55697,5,6,0:0:0:0:
414,269,55970,1,8,0:0:0:0:
425,153,56243,1,2,0:0:0:0:
341,55,56515,1,8,0:0:0:0:
227,24,56788,6,0,L|222:144,1,120,2|8,0:0|0:0,0:0:0:0:
343,180,57334,1,2,0:0:0:0:
223,282,57606,1,8,0:0:0:0:
282,279,57743,1,0,0:0:0:0:
342,277,57879,5,2,0:0:0:0:
462,184,58152,2,0,L|342:179,2,120,8|2|8,0:0|0:0|0:0,0:0:0:0:
342,341,58970,6,0,L|337:221,1,120,2|8,0:0|0:0,0:0:0:0:
217,270,59515,2,0,L|212:150,1,120,2|10,0:0|0:0,0:0:0:0:
332,138,60061,5,2,0:0:0:0:
391,143,60197,1,2,0:0:0:0:
332,138,60334,1,6,0:0:0:0:
212,150,60606,1,2,0:0:0:0:
332,322,60879,1,10,0:0:0:0:
335,258,61015,1,2,0:0:0:0:
275,244,61152,6,0,L|148:242,1,120,6|2,0:0|0:0,0:0:0:0:
35,139,61697,2,0,L|162:137,1,120,2|10,0:0|0:0,0:0:0:0:
275,244,62243,6,0,L|280:124,1,120,6|12,3:0|2:3,0:0:0:0:
160,38,62788,1,6,3:0:0:0:
222,34,62924,1,4,3:0:0:0:
279,33,63060,1,14,2:3:0:0:
400,44,63334,6,0,L|475:137,2,120,2|2|2,0:0|0:0|0:0,0:0:0:0:
280,130,64152,1,2,0:0:0:0:
277,194,64288,1,2,0:0:0:0:
337,241,64424,6,0,L|217:236,1,120,6|8,0:0|0:0,0:0:0:0:
97,131,64970,2,0,L|217:126,1,120,2|8,0:0|0:0,0:0:0:0:
97,345,65515,6,0,L|92:225,1,120,2|2,0:0|0:0,0:0:0:0:
213,273,66061,2,0,L|218:153,1,120,2|10,0:0|0:0,0:0:0:0:
158,146,66470,1,2,0:0:0:0:
98,139,66606,6,0,L|218:134,1,120,6|8,0:0|0:0,0:0:0:0:
338,32,67152,2,0,L|218:27,1,120,2|8,0:0|0:0,0:0:0:0:
338,259,67697,6,0,L|430:257,2,90,6|6|6,0:3|0:3|0:3,0:0:0:0:
266,250,68243,2,0,L|261:129,1,120,2|2,0:0|0:0,0:0:0:0:
381,84,68788,5,6,0:0:0:0:
261,76,69061,1,2,0:0:0:0:
202,81,69197,1,2,0:0:0:0:
261,76,69334,1,2,0:0:0:0:
381,180,69606,1,10,0:0:0:0:
261,172,69879,5,6,0:0:0:0:
381,305,70152,1,2,0:0:0:0:
441,300,70289,1,2,0:0:0:0:
381,305,70425,1,2,0:0:0:0:
261,248,70697,1,10,0:0:0:0:
258,184,70834,1,2,0:0:0:0:
318,205,70970,6,0,L|322:85,1,120,6|10,0:0|0:0,0:0:0:0:
203,285,71515,2,0,L|198:165,1,120,6|10,0:0|0:0,0:0:0:0:
319,117,72061,6,0,L|153:46,2,180,0|0|0,0:0|0:0|0:0,0:0:0:0:
439,105,73152,5,6,0:0:0:0:
256,192,75334,12,0,77243,0:0:0:0:
189,77,77515,5,6,0:0:0:0:
356,313,78197,1,0,0:0:0:0:
383,261,78334,1,0,0:0:0:0:
356,206,78470,1,0,0:0:0:0:
302,192,78606,5,0,0:0:0:0:
182,235,78879,2,0,L|176:116,1,120,0|0,0:0|0:0,0:0:0:0:
296,88,79424,1,0,0:0:0:0:
86,328,80379,5,0,0:0:0:0:
59,276,80515,1,0,0:0:0:0:
86,221,80652,1,0,0:0:0:0:
140,207,80788,5,0,0:0:0:0:
260,250,81061,2,0,L|266:131,1,120,0|0,0:0|0:0,0:0:0:0:
146,103,81606,1,0,0:0:0:0:
266,74,81879,6,0,L|387:71,1,120,0|0,0:0|0:0,0:0:0:0:
266,170,82424,2,0,L|260:289,1,120,0|0,0:0|0:0,0:0:0:0:
380,345,82970,5,0,0:0:0:0:
478,264,83243,1,0,0:0:0:0:
487,148,83515,1,0,0:0:0:0:
403,50,83788,1,0,0:0:0:0:
283,19,84061,6,0,L|91:24,2,180,0|0|0,0:0|0:0|0:0,0:0:0:0:
121,271,85288,1,0,0:0:0:0:
301,259,85697,2,0,L|307:140,1,120,0|0,0:0|0:0,0:0:0:0:
187,201,86243,6,0,L|181:82,1,120,2|8,0:0|0:0,0:0:0:0:
420,70,87061,1,8,0:0:0:0:
300,89,87334,6,0,L|294:208,1,120,2|8,0:0|0:0,0:0:0:0:
414,182,87879,2,0,L|420:301,1,120,0|8,0:0|0:0,0:0:0:0:
300,335,88424,6,0,L|180:332,1,120,2|8,0:0|0:0,0:0:0:0:
60,228,88970,2,0,L|179:225,1,120,0|8,0:0|0:0,0:0:0:0:
300,217,89515,6,0,L|306:98,1,120,2|8,0:0|0:0,0:0:0:0:
185,179,90061,1,0,0:0:0:0:
181,119,90197,1,2,0:0:0:0:
178,59,90334,1,8,0:0:0:0:
298,34,90606,6,0,L|417:36,1,120,2|8,0:0|0:0,0:0:0:0:
298,138,91152,2,0,L|292:257,1,120,0|8,0:0|0:0,0:0:0:0:
172,188,91697,6,0,L|166:307,1,120,2|8,0:0|0:0,0:0:0:0:
287,132,92243,2,0,L|293:251,1,120,0|8,0:0|0:0,0:0:0:0:
173,310,92788,6,0,L|53:307,2,120,2|8|0,0:0|0:0|0:0,0:0:0:0:
293,300,93606,1,8,0:0:0:0:
413,297,93879,5,2,0:0:0:0:
473,296,94015,2,0,P|479:248|309:82,1,300,2|2,0:0|0:0,0:0:0:0:
200,81,94970,6,0,L|63:200,2,180,6|0|8,0:0|0:0|0:0,0:0:0:0:
320,283,96061,6,0,L|326:164,1,120,2|8,0:0|0:0,0:0:0:0:
206,317,96606,2,0,L|200:198,1,120,2|8,0:0|0:0,0:0:0:0:
320,141,97152,5,2,0:0:0:0:
140,139,97561,2,0,P|125:169|208:268,1,180,0|8,0:0|0:0,0:0:0:0:
325,275,98243,5,2,0:0:0:0:
205,268,98515,1,8,0:0:0:0:
325,275,98788,2,0,L|331:156,1,120,2|8,0:0|0:0,0:0:0:0:
211,105,99334,6,0,L|92:107,2,120,10|10|2,0:0|0:0|0:0,0:0:0:0:
331,130,100152,1,8,0:0:0:0:
211,201,100424,6,0,L|205:320,1,120,2|8,0:0|0:0,0:0:0:0:
325,235,100970,2,0,L|331:353,1,120,2|10,0:0|0:0,0:0:0:0:
211,340,101515,6,0,L|114:336,2,90,2|2|2,0:0|0:0|0:0,0:0:0:0:
271,331,102061,2,0,L|277:201,1,120,2|8,0:0|0:0,0:0:0:0:
125,226,102606,6,0,L|121:136,1,90,2|2,0:0|0:0,0:0:0:0:
211,132,103015,1,2,0:0:0:0:
271,129,103152,2,0,L|276:250,1,120,2|8,0:0|0:0,0:0:0:0:
156,346,103697,5,10,0:0:0:0:
159,282,103834,1,10,0:0:0:0:
219,262,103970,6,0,L|342:257,2,120,6|2|8,0:0|0:0|0:0,0:0:0:0:
99,217,104788,6,0,L|93:98,1,120,2|8,0:0|0:0,0:0:0:0:
213,183,105334,2,0,L|218:65,1,120,2|8,0:0|0:0,0:0:0:0:
339,41,105879,6,0,P|396:99|340:158,1,180,2|0,0:0|0:0,0:0:0:0:
161,159,106697,1,8,0:0:0:0:
281,167,106970,6,0,L|287:286,1,120,2|8,0:0|0:0,0:0:0:0:
167,155,107515,2,0,L|160:274,1,120,2|8,0:0|0:0,0:0:0:0:
282,292,108061,5,2,0:0:0:0:
341,297,108197,1,2,0:0:0:0:
282,292,108334,1,6,0:0:0:0:
162,189,108606,2,0,L|285:184,1,120,2|8,0:0|0:0,0:0:0:0:
403,182,109152,6,0,L|409:63,1,120,2|8,0:0|0:0,0:0:0:0:
289,148,109697,2,0,L|283:30,1,120,2|8,0:0|0:0,0:0:0:0:
403,118,110243,6,0,L|407:208,1,90,2|2,0:0|0:0,0:0:0:0:
317,211,110652,1,2,0:0:0:0:
257,214,110789,2,0,L|252:93,1,120,2|10,0:0|0:0,0:0:0:0:
372,48,111334,6,0,L|469:52,2,90,2|2|2,0:0|0:0|0:0,0:0:0:0:
312,57,111880,2,0,L|306:187,1,120,2|8,0:0|0:0,0:0:0:0:
187,212,112424,5,6,0:0:0:0:
345,343,116788,6,0,L|351:223,1,120,2|2,0:0|0:0,0:0:0:0:
231,302,117334,2,0,L|225:182,1,120,2|2,0:0|0:0,0:0:0:0:
105,78,117879,6,0,L|225:72,1,120,2|2,0:0|0:0,0:0:0:0:
345,187,118424,2,0,L|225:182,1,120,2|2,0:0|0:0,0:0:0:0:
105,178,118970,6,0,L|15:181,2,90,2|2|2,0:0|0:0|0:0,0:0:0:0:
165,276,119515,2,0,L|45:270,1,120,2|2,0:0|0:0,0:0:0:0:
165,176,120061,5,2,0:0:0:0:
255,170,120265,2,0,L|259:77,1,90,2|2,0:0|0:0,0:0:0:0:
186,55,120606,2,0,L|180:174,1,120,2|2,0:0|0:0,0:0:0:0:
313,362,121152,5,6,0:0:0:0:
180,357,121697,5,2,0:0:0:0:
83,285,122243,5,2,0:0:0:0:
48,170,122788,5,2,0:0:0:0:
192,57,123334,5,2,0:0:0:0:
48,170,123879,5,2,0:0:0:0:
83,285,124424,5,2,0:0:0:0:
180,357,124970,5,2,0:0:0:0:
300,362,125515,5,10,0:0:0:0:
303,298,125652,1,10,0:0:0:0:
243,270,125788,2,0,L|123:264,2,120,10|2|8,0:0|0:0|0:0,0:0:0:0:
363,262,126606,6,0,L|369:143,1,120,2|8,0:0|0:0,0:0:0:0:
249,211,127152,2,0,L|243:92,1,120,2|10,0:0|0:0,0:0:0:0:
363,44,127697,6,0,L|453:47,2,90,6|2|2,0:0|0:0|0:0,0:0:0:0:
303,142,128243,2,0,L|423:136,1,120,2|8,0:0|0:0,0:0:0:0:
303,254,128788,6,0,L|213:251,2,90,2|2|2,0:0|0:0|0:0,0:0:0:0:
363,161,129334,5,2,0:0:0:0:
303,158,129470,1,2,0:0:0:0:
243,155,129606,1,2,0:0:0:0:
123,321,129879,6,0,L|118:201,1,120,6|8,0:0|0:0,0:0:0:0:
239,256,130424,2,0,L|244:136,1,120,2|8,0:0|0:0,0:0:0:0:
364,57,130970,5,2,0:0:0:0:
245,51,131243,1,8,0:0:0:0:
365,144,131515,2,0,L|370:264,1,120,2|10,0:0|0:0,0:0:0:0:
303,280,131925,1,2,0:0:0:0:
237,292,132061,6,0,L|118:286,1,120,6|8,0:0|0:0,0:0:0:0:
237,195,132606,2,0,L|242:75,1,120,2|8,0:0|0:0,0:0:0:0:
122,41,133152,5,2,0:0:0:0:
242,34,133425,1,8,0:0:0:0:
122,139,133697,2,0,L|2:134,1,120,2|2,0:0|0:0,0:0:0:0:
69,225,134106,1,2,0:0:0:0:
136,229,134243,6,0,L|139:108,1,120,6|8,0:0|0:0,0:0:0:0:
259,176,134788,2,0,L|263:295,1,120,2|8,0:0|0:0,0:0:0:0:
389,353,135334,5,2,0:0:0:0:
495,272,135606,1,8,0:0:0:0:
509,156,135879,1,2,0:0:0:0:
424,58,136152,1,10,0:0:0:0:
364,42,136288,1,2,0:0:0:0:
304,27,136425,6,0,L|184:23,1,120,2|2,0:0|0:0,0:0:0:0:
307,140,136970,2,0,L|312:260,1,120,2|2,0:0|0:0,0:0:0:0:
192,279,137515,6,0,L|111:189,2,120,2|2|2,0:0|0:0|0:0,0:0:0:0:
313,298,138334,1,2,0:0:0:0:
319,238,138470,1,2,0:0:0:0:
246,222,138606,6,0,L|241:102,1,120,6|2,0:0|0:0,0:0:0:0:
361,63,139152,2,0,L|481:58,1,120,2|2,0:0|0:0,0:0:0:0:
361,286,139697,6,0,L|356:166,1,120,2|2,0:0|0:0,0:0:0:0:
236,263,140243,2,0,L|231:143,1,120,2|2,0:0|0:0,0:0:0:0:
298,129,140652,1,2,0:0:0:0:
364,120,140788,6,0,L|369:240,1,120,6|2,0:0|0:0,0:0:0:0:
248,254,141334,1,2,0:0:0:0:
128,262,141606,1,2,0:0:0:0:
248,289,141879,6,0,L|340:287,2,90,6|6|6,3:0|3:0|3:0,0:0:0:0:
176,280,142425,2,0,L|171:159,1,120,2|2,0:0|0:0,0:0:0:0:
291,59,142970,6,0,L|171:54,1,120,6|2,0:0|0:0,0:0:0:0:
51,249,143515,2,0,L|46:128,1,120,2|2,0:0|0:0,0:0:0:0:
113,117,143925,1,2,0:0:0:0:
179,108,144061,6,0,L|298:112,2,120,6|2|2,0:0|0:0|0:0,0:0:0:0:
299,227,144879,1,2,0:0:0:0:
302,291,145015,1,2,0:0:0:0:
229,330,145152,6,0,L|225:211,1,120,6|2,0:0|0:0,0:0:0:0:
345,228,145697,2,0,L|349:109,1,120,6|2,0:0|0:0,0:0:0:0:
229,75,146243,6,0,P|199:80|228:227,1,240,2|0,0:0|0:0,0:0:0:0:
345,228,147061,1,0,0:0:0:0:
229,227,147334,5,2,0:0:0:0:
256,192,147606,12,0,149379,0:0:0:0:
