osu file format v14

[General]
AudioFilename: audio.mp3
AudioLeadIn: 0
PreviewTime: 73059
Countdown: 0
SampleSet: Normal
StackLeniency: 0.7
Mode: 1
LetterboxInBreaks: 0
WidescreenStoryboard: 0

[Editor]
Bookmarks: 10734,15534,25134,34734,44334,53934,63534
DistanceSpacing: 1
BeatDivisor: 2
GridSize: 4
TimelineZoom: 1.399999

[Metadata]
Title:Toono Gensou Monogatari (MRM REMIX)
TitleUnicode:遠野幻想物語 (MRM REMIX)
Artist:Morimori Atsushi
ArtistUnicode:モリモリあつし
Creator:Charlotte
Version:Kantan
Source:東方妖々夢 ~ Perfect Cherry Blossom.
Tags:The Fantastic Legend of Tohno Touhou Youyoumu TH7 東方Project 上海アリス幻樂団 Team Shanghai Alice Hardcore J-Core electronic instrumental FLOOR落選供養 Rakusen Kuyou 東方幻鍵音 LOTUS GROOVE Genkenon komasy Nardoxyribonucleic
BeatmapID:2244600
BeatmapSetID:812992

[Difficulty]
HPDrainRate:8
CircleSize:5
OverallDifficulty:3
ApproachRate:4
SliderMultiplier:1.4
SliderTickRate:1

[Events]
//Background and Video events
0,0,"BG.jpg",0,35
//Break Periods
//Storyboard Layer 0 (Background)
//Storyboard Layer 1 (Fail)
//Storyboard Layer 2 (Pass)
//Storyboard Layer 3 (Foreground)
//Storyboard Layer 4 (Overlay)
//Storyboard Sound Samples

[TimingPoints]
1134,300,4,1,0,90,1,0
73134,-100,4,1,0,90,0,1
77334,-100,4,1,0,90,0,0
77934,-100,4,1,0,90,0,1
82434,-100,4,1,0,90,0,0
82734,-100,4,1,0,90,0,1
86934,-100,4,1,0,90,0,0
87534,-100,4,1,0,90,0,1
92334,-100,4,1,0,90,0,0
101934,-100,4,1,0,90,0,1
112584,-100,4,1,0,90,0,0

[HitObjects]
256,192,1134,5,4,0:0:0:0:
256,192,1734,1,8,0:0:0:0:
256,192,2334,1,0,0:0:0:0:
256,192,3534,1,4,0:0:0:0:
256,192,4134,1,8,0:0:0:0:
256,192,4734,1,8,0:0:0:0:
256,192,5934,1,4,0:0:0:0:
256,192,6534,1,8,0:0:0:0:
256,192,7134,1,8,0:0:0:0:
256,192,7434,1,8,0:0:0:0:
256,192,7734,1,8,0:0:0:0:
256,192,8334,1,0,0:0:0:0:
256,192,8934,1,8,0:0:0:0:
256,192,9534,1,0,0:0:0:0:
256,192,9834,1,0,0:0:0:0:
256,192,10134,1,8,0:0:0:0:
256,192,10434,1,8,0:0:0:0:
256,192,10734,1,4,0:0:0:0:
256,192,11934,1,4,0:0:0:0:
256,192,13134,1,4,0:0:0:0:
256,192,14334,1,4,0:0:0:0:
256,192,14934,1,12,0:0:0:0:
256,192,15534,1,4,0:0:0:0:
256,192,16134,1,8,0:0:0:0:
256,192,16734,1,8,0:0:0:0:
256,192,17034,1,8,0:0:0:0:
256,192,17334,1,8,0:0:0:0:
256,192,17934,1,0,0:0:0:0:
256,192,18534,1,8,0:0:0:0:
256,192,19134,1,0,0:0:0:0:
256,192,19434,1,0,0:0:0:0:
256,192,19734,1,8,0:0:0:0:
256,192,20034,1,8,0:0:0:0:
256,192,20334,1,4,0:0:0:0:
256,192,21534,1,0,0:0:0:0:
256,192,22134,1,8,0:0:0:0:
256,192,22734,1,8,0:0:0:0:
256,192,23034,1,0,0:0:0:0:
256,192,23334,1,8,0:0:0:0:
256,192,23934,2,0,L|334:191,4,70
256,192,25134,1,4,0:0:0:0:
256,192,26334,1,4,0:0:0:0:
256,192,27534,1,4,0:0:0:0:
256,192,28134,1,12,0:0:0:0:
256,192,28734,1,4,0:0:0:0:
256,192,29334,1,12,0:0:0:0:
256,192,29634,1,12,0:0:0:0:
256,192,29934,1,4,0:0:0:0:
256,192,30534,1,8,0:0:0:0:
256,192,31134,1,8,0:0:0:0:
256,192,31434,1,0,0:0:0:0:
256,192,32034,1,0,0:0:0:0:
256,192,32334,1,8,0:0:0:0:
256,192,32934,1,8,0:0:0:0:
256,192,33534,1,0,0:0:0:0:
256,192,33834,1,0,0:0:0:0:
256,192,34134,1,8,0:0:0:0:
256,192,34434,1,8,0:0:0:0:
256,192,34734,1,4,0:0:0:0:
256,192,35934,1,0,0:0:0:0:
256,192,37134,1,4,0:0:0:0:
256,192,37734,1,4,0:0:0:0:
256,192,38184,1,12,0:0:0:0:
256,192,38784,1,12,0:0:0:0:
256,192,39534,1,4,0:0:0:0:
256,192,40134,1,8,0:0:0:0:
256,192,40734,1,0,0:0:0:0:
256,192,41934,1,4,0:0:0:0:
256,192,42534,1,8,0:0:0:0:
256,192,42984,1,4,0:0:0:0:
256,192,43584,1,4,0:0:0:0:
256,192,44334,1,4,0:0:0:0:
256,192,44934,1,8,0:0:0:0:
256,192,45534,1,0,0:0:0:0:
256,192,45834,1,0,0:0:0:0:
256,192,46134,1,8,0:0:0:0:
256,192,46734,1,4,0:0:0:0:
256,192,47334,1,8,0:0:0:0:
256,192,47934,1,8,0:0:0:0:
256,192,48234,1,8,0:0:0:0:
256,192,48534,1,8,0:0:0:0:
256,192,48834,1,8,0:0:0:0:
256,192,49134,1,4,0:0:0:0:
256,192,50334,1,4,0:0:0:0:
256,192,50934,1,8,0:0:0:0:
256,192,51534,1,0,0:0:0:0:
256,192,51834,1,0,0:0:0:0:
256,192,52134,1,8,0:0:0:0:
256,192,52434,1,0,0:0:0:0:
256,192,52734,12,0,53634,0:0:0:0:
256,192,53934,5,4,0:0:0:0:
256,192,54534,1,8,0:0:0:0:
256,192,55134,1,0,0:0:0:0:
256,192,55734,1,8,0:0:0:0:
256,192,56334,1,0,0:0:0:0:
256,192,56934,1,8,0:0:0:0:
256,192,57534,1,0,0:0:0:0:
256,192,57834,1,8,0:0:0:0:
256,192,58434,1,8,0:0:0:0:
256,192,58734,1,4,0:0:0:0:
256,192,59334,1,8,0:0:0:0:
256,192,59934,1,0,0:0:0:0:
256,192,60534,1,8,0:0:0:0:
256,192,61134,1,0,0:0:0:0:
256,192,61734,1,8,0:0:0:0:
256,192,63234,1,12,0:0:0:0:
256,192,63534,1,4,0:0:0:0:
256,192,64134,1,8,0:0:0:0:
256,192,64734,1,0,0:0:0:0:
256,192,65034,1,0,0:0:0:0:
256,192,65334,1,8,0:0:0:0:
256,192,65934,1,4,0:0:0:0:
256,192,66534,1,8,0:0:0:0:
256,192,67134,1,0,0:0:0:0:
256,192,67434,1,8,0:0:0:0:
256,192,68034,1,8,0:0:0:0:
256,192,68334,1,4,0:0:0:0:
256,192,68934,1,8,0:0:0:0:
256,192,69534,1,4,0:0:0:0:
256,192,70134,1,8,0:0:0:0:
256,192,70734,1,0,0:0:0:0:
256,192,71034,1,0,0:0:0:0:
256,192,71334,1,8,0:0:0:0:
256,192,71634,1,8,0:0:0:0:
256,192,71934,1,4,0:0:0:0:
256,192,73134,1,4,0:0:0:0:
256,192,73734,1,8,0:0:0:0:
256,192,74334,1,0,0:0:0:0:
256,192,74634,1,0,0:0:0:0:
256,192,74934,1,8,0:0:0:0:
256,192,75534,1,0,0:0:0:0:
256,192,76134,1,8,0:0:0:0:
256,192,76734,1,0,0:0:0:0:
256,192,77034,1,8,0:0:0:0:
256,192,77334,1,4,0:0:0:0:
256,192,77934,1,4,0:0:0:0:
256,192,78534,1,8,0:0:0:0:
256,192,79134,1,0,0:0:0:0:
256,192,79434,1,0,0:0:0:0:
256,192,79734,1,8,0:0:0:0:
256,192,80334,1,0,0:0:0:0:
256,192,80634,1,0,0:0:0:0:
256,192,80934,1,0,0:0:0:0:
256,192,81234,1,0,0:0:0:0:
256,192,81534,1,8,0:0:0:0:
256,192,82734,1,4,0:0:0:0:
256,192,83334,1,8,0:0:0:0:
256,192,83934,1,0,0:0:0:0:
256,192,84234,1,0,0:0:0:0:
256,192,84534,1,8,0:0:0:0:
256,192,85134,1,0,0:0:0:0:
256,192,85734,1,8,0:0:0:0:
256,192,86334,1,0,0:0:0:0:
256,192,86634,1,8,0:0:0:0:
256,192,86934,1,4,0:0:0:0:
256,192,87534,1,4,0:0:0:0:
256,192,88134,1,8,0:0:0:0:
256,192,88734,1,0,0:0:0:0:
256,192,89034,1,0,0:0:0:0:
256,192,89334,1,8,0:0:0:0:
256,192,89934,1,0,0:0:0:0:
256,192,90534,1,8,0:0:0:0:
256,192,90834,1,8,0:0:0:0:
256,192,91134,1,0,0:0:0:0:
256,192,91434,1,0,0:0:0:0:
256,192,91734,1,8,0:0:0:0:
256,192,92334,1,4,0:0:0:0:
256,192,94734,1,4,0:0:0:0:
256,192,95934,1,8,0:0:0:0:
256,192,96534,1,8,0:0:0:0:
256,192,97134,1,0,0:0:0:0:
256,192,97734,1,0,0:0:0:0:
256,192,98034,1,8,0:0:0:0:
256,192,98334,1,0,0:0:0:0:
256,192,98934,1,8,0:0:0:0:
256,192,99234,1,0,0:0:0:0:
256,192,99534,1,8,0:0:0:0:
256,192,100134,1,8,0:0:0:0:
256,192,100434,1,8,0:0:0:0:
256,192,100734,1,0,0:0:0:0:
256,192,101034,1,0,0:0:0:0:
256,192,101334,1,12,0:0:0:0:
256,192,101934,1,4,0:0:0:0:
256,192,102534,1,8,0:0:0:0:
256,192,103134,1,8,0:0:0:0:
256,192,103434,1,0,0:0:0:0:
256,192,103734,1,8,0:0:0:0:
256,192,104334,1,0,0:0:0:0:
256,192,104934,1,8,0:0:0:0:
256,192,105534,1,0,0:0:0:0:
256,192,105834,1,8,0:0:0:0:
256,192,106134,1,0,0:0:0:0:
256,192,106434,1,8,0:0:0:0:
256,192,106734,1,0,0:0:0:0:
256,192,107634,1,0,0:0:0:0:
256,192,107934,1,8,0:0:0:0:
256,192,108534,1,0,0:0:0:0:
256,192,108834,1,8,0:0:0:0:
256,192,109134,1,0,0:0:0:0:
256,192,109734,1,8,0:0:0:0:
256,192,110034,1,8,0:0:0:0:
256,192,110334,1,0,0:0:0:0:
256,192,110634,1,0,0:0:0:0:
256,192,110934,1,8,0:0:0:0:
256,192,111534,1,12,0:0:0:0:
256,192,111984,1,12,0:0:0:0:
256,192,112584,1,12,0:0:0:0:
