osu file format v14

[General]
AudioFilename: audio.mp3
AudioLeadIn: 0
PreviewTime: 73059
Countdown: 0
SampleSet: Normal
StackLeniency: 0.7
Mode: 1
LetterboxInBreaks: 0
WidescreenStoryboard: 0

[Editor]
DistanceSpacing: 1
BeatDivisor: 4
GridSize: 4
TimelineZoom: 2.299998

[Metadata]
Title:Toono Gensou Monogatari (MRM REMIX)
TitleUnicode:遠野幻想物語 (MRM REMIX)
Artist:Morimori Atsushi
ArtistUnicode:モリモリあつし
Creator:Charlotte
Version:Inner Oni
Source:東方妖々夢 ~ Perfect Cherry Blossom.
Tags:The Fantastic Legend of Tohno Touhou Youyoumu TH7 東方Project 上海アリス幻樂団 Team Shanghai Alice Hardcore J-Core electronic instrumental FLOOR落選供養 Rakusen Kuyou 東方幻鍵音 LOTUS GROOVE Genkenon komasy Nardoxyribonucleic
BeatmapID:1709943
BeatmapSetID:812992

[Difficulty]
HPDrainRate:6
CircleSize:5
OverallDifficulty:6
ApproachRate:5
SliderMultiplier:1.4
SliderTickRate:1

[Events]
//Background and Video events
0,0,"BG.jpg",0,35
//Break Periods
//Storyboard Layer 0 (Background)
//Storyboard Layer 1 (Fail)
//Storyboard Layer 2 (Pass)
//Storyboard Layer 3 (Foreground)
//Storyboard Layer 4 (Overlay)
//Storyboard Sound Samples

[TimingPoints]
1134,300,4,1,0,90,1,0
25059,-83.3333333333333,4,1,0,90,0,0
25959,-100,4,1,0,90,0,0
26259,-83.3333333333333,4,1,0,90,0,0
27159,-100,4,1,0,90,0,0
27459,-83.3333333333333,4,1,0,90,0,0
27759,-100,4,1,0,90,0,0
28059,-83.3333333333333,4,1,0,90,0,0
28359,-100,4,1,0,90,0,0
28659,-83.3333333333333,4,1,0,90,0,0
29784,-100,4,1,0,90,0,0
72759,-62.5,4,1,0,90,0,0
72909,-100,4,1,0,90,0,0
73134,-100,4,1,0,90,0,1
77334,-83.3333333333333,4,1,0,90,0,0
77934,-100,4,1,0,90,0,1
82434,-100,4,1,0,90,0,0
82734,-100,4,1,0,90,0,1
86934,-83.3333333333333,4,1,0,90,0,0
87534,-100,4,1,0,90,0,1
92334,-100,4,1,0,90,0,0
101934,-62.5,4,1,0,90,0,1
102009,-100,4,1,0,90,0,1
112584,-100,4,1,0,90,0,0

[HitObjects]
256,193,1134,5,4,0:0:0:0:
256,193,1284,1,0,0:0:0:0:
256,193,1434,1,8,0:0:0:0:
256,193,1584,1,0,0:0:0:0:
256,193,1734,1,8,0:0:0:0:
256,193,2034,1,0,0:0:0:0:
256,193,2184,1,8,0:0:0:0:
256,193,2484,1,8,0:0:0:0:
256,193,2634,1,0,0:0:0:0:
256,193,2784,1,0,0:0:0:0:
256,193,2934,1,8,0:0:0:0:
256,193,3384,1,8,0:0:0:0:
256,193,3534,1,4,0:0:0:0:
256,193,3684,1,0,0:0:0:0:
256,193,3834,1,8,0:0:0:0:
256,193,3984,1,0,0:0:0:0:
256,193,4134,1,8,0:0:0:0:
256,193,4434,1,0,0:0:0:0:
256,193,4584,1,8,0:0:0:0:
256,193,4734,1,8,0:0:0:0:
256,193,5034,1,0,0:0:0:0:
256,193,5109,1,0,0:0:0:0:
256,193,5184,1,0,0:0:0:0:
256,193,5334,1,8,0:0:0:0:
256,193,5484,1,8,0:0:0:0:
256,193,5634,1,8,0:0:0:0:
256,193,5709,1,0,0:0:0:0:
256,193,5784,1,0,0:0:0:0:
256,193,5859,1,0,0:0:0:0:
256,193,5934,1,8,0:0:0:0:
256,193,6084,1,0,0:0:0:0:
256,193,6159,1,8,0:0:0:0:
256,193,6309,1,0,0:0:0:0:
256,193,6384,1,8,0:0:0:0:
256,193,6534,1,8,0:0:0:0:
256,193,6684,1,0,0:0:0:0:
250,200,6759,1,8,0:0:0:0:
256,193,6834,1,0,0:0:0:0:
256,193,7134,1,8,0:0:0:0:
256,193,7284,1,8,0:0:0:0:
256,193,7359,1,8,0:0:0:0:
256,193,7434,1,0,0:0:0:0:
256,193,7584,1,0,0:0:0:0:
256,193,7734,1,0,0:0:0:0:
256,193,7809,1,0,0:0:0:0:
256,193,7884,1,8,0:0:0:0:
256,193,7959,1,0,0:0:0:0:
256,193,8034,1,8,0:0:0:0:
256,193,8109,1,8,0:0:0:0:
256,193,8184,1,0,0:0:0:0:
256,193,8334,1,0,0:0:0:0:
256,193,8484,1,0,0:0:0:0:
256,193,8559,1,0,0:0:0:0:
256,193,8634,1,8,0:0:0:0:
256,193,8784,1,0,0:0:0:0:
256,193,8859,1,0,0:0:0:0:
256,193,8934,1,8,0:0:0:0:
256,193,9009,1,0,0:0:0:0:
256,193,9084,1,8,0:0:0:0:
256,193,9234,1,0,0:0:0:0:
256,193,9309,1,8,0:0:0:0:
256,193,9384,1,8,0:0:0:0:
256,193,9534,1,0,0:0:0:0:
256,193,9684,1,8,0:0:0:0:
256,193,9734,1,8,0:0:0:0:
256,193,9784,1,8,0:0:0:0:
256,193,9834,1,0,0:0:0:0:
256,193,9984,1,0,0:0:0:0:
256,193,10134,1,8,0:0:0:0:
256,193,10209,1,8,0:0:0:0:
256,193,10284,1,8,0:0:0:0:
256,193,10434,1,4,0:0:0:0:
256,193,10734,1,4,0:0:0:0:
256,193,11184,1,8,0:0:0:0:
256,193,11634,1,8,0:0:0:0:
256,193,11709,1,0,0:0:0:0:
256,193,11784,1,0,0:0:0:0:
256,193,11934,1,4,0:0:0:0:
256,193,12384,1,8,0:0:0:0:
256,193,12834,1,8,0:0:0:0:
256,193,13134,1,4,0:0:0:0:
256,193,13359,1,4,0:0:0:0:
256,193,13584,1,12,0:0:0:0:
256,193,13734,1,4,0:0:0:0:
256,193,13959,1,4,0:0:0:0:
256,193,14184,1,12,0:0:0:0:
256,193,14334,1,4,0:0:0:0:
256,193,14634,1,4,0:0:0:0:
256,193,14934,1,4,0:0:0:0:
252,188,15234,1,8,0:0:0:0:
252,188,15284,1,8,0:0:0:0:
252,188,15334,1,8,0:0:0:0:
252,188,15384,1,8,0:0:0:0:
256,193,15534,1,4,0:0:0:0:
256,193,15684,1,0,0:0:0:0:
256,193,15834,1,8,0:0:0:0:
252,188,15909,1,8,0:0:0:0:
256,193,15984,1,8,0:0:0:0:
256,193,16059,1,8,0:0:0:0:
256,193,16134,1,0,0:0:0:0:
256,193,16284,1,0,0:0:0:0:
256,193,16434,1,8,0:0:0:0:
256,193,16734,1,0,0:0:0:0:
256,193,16884,1,0,0:0:0:0:
256,193,16959,1,0,0:0:0:0:
256,193,17034,1,8,0:0:0:0:
256,193,17184,1,8,0:0:0:0:
256,193,17259,1,8,0:0:0:0:
256,193,17334,1,0,0:0:0:0:
256,193,17484,1,8,0:0:0:0:
256,193,17559,1,8,0:0:0:0:
256,193,17709,1,0,0:0:0:0:
256,193,17784,1,0,0:0:0:0:
253,186,17859,1,8,0:0:0:0:
256,193,17934,1,0,0:0:0:0:
256,193,18084,1,8,0:0:0:0:
256,193,18234,1,8,0:0:0:0:
256,193,18309,1,8,0:0:0:0:
256,193,18384,1,0,0:0:0:0:
256,193,18459,1,0,0:0:0:0:
256,193,18534,1,8,0:0:0:0:
256,193,18684,1,0,0:0:0:0:
256,193,18834,1,8,0:0:0:0:
256,193,18984,1,0,0:0:0:0:
256,193,19134,1,8,0:0:0:0:
256,193,19209,1,0,0:0:0:0:
256,193,19284,1,0,0:0:0:0:
256,193,19359,1,0,0:0:0:0:
256,193,19434,1,8,0:0:0:0:
256,193,19509,1,8,0:0:0:0:
256,193,19584,1,0,0:0:0:0:
256,193,19734,1,8,0:0:0:0:
256,193,19809,1,8,0:0:0:0:
256,193,19884,1,8,0:0:0:0:
256,193,19959,1,8,0:0:0:0:
256,193,20034,1,0,0:0:0:0:
256,193,20334,1,12,0:0:0:0:
256,193,20484,1,0,0:0:0:0:
256,193,20634,1,8,0:0:0:0:
256,193,20709,1,0,0:0:0:0:
256,193,20784,1,8,0:0:0:0:
256,193,20859,1,8,0:0:0:0:
256,193,20934,1,0,0:0:0:0:
256,193,21084,1,0,0:0:0:0:
256,193,21159,1,0,0:0:0:0:
256,193,21234,1,8,0:0:0:0:
256,193,21534,1,0,0:0:0:0:
256,193,21684,1,0,0:0:0:0:
256,193,21759,1,0,0:0:0:0:
256,193,21834,1,8,0:0:0:0:
256,193,21984,1,0,0:0:0:0:
256,193,22059,1,8,0:0:0:0:
256,193,22134,1,0,0:0:0:0:
256,193,22284,1,0,0:0:0:0:
256,193,22359,1,8,0:0:0:0:
256,193,22509,1,0,0:0:0:0:
256,193,22584,1,8,0:0:0:0:
256,193,22659,1,8,0:0:0:0:
256,193,22734,1,0,0:0:0:0:
256,193,22884,1,8,0:0:0:0:
256,193,23034,1,0,0:0:0:0:
256,193,23109,1,8,0:0:0:0:
256,193,23184,1,8,0:0:0:0:
256,193,23259,1,0,0:0:0:0:
256,193,23334,1,8,0:0:0:0:
256,193,23484,1,0,0:0:0:0:
256,193,23634,1,8,0:0:0:0:
256,193,23784,1,0,0:0:0:0:
256,193,23934,1,8,0:0:0:0:
256,193,24084,1,8,0:0:0:0:
256,193,24159,1,8,0:0:0:0:
256,193,24234,1,0,0:0:0:0:
256,193,24384,1,0,0:0:0:0:
256,193,24534,1,8,0:0:0:0:
256,193,24684,1,0,0:0:0:0:
256,193,24759,1,0,0:0:0:0:
256,193,24834,1,8,0:0:0:0:
256,193,25134,1,4,0:0:0:0:
256,193,25434,1,4,0:0:0:0:
256,193,25734,1,4,0:0:0:0:
256,193,26034,1,8,0:0:0:0:
256,193,26334,1,4,0:0:0:0:
256,193,26634,1,4,0:0:0:0:
256,193,26934,1,4,0:0:0:0:
256,193,27234,1,8,0:0:0:0:
256,193,27534,1,4,0:0:0:0:
256,193,27834,1,8,0:0:0:0:
256,193,28134,1,4,0:0:0:0:
256,193,28434,1,8,0:0:0:0:
256,193,28734,1,4,0:0:0:0:
256,193,29034,1,12,0:0:0:0:
256,193,29334,1,4,0:0:0:0:
256,193,29634,1,12,0:0:0:0:
256,193,29934,1,4,0:0:0:0:
256,193,30084,1,0,0:0:0:0:
256,193,30234,1,8,0:0:0:0:
256,193,30309,1,8,0:0:0:0:
256,193,30384,1,8,0:0:0:0:
256,193,30459,1,8,0:0:0:0:
256,193,30534,1,0,0:0:0:0:
256,193,30684,1,0,0:0:0:0:
256,193,30759,1,0,0:0:0:0:
256,193,30834,1,8,0:0:0:0:
256,193,30909,1,0,0:0:0:0:
256,193,30984,1,8,0:0:0:0:
256,193,31059,1,8,0:0:0:0:
256,193,31134,1,0,0:0:0:0:
256,193,31284,1,0,0:0:0:0:
256,193,31359,1,0,0:0:0:0:
256,193,31434,1,8,0:0:0:0:
256,193,31584,1,8,0:0:0:0:
256,193,31659,1,8,0:0:0:0:
256,193,31734,1,0,0:0:0:0:
256,193,31884,1,8,0:0:0:0:
256,193,31959,1,0,0:0:0:0:
256,193,32109,1,8,0:0:0:0:
256,193,32184,1,8,0:0:0:0:
256,193,32334,1,0,0:0:0:0:
256,193,32409,1,8,0:0:0:0:
256,193,32484,1,0,0:0:0:0:
256,193,32559,1,0,0:0:0:0:
256,193,32634,1,8,0:0:0:0:
256,193,32709,1,8,0:0:0:0:
256,193,32784,1,0,0:0:0:0:
256,193,32859,1,0,0:0:0:0:
256,193,32934,1,8,0:0:0:0:
256,193,33084,1,0,0:0:0:0:
256,193,33134,1,0,0:0:0:0:
256,193,33184,1,0,0:0:0:0:
256,193,33234,1,8,0:0:0:0:
256,193,33384,1,8,0:0:0:0:
256,193,33434,1,0,0:0:0:0:
256,193,33484,1,0,0:0:0:0:
256,193,33534,1,8,0:0:0:0:
256,193,33684,1,0,0:0:0:0:
256,193,33759,1,0,0:0:0:0:
256,193,33834,1,8,0:0:0:0:
256,193,33909,1,8,0:0:0:0:
256,193,33984,1,0,0:0:0:0:
256,193,34059,1,0,0:0:0:0:
256,193,34134,1,8,0:0:0:0:
256,193,34209,1,0,0:0:0:0:
256,193,34284,1,8,0:0:0:0:
256,193,34359,1,0,0:0:0:0:
256,193,34434,1,8,0:0:0:0:
256,193,34509,1,8,0:0:0:0:
256,193,34584,1,0,0:0:0:0:
256,193,34734,1,12,0:0:0:0:
256,193,35034,1,0,0:0:0:0:
256,193,35184,1,0,0:0:0:0:
256,193,35334,1,8,0:0:0:0:
256,193,35634,1,8,0:0:0:0:
256,193,35784,1,8,0:0:0:0:
256,193,35934,1,0,0:0:0:0:
256,193,36084,1,0,0:0:0:0:
256,193,36234,1,8,0:0:0:0:
256,193,36534,1,0,0:0:0:0:
256,193,36684,1,0,0:0:0:0:
256,193,36834,1,8,0:0:0:0:
256,193,37134,1,0,0:0:0:0:
256,193,37284,1,8,0:0:0:0:
256,193,37434,1,0,0:0:0:0:
256,193,37584,1,0,0:0:0:0:
256,193,37734,1,8,0:0:0:0:
256,193,37809,1,0,0:0:0:0:
256,193,37884,1,8,0:0:0:0:
256,193,37959,1,8,0:0:0:0:
256,193,38034,1,0,0:0:0:0:
256,193,38184,1,12,0:0:0:0:
256,193,38484,1,12,0:0:0:0:
256,193,38784,1,12,0:0:0:0:
256,193,39084,1,12,0:0:0:0:
256,193,39384,1,12,0:0:0:0:
256,193,39534,1,4,0:0:0:0:
256,193,39684,1,0,0:0:0:0:
256,193,39759,1,0,0:0:0:0:
256,193,39834,1,8,0:0:0:0:
256,193,39984,1,0,0:0:0:0:
256,193,40134,1,8,0:0:0:0:
256,193,40284,1,0,0:0:0:0:
256,193,40359,1,0,0:0:0:0:
256,193,40434,1,8,0:0:0:0:
256,193,40584,1,0,0:0:0:0:
256,193,40734,1,8,0:0:0:0:
256,193,40884,1,0,0:0:0:0:
256,193,41034,1,8,0:0:0:0:
256,193,41109,1,8,0:0:0:0:
256,193,41259,1,0,0:0:0:0:
256,193,41334,1,8,0:0:0:0:
256,193,41484,1,0,0:0:0:0:
256,193,41634,1,8,0:0:0:0:
256,193,41709,1,8,0:0:0:0:
256,193,41784,1,0,0:0:0:0:
256,193,41859,1,0,0:0:0:0:
256,193,41934,1,8,0:0:0:0:
256,193,42234,1,0,0:0:0:0:
256,193,42384,1,8,0:0:0:0:
256,193,42534,1,0,0:0:0:0:
256,193,42684,1,0,0:0:0:0:
256,193,42759,1,0,0:0:0:0:
256,193,42834,1,8,0:0:0:0:
256,193,42984,1,4,0:0:0:0:
256,193,43284,1,4,0:0:0:0:
256,193,43584,1,4,0:0:0:0:
256,193,43884,1,4,0:0:0:0:
256,193,44184,1,4,0:0:0:0:
256,193,44334,1,12,0:0:0:0:
256,193,44484,1,0,0:0:0:0:
256,193,44559,1,0,0:0:0:0:
256,193,44634,1,8,0:0:0:0:
256,193,44784,1,0,0:0:0:0:
256,193,44934,1,8,0:0:0:0:
256,193,45084,1,0,0:0:0:0:
256,193,45159,1,0,0:0:0:0:
256,193,45234,1,8,0:0:0:0:
256,193,45384,1,0,0:0:0:0:
256,193,45534,1,8,0:0:0:0:
256,193,45684,1,0,0:0:0:0:
256,193,45759,1,0,0:0:0:0:
256,193,45834,1,8,0:0:0:0:
256,193,45909,1,8,0:0:0:0:
256,193,45984,1,0,0:0:0:0:
256,193,46134,1,8,0:0:0:0:
256,193,46284,1,0,0:0:0:0:
256,193,46434,1,8,0:0:0:0:
256,193,46509,1,8,0:0:0:0:
256,193,46584,1,0,0:0:0:0:
256,193,46659,1,0,0:0:0:0:
256,193,46734,1,8,0:0:0:0:
256,193,46884,1,0,0:0:0:0:
256,193,47034,1,8,0:0:0:0:
256,193,47184,1,8,0:0:0:0:
256,193,47259,1,0,0:0:0:0:
256,193,47334,1,8,0:0:0:0:
256,193,47409,1,8,0:0:0:0:
256,193,47484,1,0,0:0:0:0:
256,193,47559,1,0,0:0:0:0:
256,193,47634,1,8,0:0:0:0:
256,193,47784,1,0,0:0:0:0:
256,193,47934,1,8,0:0:0:0:
256,193,48084,1,8,0:0:0:0:
256,193,48159,1,8,0:0:0:0:
256,193,48234,1,0,0:0:0:0:
256,193,48384,1,8,0:0:0:0:
256,193,48459,1,8,0:0:0:0:
256,193,48534,1,0,0:0:0:0:
256,193,48684,1,8,0:0:0:0:
256,193,48759,1,0,0:0:0:0:
256,193,48834,1,0,0:0:0:0:
256,193,48984,1,0,0:0:0:0:
256,193,49059,1,0,0:0:0:0:
256,193,49134,1,8,0:0:0:0:
256,193,49284,1,0,0:0:0:0:
256,193,49359,1,0,0:0:0:0:
256,193,49434,1,0,0:0:0:0:
256,193,49584,1,0,0:0:0:0:
256,193,49734,1,8,0:0:0:0:
256,193,49884,1,0,0:0:0:0:
256,193,49959,1,0,0:0:0:0:
259,197,50034,1,0,0:0:0:0:
256,193,50184,1,0,0:0:0:0:
256,193,50334,1,8,0:0:0:0:
256,193,50409,1,8,0:0:0:0:
256,193,50484,1,0,0:0:0:0:
256,193,50634,1,8,0:0:0:0:
256,193,50709,1,0,0:0:0:0:
255,199,50784,1,8,0:0:0:0:
254,200,50934,1,8,0:0:0:0:
259,197,51009,1,8,0:0:0:0:
256,193,51084,1,0,0:0:0:0:
256,193,51159,1,0,0:0:0:0:
256,193,51234,1,8,0:0:0:0:
256,193,51309,1,0,0:0:0:0:
256,193,51384,1,8,0:0:0:0:
256,193,51534,1,8,0:0:0:0:
256,193,51609,1,8,0:0:0:0:
256,193,51684,1,0,0:0:0:0:
256,193,51759,1,8,0:0:0:0:
256,193,51834,1,0,0:0:0:0:
256,193,51909,1,0,0:0:0:0:
256,193,51984,1,8,0:0:0:0:
256,193,52059,1,8,0:0:0:0:
256,193,52134,1,0,0:0:0:0:
256,193,52284,1,8,0:0:0:0:
256,193,52334,1,8,0:0:0:0:
256,193,52384,1,8,0:0:0:0:
256,193,52434,1,0,0:0:0:0:
256,193,52584,1,8,0:0:0:0:
256,193,52734,1,0,0:0:0:0:
256,193,52959,1,0,0:0:0:0:
256,193,53184,1,0,0:0:0:0:
256,193,53409,1,0,0:0:0:0:
256,193,53634,1,8,0:0:0:0:
256,193,53709,1,0,0:0:0:0:
257,200,53784,1,8,0:0:0:0:
256,193,53934,1,4,0:0:0:0:
256,193,54134,1,0,0:0:0:0:
255,199,54234,1,8,0:0:0:0:
256,193,54534,1,0,0:0:0:0:
256,193,54734,1,0,0:0:0:0:
255,199,54834,1,8,0:0:0:0:
255,199,55034,1,8,0:0:0:0:
259,197,55134,1,0,0:0:0:0:
259,198,55334,1,0,0:0:0:0:
259,198,55434,1,8,0:0:0:0:
257,197,55734,1,8,0:0:0:0:
255,199,55834,1,0,0:0:0:0:
255,199,55934,1,0,0:0:0:0:
255,199,56034,1,8,0:0:0:0:
257,197,56334,1,0,0:0:0:0:
255,199,56534,1,0,0:0:0:0:
255,199,56634,1,8,0:0:0:0:
255,199,56834,1,0,0:0:0:0:
257,197,56934,1,8,0:0:0:0:
255,199,57034,1,0,0:0:0:0:
255,199,57134,1,0,0:0:0:0:
255,199,57234,1,8,0:0:0:0:
255,199,57434,1,8,0:0:0:0:
257,197,57534,1,0,0:0:0:0:
255,199,57734,1,0,0:0:0:0:
255,199,57834,1,8,0:0:0:0:
255,199,58034,1,0,0:0:0:0:
255,199,58134,1,8,0:0:0:0:
255,199,58334,1,8,0:0:0:0:
252,200,58434,1,0,0:0:0:0:
256,193,58734,1,4,0:0:0:0:
256,193,58934,1,0,0:0:0:0:
255,199,59034,1,8,0:0:0:0:
256,193,59334,1,0,0:0:0:0:
256,193,59534,1,0,0:0:0:0:
255,199,59634,1,8,0:0:0:0:
255,199,59834,1,8,0:0:0:0:
259,197,59934,1,0,0:0:0:0:
259,198,60134,1,0,0:0:0:0:
259,198,60234,1,8,0:0:0:0:
257,197,60534,1,8,0:0:0:0:
255,199,60634,1,0,0:0:0:0:
255,199,60734,1,0,0:0:0:0:
255,199,60834,1,8,0:0:0:0:
257,197,61134,1,0,0:0:0:0:
255,199,61334,1,0,0:0:0:0:
255,199,61434,1,8,0:0:0:0:
255,199,61634,1,0,0:0:0:0:
257,197,61734,1,8,0:0:0:0:
255,199,61834,1,0,0:0:0:0:
255,199,61934,1,0,0:0:0:0:
255,199,62034,1,8,0:0:0:0:
255,199,62234,1,8,0:0:0:0:
257,197,62334,1,0,0:0:0:0:
255,199,62534,1,0,0:0:0:0:
255,199,62634,1,8,0:0:0:0:
255,199,62834,1,8,0:0:0:0:
255,199,62934,1,0,0:0:0:0:
255,199,63034,1,0,0:0:0:0:
255,199,63134,1,0,0:0:0:0:
252,200,63234,1,12,0:0:0:0:
255,199,63534,1,4,0:0:0:0:
255,199,63734,1,0,0:0:0:0:
255,199,63834,1,8,0:0:0:0:
255,199,64034,1,0,0:0:0:0:
255,199,64134,1,0,0:0:0:0:
255,199,64334,1,0,0:0:0:0:
255,199,64434,1,8,0:0:0:0:
255,199,64634,1,0,0:0:0:0:
255,199,64734,1,0,0:0:0:0:
255,199,64934,1,0,0:0:0:0:
255,199,65034,1,8,0:0:0:0:
255,199,65234,1,8,0:0:0:0:
255,199,65334,1,0,0:0:0:0:
255,199,65434,1,0,0:0:0:0:
255,199,65534,1,0,0:0:0:0:
255,199,65634,1,8,0:0:0:0:
255,199,65834,1,8,0:0:0:0:
255,199,65934,1,0,0:0:0:0:
255,199,66134,1,0,0:0:0:0:
255,199,66234,1,8,0:0:0:0:
255,199,66434,1,8,0:0:0:0:
257,195,66534,1,8,0:0:0:0:
255,199,66634,1,0,0:0:0:0:
257,195,66734,1,0,0:0:0:0:
257,195,66834,1,8,0:0:0:0:
255,199,67034,1,8,0:0:0:0:
254,193,67134,1,0,0:0:0:0:
257,195,67334,1,0,0:0:0:0:
257,195,67434,1,8,0:0:0:0:
257,195,67634,1,0,0:0:0:0:
257,195,67734,1,8,0:0:0:0:
255,199,67934,1,8,0:0:0:0:
254,193,68034,1,0,0:0:0:0:
257,195,68334,1,0,0:0:0:0:
257,195,68534,1,0,0:0:0:0:
257,195,68634,1,8,0:0:0:0:
255,199,68834,1,8,0:0:0:0:
259,193,68934,1,0,0:0:0:0:
259,193,69034,1,0,0:0:0:0:
257,195,69134,1,0,0:0:0:0:
257,195,69234,1,8,0:0:0:0:
257,195,69434,1,8,0:0:0:0:
257,195,69534,1,0,0:0:0:0:
257,195,69734,1,0,0:0:0:0:
255,199,69834,1,8,0:0:0:0:
259,193,70034,1,0,0:0:0:0:
257,195,70134,1,0,0:0:0:0:
257,195,70234,1,0,0:0:0:0:
257,195,70334,1,0,0:0:0:0:
257,195,70434,1,8,0:0:0:0:
257,195,70634,1,8,0:0:0:0:
254,190,70734,1,0,0:0:0:0:
254,190,70834,1,0,0:0:0:0:
254,190,70934,1,0,0:0:0:0:
254,190,71034,1,8,0:0:0:0:
254,190,71134,1,8,0:0:0:0:
254,190,71234,1,8,0:0:0:0:
254,190,71334,1,0,0:0:0:0:
254,190,71434,1,0,0:0:0:0:
254,190,71534,1,0,0:0:0:0:
254,190,71634,1,8,0:0:0:0:
254,190,71734,1,0,0:0:0:0:
254,190,71834,1,0,0:0:0:0:
254,190,71934,1,12,0:0:0:0:
254,190,72234,1,12,0:0:0:0:
261,186,72534,1,12,0:0:0:0:
254,190,72834,1,8,0:0:0:0:
254,190,73134,1,4,0:0:0:0:
255,187,73284,1,0,0:0:0:0:
255,187,73434,1,8,0:0:0:0:
266,185,73584,1,0,0:0:0:0:
255,187,73659,1,0,0:0:0:0:
259,190,73734,1,8,0:0:0:0:
259,190,73884,1,8,0:0:0:0:
259,189,73959,1,0,0:0:0:0:
259,189,74034,1,0,0:0:0:0:
255,187,74184,1,8,0:0:0:0:
255,187,74259,1,8,0:0:0:0:
255,187,74334,1,0,0:0:0:0:
255,187,74409,1,0,0:0:0:0:
254,190,74484,1,0,0:0:0:0:
259,190,74634,1,8,0:0:0:0:
255,187,74784,1,8,0:0:0:0:
259,190,74859,1,8,0:0:0:0:
259,189,74934,1,0,0:0:0:0:
255,187,75084,1,8,0:0:0:0:
255,187,75234,1,0,0:0:0:0:
255,187,75309,1,0,0:0:0:0:
257,191,75384,1,8,0:0:0:0:
259,190,75534,1,0,0:0:0:0:
261,186,75684,1,8,0:0:0:0:
259,190,75759,1,8,0:0:0:0:
259,190,75834,1,8,0:0:0:0:
255,187,75984,1,0,0:0:0:0:
255,187,76134,1,8,0:0:0:0:
255,187,76209,1,0,0:0:0:0:
255,187,76284,1,8,0:0:0:0:
257,191,76359,1,8,0:0:0:0:
259,190,76434,1,0,0:0:0:0:
250,190,76509,1,0,0:0:0:0:
259,190,76584,1,8,0:0:0:0:
255,188,76734,1,0,0:0:0:0:
254,191,76884,1,8,0:0:0:0:
255,187,76959,1,8,0:0:0:0:
254,191,77034,1,0,0:0:0:0:
254,191,77184,1,8,0:0:0:0:
257,195,77334,1,4,0:0:0:0:
257,195,77634,1,4,0:0:0:0:
256,195,77934,1,4,0:0:0:0:
254,191,78084,1,0,0:0:0:0:
254,191,78159,1,0,0:0:0:0:
257,195,78234,1,8,0:0:0:0:
257,195,78384,1,0,0:0:0:0:
257,195,78534,1,8,0:0:0:0:
256,195,78684,1,0,0:0:0:0:
256,195,78759,1,0,0:0:0:0:
256,195,78834,1,8,0:0:0:0:
254,191,78984,1,8,0:0:0:0:
254,191,79059,1,8,0:0:0:0:
254,191,79134,1,0,0:0:0:0:
254,191,79284,1,8,0:0:0:0:
252,192,79359,1,0,0:0:0:0:
252,192,79434,1,0,0:0:0:0:
257,195,79509,1,0,0:0:0:0:
256,195,79584,1,8,0:0:0:0:
248,191,79734,1,8,0:0:0:0:
256,195,79809,1,8,0:0:0:0:
250,197,79884,1,0,0:0:0:0:
249,195,79959,1,0,0:0:0:0:
251,197,80034,1,8,0:0:0:0:
250,198,80109,1,0,0:0:0:0:
256,198,80184,1,8,0:0:0:0:
255,197,80334,1,0,0:0:0:0:
254,199,80409,1,0,0:0:0:0:
254,199,80484,1,0,0:0:0:0:
256,195,80559,1,0,0:0:0:0:
254,197,80634,1,8,0:0:0:0:
254,195,80709,1,8,0:0:0:0:
256,195,80784,1,0,0:0:0:0:
249,195,80859,1,0,0:0:0:0:
254,194,80934,1,8,0:0:0:0:
250,198,81084,1,8,0:0:0:0:
255,197,81134,1,8,0:0:0:0:
256,198,81184,1,8,0:0:0:0:
255,197,81234,1,0,0:0:0:0:
254,199,81384,1,0,0:0:0:0:
254,199,81434,1,0,0:0:0:0:
254,199,81484,1,0,0:0:0:0:
256,195,81534,1,8,0:0:0:0:
249,195,81834,1,0,0:0:0:0:
250,198,82134,1,8,0:0:0:0:
249,195,82209,1,8,0:0:0:0:
248,197,82284,1,0,0:0:0:0:
248,197,82359,1,0,0:0:0:0:
248,197,82434,1,8,0:0:0:0:
249,195,82734,1,4,0:0:0:0:
255,187,82884,1,0,0:0:0:0:
255,187,83034,1,8,0:0:0:0:
266,185,83184,1,0,0:0:0:0:
255,187,83259,1,0,0:0:0:0:
259,190,83334,1,8,0:0:0:0:
259,190,83484,1,0,0:0:0:0:
259,189,83559,1,8,0:0:0:0:
259,189,83634,1,0,0:0:0:0:
255,187,83784,1,8,0:0:0:0:
261,189,83859,1,0,0:0:0:0:
255,187,83934,1,8,0:0:0:0:
255,187,84009,1,8,0:0:0:0:
254,190,84084,1,0,0:0:0:0:
259,190,84234,1,8,0:0:0:0:
255,187,84384,1,8,0:0:0:0:
259,190,84459,1,0,0:0:0:0:
259,189,84534,1,0,0:0:0:0:
255,187,84684,1,8,0:0:0:0:
255,187,84834,1,0,0:0:0:0:
255,187,84909,1,0,0:0:0:0:
257,191,84984,1,8,0:0:0:0:
259,190,85134,1,0,0:0:0:0:
261,186,85284,1,8,0:0:0:0:
259,190,85359,1,0,0:0:0:0:
259,190,85434,1,8,0:0:0:0:
255,187,85584,1,0,0:0:0:0:
255,187,85734,1,8,0:0:0:0:
255,187,85809,1,8,0:0:0:0:
255,187,85884,1,0,0:0:0:0:
257,191,85959,1,8,0:0:0:0:
259,190,86034,1,0,0:0:0:0:
259,190,86109,1,0,0:0:0:0:
259,190,86184,1,8,0:0:0:0:
255,188,86334,1,0,0:0:0:0:
254,191,86484,1,8,0:0:0:0:
255,187,86559,1,0,0:0:0:0:
254,191,86634,1,0,0:0:0:0:
256,194,86709,1,0,0:0:0:0:
254,191,86784,1,8,0:0:0:0:
257,195,86934,1,4,0:0:0:0:
257,195,87234,1,4,0:0:0:0:
256,195,87534,1,4,0:0:0:0:
254,191,87684,1,0,0:0:0:0:
254,191,87759,1,0,0:0:0:0:
257,195,87834,1,8,0:0:0:0:
257,195,87984,1,0,0:0:0:0:
257,195,88134,1,8,0:0:0:0:
256,195,88284,1,0,0:0:0:0:
256,195,88359,1,0,0:0:0:0:
256,195,88434,1,8,0:0:0:0:
261,192,88509,1,0,0:0:0:0:
254,191,88584,1,8,0:0:0:0:
254,191,88659,1,8,0:0:0:0:
254,191,88734,1,0,0:0:0:0:
254,191,88884,1,8,0:0:0:0:
252,192,88959,1,0,0:0:0:0:
252,192,89034,1,0,0:0:0:0:
257,195,89109,1,0,0:0:0:0:
256,195,89184,1,8,0:0:0:0:
248,191,89334,1,8,0:0:0:0:
256,195,89409,1,0,0:0:0:0:
250,197,89484,1,8,0:0:0:0:
249,195,89559,1,8,0:0:0:0:
251,197,89634,1,0,0:0:0:0:
250,198,89709,1,0,0:0:0:0:
256,198,89784,1,8,0:0:0:0:
255,197,89934,1,0,0:0:0:0:
254,199,90009,1,8,0:0:0:0:
254,199,90084,1,0,0:0:0:0:
256,195,90159,1,0,0:0:0:0:
254,197,90234,1,8,0:0:0:0:
254,195,90309,1,0,0:0:0:0:
256,195,90384,1,8,0:0:0:0:
249,195,90459,1,8,0:0:0:0:
254,194,90534,1,0,0:0:0:0:
250,198,90684,1,8,0:0:0:0:
256,198,90734,1,8,0:0:0:0:
255,197,90784,1,8,0:0:0:0:
255,197,90834,1,0,0:0:0:0:
254,199,90984,1,0,0:0:0:0:
254,199,91034,1,0,0:0:0:0:
254,199,91084,1,0,0:0:0:0:
256,195,91134,1,8,0:0:0:0:
249,195,91434,1,0,0:0:0:0:
250,198,91734,1,8,0:0:0:0:
250,198,91809,1,0,0:0:0:0:
248,197,91884,1,8,0:0:0:0:
248,197,91959,1,0,0:0:0:0:
248,197,92034,1,8,0:0:0:0:
249,195,92334,1,4,0:0:0:0:
250,198,92484,1,8,0:0:0:0:
249,191,92634,1,0,0:0:0:0:
248,197,92709,1,8,0:0:0:0:
249,195,92934,1,0,0:0:0:0:
254,192,93159,1,0,0:0:0:0:
254,192,93384,1,0,0:0:0:0:
254,190,93684,1,0,0:0:0:0:
250,198,93834,1,8,0:0:0:0:
248,197,93909,1,0,0:0:0:0:
249,195,94134,1,0,0:0:0:0:
254,192,94359,1,0,0:0:0:0:
254,192,94584,1,0,0:0:0:0:
252,193,94734,1,4,0:0:0:0:
256,191,94884,1,8,0:0:0:0:
249,191,95034,1,0,0:0:0:0:
248,197,95109,1,8,0:0:0:0:
249,195,95334,1,0,0:0:0:0:
254,192,95559,1,0,0:0:0:0:
254,192,95784,1,0,0:0:0:0:
254,190,96084,1,0,0:0:0:0:
250,198,96234,1,8,0:0:0:0:
248,197,96309,1,0,0:0:0:0:
254,192,96384,1,0,0:0:0:0:
254,192,96459,1,0,0:0:0:0:
254,192,96534,1,8,0:0:0:0:
254,192,96684,1,8,0:0:0:0:
254,190,96759,1,0,0:0:0:0:
254,190,96909,1,0,0:0:0:0:
254,190,96984,1,8,0:0:0:0:
254,193,97134,1,0,0:0:0:0:
252,191,97284,1,0,0:0:0:0:
254,192,97359,1,0,0:0:0:0:
254,192,97434,1,8,0:0:0:0:
254,192,97584,1,0,0:0:0:0:
254,192,97659,1,0,0:0:0:0:
254,192,97734,1,8,0:0:0:0:
254,190,97809,1,8,0:0:0:0:
254,190,97884,1,0,0:0:0:0:
252,191,98034,1,8,0:0:0:0:
254,193,98184,1,0,0:0:0:0:
254,193,98259,1,0,0:0:0:0:
254,192,98334,1,8,0:0:0:0:
254,192,98409,1,0,0:0:0:0:
254,192,98484,1,8,0:0:0:0:
252,191,98559,1,8,0:0:0:0:
254,193,98634,1,0,0:0:0:0:
254,192,98709,1,8,0:0:0:0:
254,190,98784,1,0,0:0:0:0:
254,190,98859,1,0,0:0:0:0:
254,193,98934,1,8,0:0:0:0:
252,191,99084,1,0,0:0:0:0:
254,193,99159,1,0,0:0:0:0:
254,192,99234,1,8,0:0:0:0:
254,190,99384,1,0,0:0:0:0:
254,190,99459,1,0,0:0:0:0:
254,192,99534,1,8,0:0:0:0:
254,192,99609,1,8,0:0:0:0:
248,189,99684,1,0,0:0:0:0:
254,192,99759,1,0,0:0:0:0:
254,190,99834,1,8,0:0:0:0:
254,193,99909,1,0,0:0:0:0:
252,191,99984,1,8,0:0:0:0:
252,191,100059,1,8,0:0:0:0:
252,187,100134,1,0,0:0:0:0:
254,192,100209,1,0,0:0:0:0:
254,192,100284,1,8,0:0:0:0:
254,190,100334,1,8,0:0:0:0:
254,190,100384,1,8,0:0:0:0:
249,195,100434,1,0,0:0:0:0:
248,189,100509,1,0,0:0:0:0:
252,191,100584,1,0,0:0:0:0:
252,191,100659,1,0,0:0:0:0:
254,190,100734,1,8,0:0:0:0:
252,191,101034,1,8,0:0:0:0:
254,190,101334,1,8,0:0:0:0:
243,193,101484,1,0,0:0:0:0:
243,193,101559,1,0,0:0:0:0:
252,191,101634,1,8,0:0:0:0:
256,193,101934,1,12,0:0:0:0:
256,193,102084,1,0,0:0:0:0:
256,193,102234,1,8,0:0:0:0:
256,193,102309,1,8,0:0:0:0:
256,193,102384,1,8,0:0:0:0:
256,193,102459,1,8,0:0:0:0:
256,193,102534,1,0,0:0:0:0:
256,193,102684,1,0,0:0:0:0:
262,197,102759,1,0,0:0:0:0:
256,193,102834,1,8,0:0:0:0:
251,195,102984,1,8,0:0:0:0:
256,193,103134,1,0,0:0:0:0:
256,193,103284,1,0,0:0:0:0:
256,193,103359,1,0,0:0:0:0:
256,193,103434,1,8,0:0:0:0:
256,193,103584,1,8,0:0:0:0:
256,193,103659,1,8,0:0:0:0:
256,193,103734,1,0,0:0:0:0:
256,193,103809,1,0,0:0:0:0:
256,193,103884,1,8,0:0:0:0:
256,193,103959,1,8,0:0:0:0:
256,193,104109,1,0,0:0:0:0:
256,193,104184,1,8,0:0:0:0:
256,193,104259,1,8,0:0:0:0:
256,193,104334,1,0,0:0:0:0:
256,193,104484,1,8,0:0:0:0:
256,193,104559,1,0,0:0:0:0:
256,193,104634,1,8,0:0:0:0:
256,193,104784,1,8,0:0:0:0:
250,195,104859,1,8,0:0:0:0:
256,193,104934,1,0,0:0:0:0:
256,193,105084,1,8,0:0:0:0:
256,193,105234,1,0,0:0:0:0:
256,193,105309,1,0,0:0:0:0:
256,193,105384,1,8,0:0:0:0:
256,193,105534,1,8,0:0:0:0:
256,193,105609,1,0,0:0:0:0:
256,193,105684,1,0,0:0:0:0:
256,193,105759,1,0,0:0:0:0:
256,193,105834,1,8,0:0:0:0:
256,193,105909,1,8,0:0:0:0:
256,193,105984,1,0,0:0:0:0:
256,193,106059,1,0,0:0:0:0:
256,193,106134,1,8,0:0:0:0:
256,193,106209,1,8,0:0:0:0:
256,193,106284,1,8,0:0:0:0:
256,193,106359,1,0,0:0:0:0:
256,193,106434,1,8,0:0:0:0:
256,193,106509,1,8,0:0:0:0:
256,193,106584,1,0,0:0:0:0:
256,193,106659,1,0,0:0:0:0:
256,193,106734,1,8,0:0:0:0:
256,193,106809,1,8,0:0:0:0:
256,193,106884,1,8,0:0:0:0:
256,193,106959,1,8,0:0:0:0:
256,193,107034,1,0,0:0:0:0:
256,193,107184,1,0,0:0:0:0:
256,193,107259,1,0,0:0:0:0:
256,193,107334,1,0,0:0:0:0:
256,193,107409,1,0,0:0:0:0:
256,193,107484,1,8,0:0:0:0:
256,193,107634,1,0,0:0:0:0:
256,193,107784,1,8,0:0:0:0:
256,193,107934,1,8,0:0:0:0:
256,193,108009,1,0,0:0:0:0:
256,193,108084,1,8,0:0:0:0:
256,193,108159,1,0,0:0:0:0:
256,193,108234,1,8,0:0:0:0:
256,193,108384,1,0,0:0:0:0:
256,193,108459,1,8,0:0:0:0:
256,193,108534,1,0,0:0:0:0:
256,193,108609,1,8,0:0:0:0:
256,193,108684,1,0,0:0:0:0:
256,193,108834,1,8,0:0:0:0:
256,193,108909,1,0,0:0:0:0:
256,193,108984,1,8,0:0:0:0:
256,193,109059,1,8,0:0:0:0:
256,193,109134,1,0,0:0:0:0:
256,193,109284,1,8,0:0:0:0:
256,193,109359,1,8,0:0:0:0:
256,193,109434,1,0,0:0:0:0:
256,193,109509,1,8,0:0:0:0:
256,193,109584,1,0,0:0:0:0:
256,193,109659,1,0,0:0:0:0:
256,193,109734,1,8,0:0:0:0:
256,193,109884,1,0,0:0:0:0:
256,193,109959,1,0,0:0:0:0:
256,193,110034,1,8,0:0:0:0:
256,193,110184,1,0,0:0:0:0:
256,193,110334,1,8,0:0:0:0:
256,193,110409,1,0,0:0:0:0:
256,193,110484,1,0,0:0:0:0:
256,193,110559,1,0,0:0:0:0:
256,193,110634,1,8,0:0:0:0:
256,193,110709,1,0,0:0:0:0:
256,193,110784,1,8,0:0:0:0:
256,193,110859,1,8,0:0:0:0:
256,193,110934,1,0,0:0:0:0:
256,193,111009,1,0,0:0:0:0:
256,193,111084,1,8,0:0:0:0:
256,193,111159,1,8,0:0:0:0:
256,193,111234,1,0,0:0:0:0:
256,193,111384,1,0,0:0:0:0:
255,191,111534,1,12,0:0:0:0:
255,191,111684,1,4,0:0:0:0:
259,189,111834,1,4,0:0:0:0:
259,189,111984,1,12,0:0:0:0:
259,189,112134,1,4,0:0:0:0:
259,189,112284,1,4,0:0:0:0:
260,187,112434,1,0,0:0:0:0:
260,188,112509,1,0,0:0:0:0:
260,188,112584,1,8,0:0:0:0:
