osu file format v14

[General]
AudioFilename: audio.mp3
AudioLeadIn: 0
PreviewTime: 73134
Countdown: 0
SampleSet: Soft
StackLeniency: 0.7
Mode: 2
LetterboxInBreaks: 0
WidescreenStoryboard: 1

[Editor]
DistanceSpacing: 1
BeatDivisor: 4
GridSize: 4
TimelineZoom: 2.699999

[Metadata]
Title:Toono Gensou Monogatari (MRM REMIX)
TitleUnicode:遠野幻想物語 (MRM REMIX)
Artist:Morimori Atsushi
ArtistUnicode:モリモリあつし
Creator:[_-Kukkai-_]
Version:Nelly's Ultra
Source:東方妖々夢 ~ Perfect Cherry Blossom.
Tags:Nelly TH7 上海アリス幻樂団 Team Shanghai Alice J-Core hardcore FLOOR落選供養 Rakusen Kuyou 東方幻鍵音 LOTUS GROOVE Genkenon mappers' guild mg featured artist fa zun 東方project chen 橙 video game the fantastic legend of tohno touhou youyoumu instrumental electronic
BeatmapID:3028732
BeatmapSetID:1474955

[Difficulty]
HPDrainRate:6
CircleSize:4.8
OverallDifficulty:9.9
ApproachRate:9.9
SliderMultiplier:2.2
SliderTickRate:2

[Events]
//Background and Video events
0,0,"bg.jpg",0,0
//Break Periods
2,92534,94119
2,94934,95769
//Storyboard Layer 0 (Background)
//Storyboard Layer 1 (Fail)
//Storyboard Layer 2 (Pass)
//Storyboard Layer 3 (Foreground)
//Storyboard Layer 4 (Overlay)
//Storyboard Sound Samples

[TimingPoints]
1134,300,4,2,1,75,1,0
5934,-100,4,2,2,75,0,0
9534,-100,4,2,2,75,0,0
9684,-100,4,2,2,75,0,0
9834,-100,4,2,2,75,0,0
9984,-100,4,2,2,75,0,0
10134,-100,4,2,2,75,0,0
10284,-100,4,2,2,75,0,0
10434,-100,4,2,2,75,0,0
10584,-100,4,2,2,75,0,0
10734,-100,4,2,2,75,0,0
13134,-83.3333333333333,4,2,2,75,0,0
15534,-100,4,2,2,75,0,0
25134,-38.4615384615385,4,2,2,75,0,0
26034,-83.3333333333333,4,2,2,75,0,0
26334,-38.4615384615385,4,2,2,75,0,0
27234,-83.3333333333333,4,2,2,75,0,0
27534,-38.4615384615385,4,2,2,75,0,0
27834,-83.3333333333333,4,2,2,75,0,0
28134,-38.4615384615385,4,2,2,75,0,0
28434,-83.3333333333333,4,2,2,75,0,0
28734,-38.4615384615385,4,2,2,75,0,0
29334,-100,4,2,2,75,0,0
29634,-71.4285714285714,4,2,2,75,0,0
29934,-83.3333333333333,4,2,2,75,0,0
34734,-100,4,2,2,75,0,0
35034,-100,4,2,0,75,0,0
37134,-100,4,2,2,75,0,0
37434,-100,4,2,0,75,0,0
38184,-100,4,2,2,75,0,0
38221,-100,4,2,2,75,0,0
38334,-100,4,2,2,20,0,0
38484,-100,4,2,2,75,0,0
38521,-100,4,2,2,75,0,0
38634,-100,4,2,2,20,0,0
38784,-100,4,2,2,75,0,0
38821,-100,4,2,2,75,0,0
38934,-100,4,2,2,20,0,0
39084,-100,4,2,2,75,0,0
39121,-100,4,2,2,75,0,0
39234,-100,4,2,2,20,0,0
39384,-100,4,2,2,75,0,0
39421,-100,4,2,2,75,0,0
39534,-100,4,2,2,75,0,0
42984,-100,4,2,2,75,0,0
43021,-100,4,2,2,75,0,0
43134,-100,4,2,2,20,0,0
43284,-100,4,2,2,75,0,0
43321,-100,4,2,2,75,0,0
43434,-100,4,2,2,20,0,0
43584,-100,4,2,2,75,0,0
43621,-100,4,2,2,75,0,0
43734,-100,4,2,2,20,0,0
43884,-100,4,2,2,75,0,0
43921,-100,4,2,2,75,0,0
44034,-100,4,2,2,20,0,0
44184,-100,4,2,2,75,0,0
44221,-100,4,2,2,75,0,0
44334,-100,4,2,2,75,0,0
49134,-83.3333333333333,4,2,2,75,0,0
53934,-83.3333333333333,4,2,2,75,0,0
62334,-83.3333333333333,4,2,0,75,0,0
63234,-83.3333333333333,4,2,2,75,0,0
71934,-71.4285714285714,4,2,2,75,0,0
73134,-83.3333333333333,4,2,2,75,0,1
73434,-83.3333333333333,4,2,2,75,0,1
73734,-83.3333333333333,4,2,2,75,0,1
73884,-83.3333333333333,4,2,2,75,0,1
74034,-83.3333333333333,4,2,2,75,0,1
74184,-83.3333333333333,4,2,2,75,0,1
74334,-83.3333333333333,4,2,2,75,0,1
75534,-83.3333333333333,4,2,2,75,0,1
75684,-83.3333333333333,4,2,2,75,0,1
75834,-83.3333333333333,4,2,2,75,0,1
75984,-83.3333333333333,4,2,2,75,0,1
76134,-83.3333333333333,4,2,2,75,0,1
77334,-83.3333333333333,4,2,2,75,0,0
77371,-83.3333333333333,4,2,2,75,0,0
77409,-83.3333333333333,4,2,2,10,0,0
77634,-83.3333333333333,4,2,2,75,0,0
77671,-83.3333333333333,4,2,2,75,0,0
77709,-83.3333333333333,4,2,2,10,0,0
77934,-83.3333333333333,4,2,2,75,0,1
78084,-83.3333333333333,4,2,2,75,0,1
78234,-83.3333333333333,4,2,2,75,0,1
78384,-83.3333333333333,4,2,2,75,0,1
78534,-83.3333333333333,4,2,2,75,0,1
78684,-83.3333333333333,4,2,2,75,0,1
78834,-83.3333333333333,4,2,2,75,0,1
78984,-83.3333333333333,4,2,2,75,0,1
79134,-83.3333333333333,4,2,2,75,0,1
79284,-83.3333333333333,4,2,2,75,0,1
79434,-83.3333333333333,4,2,2,75,0,1
79584,-83.3333333333333,4,2,2,75,0,1
79734,-83.3333333333333,4,2,2,75,0,1
81534,-100,4,2,2,75,0,0
82134,-83.3333333333333,4,2,2,75,0,0
82734,-83.3333333333333,4,2,2,75,0,1
83034,-83.3333333333333,4,2,2,75,0,1
83334,-83.3333333333333,4,2,2,75,0,1
83484,-83.3333333333333,4,2,2,75,0,1
83634,-83.3333333333333,4,2,2,75,0,1
83784,-83.3333333333333,4,2,2,75,0,1
83934,-83.3333333333333,4,2,2,75,0,1
85134,-83.3333333333333,4,2,2,75,0,1
85284,-83.3333333333333,4,2,2,75,0,1
85434,-83.3333333333333,4,2,2,75,0,1
85584,-83.3333333333333,4,2,2,75,0,1
85734,-83.3333333333333,4,2,2,75,0,1
86934,-83.3333333333333,4,2,2,75,0,0
86971,-83.3333333333333,4,2,2,75,0,0
87009,-83.3333333333333,4,2,2,10,0,0
87234,-83.3333333333333,4,2,2,75,0,0
87271,-83.3333333333333,4,2,2,75,0,0
87309,-83.3333333333333,4,2,2,10,0,0
87534,-83.3333333333333,4,2,2,75,0,1
87684,-83.3333333333333,4,2,2,75,0,1
87834,-83.3333333333333,4,2,2,75,0,1
87984,-83.3333333333333,4,2,2,75,0,1
88134,-83.3333333333333,4,2,2,75,0,1
88284,-83.3333333333333,4,2,2,75,0,1
88434,-83.3333333333333,4,2,2,75,0,1
88584,-83.3333333333333,4,2,2,75,0,1
88734,-83.3333333333333,4,2,2,75,0,1
88884,-83.3333333333333,4,2,2,75,0,1
89034,-83.3333333333333,4,2,2,75,0,1
89184,-83.3333333333333,4,2,2,75,0,1
91134,-100,4,2,2,75,0,0
91734,-83.3333333333333,4,2,2,75,0,0
92334,-83.3333333333333,4,2,2,75,0,0
97134,-83.3333333333333,4,2,1,75,0,0
100734,-71.4285714285714,4,2,1,75,0,0
100884,-71.4285714285714,4,2,1,10,0,0
101034,-71.4285714285714,4,2,1,75,0,0
101184,-71.4285714285714,4,2,1,10,0,0
101334,-83.3333333333333,4,2,1,75,0,0
101634,-100,4,2,1,75,0,0
101934,-83.3333333333333,4,2,2,75,0,1
111534,-83.3333333333333,4,2,2,75,0,0
112734,-83.3333333333333,4,2,2,73,0,0
113034,-83.3333333333333,4,2,2,72,0,0
113334,-83.3333333333333,4,2,2,71,0,0
113634,-83.3333333333333,4,2,2,70,0,0
113934,-83.3333333333333,4,2,2,65,0,0
114234,-83.3333333333333,4,2,2,60,0,0
114534,-83.3333333333333,4,2,2,55,0,0
114834,-83.3333333333333,4,2,2,50,0,0
115134,-83.3333333333333,4,2,2,45,0,0
115434,-83.3333333333333,4,2,2,40,0,0
115734,-83.3333333333333,4,2,2,35,0,0
116034,-83.3333333333333,4,2,2,30,0,0
116334,-83.3333333333333,4,2,2,25,0,0
116634,-83.3333333333333,4,2,2,20,0,0
116934,-83.3333333333333,4,2,2,15,0,0
117234,-83.3333333333333,4,2,2,10,0,0
117534,-83.3333333333333,4,2,2,5,0,0

[Colours]
Combo1 : 255,192,2
Combo2 : 95,188,134
Combo3 : 198,87,96

[HitObjects]
132,328,1134,5,4,1:2:0:0:
353,260,1284,1,0,0:2:0:0:
265,253,1434,1,0,0:2:0:0:
353,260,1584,1,0,0:2:0:0:
199,167,1734,1,8,0:2:0:0:
287,156,1884,1,0,0:2:0:0:
199,167,2034,1,0,0:2:0:0:
353,101,2184,1,0,0:2:0:0:
132,85,2334,5,0,1:2:0:0:
220,213,2484,2,0,L|223:102,1,110,0|0,0:0|0:2,0:0:0:0:
377,70,2784,1,0,0:2:0:0:
113,336,2934,2,0,L|109:114,1,220,8|0,0:2|0:2,0:0:0:0:
263,51,3384,1,0,1:2:0:0:
186,45,3459,1,0,0:2:0:0:
340,334,3534,5,4,1:2:0:0:
456,281,3684,1,0,0:2:0:0:
487,158,3834,1,0,0:2:0:0:
412,56,3984,1,0,0:2:0:0:
258,40,4134,1,8,0:2:0:0:
346,122,4284,1,0,0:2:0:0:
258,118,4434,1,0,0:2:0:0:
104,111,4584,1,0,0:2:0:0:
324,260,4734,6,0,L|435:254,1,110,0|0,1:0|0:0,0:0:0:0:
192,182,5034,2,0,L|254:179,1,55,0|0,1:0|1:2,0:0:0:0:
377,173,5184,2,0,L|432:169,1,55,0|0,1:2|1:0,0:0:0:0:
209,300,5334,6,0,L|179:298,1,27.5,8|0,0:2|0:0,0:0:0:0:
298,300,5484,2,0,L|328:298,1,27.5,8|0,0:2|0:0,0:0:0:0:
63,224,5634,5,8,0:2:0:0:
194,218,5709,5,8,0:2:0:0:
325,212,5784,5,8,0:2:0:0:
456,207,5859,5,8,0:2:0:0:
195,333,5934,6,0,L|84:329,1,110,4|0,1:2|0:2,0:0:0:0:
152,264,6159,2,0,L|155:208,1,55,0|8,0:2|1:2,0:0:0:0:
89,194,6309,1,0,0:2:0:0:
265,157,6384,1,0,0:2:0:0:
45,82,6534,1,0,1:2:0:0:
264,66,6684,1,0,0:2:0:0:
45,82,6834,2,0,L|41:193,1,110,8|0,1:2|0:2,0:0:0:0:
283,279,7134,5,0,1:2:0:0:
151,272,7284,1,0,0:2:0:0:
283,279,7434,1,8,1:2:0:0:
492,265,7584,1,0,0:2:0:0:
273,192,7734,6,0,L|217:189,1,55,2|0,1:2|0:2,0:0:0:0:
372,115,7884,2,0,L|316:112,1,55,0|0,0:2|0:2,0:0:0:0:
183,42,8034,1,10,1:2:0:0:
314,36,8109,1,0,0:2:0:0:
445,31,8184,1,0,0:2:0:0:
137,299,8334,5,4,1:2:0:0:
269,289,8484,1,0,1:2:0:0:
137,299,8634,1,8,1:2:0:0:
291,204,8784,1,0,1:2:0:0:
214,198,8859,1,0,1:2:0:0:
412,129,8934,5,0,1:2:0:0:
280,119,9084,1,0,1:2:0:0:
412,129,9234,1,8,1:2:0:0:
258,34,9384,1,0,1:2:0:0:
335,28,9459,1,0,1:2:0:0:
137,103,9534,5,2,1:2:0:0:
357,256,9684,1,8,1:2:0:0:
305,253,9734,1,0,1:2:0:0:
253,250,9784,1,0,1:2:0:0:
121,243,9834,5,2,1:2:0:0:
407,173,9984,1,8,1:2:0:0:
355,170,10034,1,0,1:2:0:0:
303,167,10084,1,0,1:2:0:0:
171,160,10134,5,2,1:2:0:0:
314,126,10209,1,0,0:0:0:0:
457,90,10284,1,8,1:2:0:0:
422,87,10321,1,0,1:2:0:0:
386,86,10359,1,0,1:2:0:0:
350,85,10396,1,0,1:2:0:0:
221,80,10434,5,2,1:2:0:0:
111,266,10584,1,8,1:2:0:0:
146,263,10621,1,0,1:2:0:0:
182,262,10659,1,0,1:2:0:0:
218,261,10696,1,0,1:2:0:0:
391,185,10734,6,0,L|170:180,1,220,4|0,1:2|0:2,0:0:0:0:
302,345,11184,2,0,P|373:275|302:206,1,220,0|0,0:2|0:2,0:0:0:0:
170,116,11634,2,0,L|232:113,1,55,8|0,1:2|1:2,0:0:0:0:
355,107,11784,2,0,L|410:103,1,55,0|0,1:2|1:2,0:0:0:0:
176,340,11934,6,0,P|105:270|176:201,1,220,6|0,1:2|0:2,0:0:0:0:
396,112,12384,2,0,L|175:107,1,220,2|0,1:2|0:2,0:0:0:0:
418,313,12834,2,0,P|470:261|418:209,1,165,10|0,1:2|0:0,0:0:0:0:
244,146,13134,6,0,L|380:142,1,131.99999597168,6|0,1:2|0:2,0:0:0:0:
189,224,13359,2,0,L|325:220,1,131.99999597168,2|0,1:2|0:2,0:0:0:0:
134,302,13584,2,0,L|66:300,1,65.9999979858399,2|0,1:2|0:2,0:0:0:0:
240,65,13734,6,0,L|376:61,1,131.99999597168,2|0,1:2|0:2,0:0:0:0:
185,143,13959,2,0,L|49:139,1,131.99999597168,2|0,1:2|0:2,0:0:0:0:
238,221,14184,2,0,L|306:219,1,65.9999979858399,2|0,1:2|0:2,0:0:0:0:
491,314,14334,6,0,L|293:308,1,197.99999395752,2|0,1:2|0:2,0:0:0:0:
148,200,14634,2,0,L|345:194,1,197.99999395752,2|0,1:2|0:2,0:0:0:0:
135,338,14934,2,0,P|90:324|135:221,1,197.99999395752,2|0,1:2|0:2,0:0:0:0:
373,152,15234,5,0,1:2:0:0:
404,153,15284,1,0,1:2:0:0:
373,152,15334,1,0,1:2:0:0:
320,149,15384,1,0,1:2:0:0:
161,141,15459,1,0,1:2:0:0:
410,323,15534,6,0,P|444:313|410:223,1,165,4|0,1:2|0:0,0:0:0:0:
322,169,15834,1,8,1:2:0:0:
382,165,15909,1,0,0:2:0:0:
322,169,15984,1,0,0:2:0:0:
382,165,16059,1,0,0:2:0:0:
216,268,16134,1,0,1:2:0:0:
326,260,16284,1,0,0:2:0:0:
117,189,16434,2,0,L|6:185,1,110,8|0,1:2|0:2,0:0:0:0:
295,81,16734,5,0,1:2:0:0:
163,88,16884,1,0,0:2:0:0:
405,143,17034,1,8,1:2:0:0:
163,213,17184,1,0,0:2:0:0:
228,209,17259,1,0,0:0:0:0:
370,200,17334,1,0,1:2:0:0:
139,292,17484,1,0,0:2:0:0:
204,288,17559,1,0,0:0:0:0:
346,279,17634,1,8,1:2:0:0:
115,145,17784,1,0,0:2:0:0:
180,141,17859,1,0,0:0:0:0:
345,63,17934,5,0,1:2:0:0:
214,55,18084,1,0,0:2:0:0:
478,186,18234,2,0,L|367:182,1,110,8|0,1:2|0:2,0:0:0:0:
82,360,18534,2,0,L|78:249,1,110,0|0,1:2|0:2,0:0:0:0:
430,360,18834,2,0,L|434:249,1,110,8|0,1:2|0:2,0:0:0:0:
219,176,19134,6,0,L|217:120,1,55,0|0,1:2|0:2,0:0:0:0:
293,176,19284,2,0,L|295:120,1,55,0|0,0:2|0:2,0:0:0:0:
119,275,19434,2,0,L|174:271,1,55,8|0,1:2|0:2,0:0:0:0:
352,261,19584,2,0,L|407:257,1,55,0|0,0:2|0:2,0:0:0:0:
256,353,19734,6,0,L|201:349,1,55,2|0,1:2|0:0,0:0:0:0:
256,353,19884,2,0,L|311:349,1,55,0|0,0:0|0:2,0:0:0:0:
141,244,20034,2,0,L|311:238,1,165,2|0,1:2|0:2,0:0:0:0:
102,323,20334,6,0,P|68:313|102:223,1,165,4|0,1:2|0:0,0:0:0:0:
190,169,20634,1,8,1:2:0:0:
130,165,20709,1,0,0:2:0:0:
190,169,20784,1,0,0:2:0:0:
130,165,20859,1,0,0:2:0:0:
296,268,20934,1,0,1:2:0:0:
186,260,21084,1,0,0:2:0:0:
395,189,21234,2,0,L|506:185,1,110,8|0,1:2|0:2,0:0:0:0:
217,81,21534,5,0,1:2:0:0:
349,88,21684,1,0,0:2:0:0:
107,143,21834,1,8,1:2:0:0:
349,213,21984,1,0,0:2:0:0:
284,209,22059,1,0,0:0:0:0:
142,200,22134,1,0,1:2:0:0:
373,292,22284,1,0,0:2:0:0:
308,288,22359,1,0,0:0:0:0:
166,279,22434,1,8,1:2:0:0:
397,145,22584,1,0,0:2:0:0:
332,141,22659,1,0,0:0:0:0:
167,63,22734,5,0,1:2:0:0:
298,55,22884,1,0,0:2:0:0:
34,186,23034,2,0,L|145:182,1,110,8|0,1:2|0:2,0:0:0:0:
430,360,23334,2,0,L|434:249,1,110,0|0,1:2|0:2,0:0:0:0:
82,360,23634,2,0,L|78:249,1,110,8|0,1:2|0:2,0:0:0:0:
430,127,23934,5,0,1:2:0:0:
186,152,24084,1,0,0:2:0:0:
319,146,24234,1,8,1:2:0:0:
82,127,24384,1,0,0:2:0:0:
430,127,24534,5,2,1:2:0:0:
265,278,24759,1,8,0:3:0:0:
342,273,24834,1,8,0:3:0:0:
188,211,24984,1,8,0:3:0:0:
496,55,25134,6,0,B|210:55|210:55|210:197,1,428.999980361939,4|0,1:2|0:2,0:0:0:0:
496,132,25434,6,0,B|210:132|210:132|210:274,1,428.999980361939,2|0,1:2|0:2,0:0:0:0:
496,209,25734,6,0,B|210:209|210:209|210:351,1,428.999980361939,2|0,1:2|0:2,0:0:0:0:
210,352,26034,6,0,L|341:352,1,131.99999597168,8|0,1:2|0:0,0:0:0:0:
16,55,26334,6,0,B|302:55|302:55|302:197,1,428.999980361939,2|0,1:2|0:2,0:0:0:0:
16,132,26634,6,0,B|302:132|302:132|302:274,1,428.999980361939,2|0,1:2|0:2,0:0:0:0:
16,209,26934,6,0,B|302:209|302:209|302:351,1,428.999980361939,2|0,1:2|0:2,0:0:0:0:
302,352,27234,6,0,L|171:352,1,131.99999597168,8|0,1:2|0:0,0:0:0:0:
496,209,27534,6,0,B|210:209|210:209|210:351,1,428.999980361939,2|0,1:2|0:2,0:0:0:0:
210,352,27834,6,0,L|341:352,1,131.99999597168,8|0,1:2|0:0,0:0:0:0:
16,209,28134,6,0,B|302:209|302:209|302:351,1,428.999980361939,2|0,1:2|0:2,0:0:0:0:
302,352,28434,6,0,L|171:352,1,131.99999597168,8|0,1:2|0:0,0:0:0:0:
496,209,28734,6,0,B|210:209|210:209|210:351,1,428.999980361939,2|0,1:2|0:2,0:0:0:0:
399,350,29034,6,0,L|114:350,1,285.99998690796,8|0,1:2|0:0,0:0:0:0:
399,350,29334,6,0,L|401:241,1,110,2|0,1:2|0:0,0:0:0:0:
107,248,29634,2,0,P|31:180|108:113,1,230.99999295044,2|0,1:2|0:2,0:0:0:0:
280,110,29934,6,0,L|270:180,1,65.9999979858399,4|0,1:2|0:2,0:0:0:0:
204,199,30084,2,0,L|137:201,1,65.9999979858399,8|0,1:2|0:2,0:0:0:0:
297,284,30234,2,0,L|364:286,1,65.9999979858399,8|0,1:2|0:2,0:0:0:0:
297,284,30384,2,0,L|230:286,1,65.9999979858399,8|0,1:2|0:2,0:0:0:0:
390,354,30534,6,0,L|455:352,1,65.9999979858399,0|0,1:2|0:2,0:0:0:0:
297,284,30684,2,0,L|294:217,1,65.9999979858399,8|0,1:2|0:2,0:0:0:0:
374,224,30834,2,0,L|371:157,1,65.9999979858399,0|0,1:2|0:2,0:0:0:0:
210,106,30984,2,0,L|145:104,1,65.9999979858399,8|0,1:2|0:2,0:0:0:0:
369,48,31134,6,0,L|434:46,1,65.9999979858399,4|0,1:2|0:2,0:0:0:0:
276,222,31284,2,0,L|287:152,1,65.9999979858399,8|0,1:2|0:2,0:0:0:0:
353,132,31434,2,0,L|420:131,1,65.9999979858399,2|0,1:2|0:2,0:0:0:0:
165,338,31584,2,0,L|154:268,1,65.9999979858399,8|0,1:2|0:2,0:0:0:0:
313,203,31734,6,0,L|380:202,1,65.9999979858399,2|0,1:2|0:2,0:0:0:0:
98,204,31884,2,0,L|109:134,1,65.9999979858399,8|0,1:2|0:2,0:0:0:0:
294,75,32034,2,0,L|361:74,1,65.9999979858399,2|0,1:2|0:2,0:0:0:0:
106,40,32184,2,0,L|39:39,1,65.9999979858399,8|0,1:2|0:2,0:0:0:0:
256,290,32334,6,0,L|323:289,1,65.9999979858399,2|0,1:2|1:2,0:0:0:0:
256,290,32484,2,0,L|189:289,1,65.9999979858399,8|0,1:2|1:2,0:0:0:0:
404,230,32634,2,0,L|415:160,1,65.9999979858399,2|0,1:2|1:2,0:0:0:0:
203,65,32784,2,0,L|270:64,1,65.9999979858399,8|0,1:2|1:2,0:0:0:0:
483,79,32934,5,2,1:2:0:0:
219,181,33084,2,0,L|208:214,2,32.99999899292,8|0|0,1:2|1:2|1:2,0:0:0:0:
252,167,33196,1,0,0:0:0:0:
406,154,33234,5,2,1:2:0:0:
142,295,33384,2,0,L|131:328,2,32.99999899292,8|0|0,1:2|1:2|1:2,0:0:0:0:
175,281,33496,1,0,0:0:0:0:
329,268,33534,6,0,L|394:264,1,65.9999979858399,2|0,1:2|0:2,0:0:0:0:
183,268,33684,2,0,L|118:264,1,65.9999979858399,2|0,1:2|0:2,0:0:0:0:
394,186,33834,6,0,L|459:182,1,65.9999979858399,2|0,1:2|0:2,0:0:0:0:
118,186,33984,2,0,L|53:182,1,65.9999979858399,2|0,1:2|0:2,0:0:0:0:
288,113,34134,5,2,1:2:0:0:
222,112,34209,5,0,0:2:0:0:
288,113,34284,5,0,0:2:0:0:
222,112,34359,5,0,0:2:0:0:
450,260,34434,5,2,1:2:0:0:
90,242,34734,5,4,1:2:0:0:
310,123,35184,5,2,0:2:0:0:
156,116,35334,1,2,0:2:0:0:
387,266,35784,5,2,0:2:0:0:
233,259,35934,1,2,0:2:0:0:
452,191,36234,5,2,0:2:0:0:
454,139,36309,1,0,0:2:0:0:
223,64,36534,1,2,0:2:0:0:
503,49,36834,1,2,0:2:0:0:
91,284,37134,6,0,L|424:275,1,330,4|2,1:2|0:2,0:0:0:0:
174,212,37734,1,2,1:2:0:0:
169,146,37809,1,0,1:2:0:0:
354,83,37884,1,2,1:2:0:0:
288,78,37959,1,0,1:2:0:0:
222,73,38034,1,2,1:2:0:0:
288,68,38109,1,0,1:2:0:0:
470,192,38184,6,0,L|475:157,1,27.5,2|0,1:2|0:0,0:0:0:0:
42,192,38484,6,0,L|37:157,1,27.5,2|0,1:2|0:0,0:0:0:0:
470,192,38784,6,0,L|475:157,1,27.5,2|0,1:2|0:0,0:0:0:0:
42,192,39084,6,0,L|37:157,1,27.5,2|0,1:2|0:0,0:0:0:0:
470,192,39384,6,0,L|475:157,1,27.5,2|0,1:2|0:0,0:0:0:0:
219,312,39534,6,0,L|215:203,1,110,4|0,1:2|0:2,0:0:0:0:
370,156,39834,1,8,1:2:0:0:
83,126,39984,1,0,0:2:0:0:
293,312,40134,6,0,L|297:203,1,110,0|0,1:2|0:2,0:0:0:0:
142,156,40434,1,8,1:2:0:0:
429,126,40584,1,0,0:2:0:0:
143,282,40734,6,0,L|34:278,1,110,0|0,1:2|0:2,0:0:0:0:
299,177,41034,1,8,1:2:0:0:
145,184,41109,2,0,L|36:180,1,110,0|0,0:2|0:0,0:0:0:0:
367,184,41334,2,0,L|476:180,1,110,0|0,1:2|0:2,0:0:0:0:
145,184,41634,2,0,L|36:180,1,110,8|0,1:2|0:2,0:0:0:0:
389,345,41934,6,0,L|391:234,1,110,4|0,1:2|0:0,0:0:0:0:
179,152,42234,1,8,1:2:0:0:
332,143,42384,1,0,0:2:0:0:
68,88,42534,5,0,1:2:0:0:
333,235,42684,1,0,0:2:0:0:
180,226,42834,1,8,1:2:0:0:
444,354,42984,6,0,L|449:319,1,27.5,2|0,1:2|0:0,0:0:0:0:
68,354,43284,6,0,L|63:319,1,27.5,2|0,1:2|0:0,0:0:0:0:
444,354,43584,6,0,L|449:319,1,27.5,2|0,1:2|0:0,0:0:0:0:
68,354,43884,6,0,L|63:319,1,27.5,2|0,1:2|0:0,0:0:0:0:
444,354,44184,6,0,L|449:319,1,27.5,2|0,1:2|0:0,0:0:0:0:
219,312,44334,6,0,L|215:203,1,110,4|0,1:2|0:2,0:0:0:0:
370,156,44634,1,8,1:2:0:0:
83,126,44784,1,0,0:2:0:0:
293,312,44934,6,0,L|297:203,1,110,0|0,1:2|0:2,0:0:0:0:
142,156,45234,1,8,1:2:0:0:
429,126,45384,1,0,0:2:0:0:
143,282,45534,6,0,L|34:278,1,110,0|0,1:2|0:2,0:0:0:0:
299,177,45834,1,8,1:2:0:0:
172,194,45909,2,0,L|63:190,1,110,0|0,0:2|0:0,0:0:0:0:
340,194,46134,2,0,L|449:190,1,110,0|0,1:2|0:0,0:0:0:0:
172,194,46434,2,0,L|63:190,1,110,8|0,1:2|0:0,0:0:0:0:
389,345,46734,6,0,L|391:234,1,110,4|0,1:2|0:0,0:0:0:0:
179,152,47034,1,8,1:2:0:0:
332,143,47184,1,0,0:2:0:0:
68,88,47334,5,0,1:2:0:0:
333,235,47484,1,0,0:2:0:0:
180,226,47634,1,8,1:2:0:0:
333,235,47784,1,0,0:2:0:0:
68,88,47934,5,2,1:2:0:0:
222,356,48084,2,0,L|226:296,1,55,0|0,0:2|0:2,0:0:0:0:
147,275,48234,1,10,1:2:0:0:
301,248,48384,2,0,L|297:188,1,55,0|0,0:2|0:2,0:0:0:0:
219,172,48534,1,2,1:2:0:0:
373,135,48684,2,0,L|327:104,1,55,0|0,0:2|0:2,0:0:0:0:
249,93,48834,1,10,1:2:0:0:
403,44,48984,2,0,L|460:40,1,55,0|0,0:2|0:2,0:0:0:0:
249,311,49134,6,0,L|240:245,1,65.9999979858399,4|0,1:2|0:2,0:0:0:0:
306,220,49284,2,0,L|345:166,1,65.9999979858399,8|0,1:2|0:2,0:0:0:0:
411,145,49434,2,0,L|478:142,1,65.9999979858399,2|0,1:2|0:2,0:0:0:0:
226,77,49584,2,0,L|159:74,1,65.9999979858399,8|0,1:2|0:2,0:0:0:0:
375,274,49734,6,0,L|308:271,1,65.9999979858399,0|0,1:2|0:2,0:0:0:0:
101,277,49884,2,0,L|162:251,1,65.9999979858399,8|0,1:2|0:2,0:0:0:0:
228,218,50034,2,0,L|237:152,1,65.9999979858399,2|0,1:2|0:2,0:0:0:0:
26,92,50184,2,0,L|93:89,1,65.9999979858399,8|0,1:2|0:2,0:0:0:0:
280,76,50334,6,0,L|347:73,1,65.9999979858399,4|0,1:2|0:2,0:0:0:0:
280,76,50484,2,0,L|213:73,1,65.9999979858399,8|0,1:2|0:2,0:0:0:0:
382,181,50634,1,2,1:2:0:0:
217,265,50709,2,0,L|224:197,1,65.9999979858399,0|8,0:2|1:2,0:0:0:0:
304,173,50859,1,0,0:2:0:0:
83,55,50934,6,0,L|150:58,1,65.9999979858399,2|0,1:2|0:2,0:0:0:0:
216,63,51084,2,0,L|225:129,1,65.9999979858399,8|0,1:2|0:2,0:0:0:0:
14,242,51234,2,0,L|80:239,1,65.9999979858399,2|0,1:2|0:2,0:0:0:0:
239,229,51384,2,0,L|305:226,1,65.9999979858399,8|0,1:2|0:2,0:0:0:0:
118,355,51534,6,0,L|115:288,1,65.9999979858399,6|0,1:2|1:2,0:0:0:0:
302,204,51684,2,0,L|368:201,1,65.9999979858399,8|0,1:2|1:2,0:0:0:0:
302,204,51834,2,0,L|236:201,1,65.9999979858399,2|0,1:2|1:2,0:0:0:0:
424,119,51984,2,0,L|490:116,1,65.9999979858399,8|0,1:2|1:2,0:0:0:0:
213,43,52134,5,2,1:2:0:0:
344,134,52284,1,8,1:2:0:0:
309,131,52321,1,0,1:2:0:0:
273,130,52359,1,0,1:2:0:0:
237,129,52396,1,0,0:0:0:0:
73,127,52434,5,2,1:2:0:0:
372,229,52584,1,8,1:2:0:0:
337,226,52621,1,0,1:2:0:0:
301,225,52659,1,0,1:2:0:0:
265,224,52696,1,0,0:0:0:0:
33,316,52734,6,0,L|165:312,1,131.99999597168,2|0,1:2|0:2,0:0:0:0:
322,227,52959,2,0,L|190:223,1,131.99999597168,2|0,1:2|0:2,0:0:0:0:
347,312,53184,6,0,L|479:316,1,131.99999597168,2|0,1:2|0:2,0:0:0:0:
190,227,53409,2,0,L|322:223,1,131.99999597168,2|0,1:2|0:2,0:0:0:0:
71,133,53634,5,2,1:2:0:0:
137,127,53709,1,0,0:2:0:0:
375,116,53784,5,2,1:2:0:0:
441,110,53859,1,0,0:2:0:0:
173,302,53934,6,0,P|115:249|172:195,1,175.999994628906,0|0,1:2|0:2,0:0:0:0:
377,126,54234,1,2,0:2:0:0:
289,123,54334,1,0,0:2:0:0:
377,126,54434,1,0,0:2:0:0:
172,257,54534,5,8,1:2:0:0:
260,252,54634,1,0,0:2:0:0:
262,149,54734,1,0,0:2:0:0:
51,96,54834,1,2,0:2:0:0:
139,93,54934,1,0,0:2:0:0:
51,96,55034,1,0,0:2:0:0:
256,252,55134,6,0,L|79:248,1,175.999994628906,0|0,1:2|0:2,0:0:0:0:
258,170,55434,1,2,0:2:0:0:
170,167,55534,1,0,0:2:0:0:
258,170,55634,1,0,0:2:0:0:
51,96,55734,5,8,1:2:0:0:
139,93,55834,1,0,0:2:0:0:
51,96,55934,1,0,0:2:0:0:
261,275,56034,1,2,0:2:0:0:
173,270,56134,1,0,0:2:0:0:
171,167,56234,1,0,0:2:0:0:
382,199,56334,6,0,P|441:146|384:92,1,175.999994628906,0|0,1:2|0:2,0:0:0:0:
178,64,56634,1,2,0:2:0:0:
266,69,56734,1,0,0:2:0:0:
268,171,56834,1,0,0:2:0:0:
57,241,56934,5,8,1:2:0:0:
145,238,57034,1,0,0:2:0:0:
57,241,57134,1,0,0:2:0:0:
264,345,57234,1,2,0:2:0:0:
176,340,57334,1,0,0:2:0:0:
173,238,57434,1,0,0:2:0:0:
384,228,57534,6,0,P|443:175|386:121,1,175.999994628906,0|0,1:2|0:2,0:0:0:0:
137,29,57834,2,0,L|314:25,1,175.999994628906,2|0,0:2|0:2,0:0:0:0:
137,131,58134,5,10,1:2:0:0:
225,128,58234,1,0,0:0:0:0:
137,131,58334,1,0,0:2:0:0:
383,223,58434,1,2,0:2:0:0:
96,235,58634,1,0,0:2:0:0:
342,328,58734,6,0,L|164:324,1,175.999994628906,4|0,1:2|0:2,0:0:0:0:
343,255,59034,1,2,0:2:0:0:
255,250,59134,1,0,0:2:0:0:
252,148,59234,1,0,0:2:0:0:
463,113,59334,5,8,1:2:0:0:
375,110,59434,1,0,0:2:0:0:
463,113,59534,1,0,0:2:0:0:
258,34,59634,1,2,0:2:0:0:
346,31,59734,1,0,0:2:0:0:
258,34,59834,1,0,0:2:0:0:
464,282,59934,6,0,P|488:240|416:152,1,175.999994628906,0|0,1:2|0:2,0:0:0:0:
204,123,60234,1,2,0:2:0:0:
292,120,60334,1,0,0:2:0:0:
204,123,60434,1,0,0:2:0:0:
409,210,60534,5,8,1:2:0:0:
321,207,60634,1,0,0:2:0:0:
409,210,60734,1,0,0:2:0:0:
204,338,60834,1,2,0:2:0:0:
292,333,60934,1,0,0:2:0:0:
295,231,61034,1,0,0:2:0:0:
84,224,61134,6,0,P|61:182|133:93,1,175.999994628906,0|0,1:2|0:2,0:0:0:0:
343,240,61434,1,2,0:2:0:0:
255,235,61534,1,0,0:2:0:0:
252,133,61634,1,0,0:2:0:0:
463,70,61734,5,8,1:2:0:0:
375,67,61834,1,0,0:2:0:0:
463,70,61934,1,0,0:2:0:0:
258,133,62034,1,2,0:2:0:0:
346,130,62134,1,0,0:2:0:0:
258,133,62234,1,0,0:2:0:0:
464,241,62334,5,2,0:2:0:0:
299,310,62534,1,2,0:2:0:0:
387,302,62634,1,2,0:2:0:0:
211,240,62834,1,2,0:2:0:0:
416,192,62934,1,2,0:2:0:0:
328,183,63034,1,2,0:2:0:0:
416,192,63134,1,2,0:2:0:0:
169,100,63234,6,0,L|346:94,1,175.999994628906,2|0,1:2|0:2,0:0:0:0:
98,300,63534,6,0,P|39:247|96:193,1,175.999994628906,4|0,1:2|0:2,0:0:0:0:
306,219,63834,1,10,1:2:0:0:
309,134,63934,1,0,0:2:0:0:
221,117,64034,1,0,0:2:0:0:
397,249,64134,5,0,0:2:0:0:
400,164,64234,1,0,0:2:0:0:
221,117,64334,1,0,1:2:0:0:
467,67,64434,1,10,1:2:0:0:
379,75,64534,1,0,0:2:0:0:
467,67,64634,1,0,0:2:0:0:
221,196,64734,6,0,L|398:190,1,175.999994628906,0|0,1:2|0:2,0:0:0:0:
186,306,65034,1,10,1:2:0:0:
397,318,65134,1,0,0:2:0:0:
309,312,65234,1,0,0:2:0:0:
397,318,65334,1,0,0:2:0:0:
309,312,65434,1,0,0:2:0:0:
485,259,65534,1,0,1:2:0:0:
239,187,65634,6,0,L|416:181,1,175.999994628906,10|0,1:2|0:2,0:0:0:0:
168,355,65934,6,0,P|109:302|166:248,1,175.999994628906,4|0,1:2|0:2,0:0:0:0:
376,157,66234,1,10,1:2:0:0:
288,151,66334,1,0,0:2:0:0:
112,167,66434,5,0,0:2:0:0:
200,156,66534,1,0,0:2:0:0:
112,167,66634,1,0,0:2:0:0:
288,237,66734,1,0,1:2:0:0:
112,254,66834,1,10,1:2:0:0:
200,248,66934,1,0,0:2:0:0:
112,254,67034,1,0,0:2:0:0:
343,145,67134,6,0,L|166:139,1,175.999994628906,2|0,1:2|0:2,0:0:0:0:
449,345,67434,6,0,P|472:303|399:219,1,175.999994628906,2|0,1:2|0:2,0:0:0:0:
80,176,67734,5,10,0:2:0:0:
256,172,67834,1,0,0:2:0:0:
432,168,67934,1,0,1:2:0:0:
63,345,68034,6,0,P|40:303|113:219,1,175.999994628906,10|0,1:2|0:2,0:0:0:0:
343,145,68334,6,0,L|166:139,1,175.999994628906,4|0,1:2|0:2,0:0:0:0:
414,344,68634,2,0,P|473:291|416:237,1,175.999994628906,10|0,1:2|1:2,0:0:0:0:
169,145,68934,6,0,L|346:139,1,175.999994628906,8|0,1:2|1:2,0:0:0:0:
98,344,69234,1,10,1:2:0:0:
186,336,69334,1,0,1:2:0:0:
98,344,69434,1,0,1:2:0:0:
414,344,69534,6,0,P|473:291|416:237,1,175.999994628906,4|0,1:2|0:2,0:0:0:0:
98,344,69834,2,0,P|39:291|96:237,1,175.999994628906,10|0,1:2|1:2,0:0:0:0:
341,238,70134,5,8,1:2:0:0:
344,153,70234,1,0,0:2:0:0:
168,121,70334,1,0,1:2:0:0:
414,70,70434,1,10,1:2:0:0:
327,75,70534,1,0,1:2:0:0:
414,70,70634,1,0,1:2:0:0:
98,70,70734,5,4,1:2:0:0:
274,160,70834,1,0,1:2:0:0:
187,156,70934,1,0,1:2:0:0:
363,253,71034,1,10,1:2:0:0:
276,257,71134,1,0,1:2:0:0:
363,253,71234,1,0,1:2:0:0:
168,191,71334,5,8,1:2:0:0:
256,189,71434,1,0,1:2:0:0:
344,188,71534,1,0,1:2:0:0:
80,102,71634,1,10,1:2:0:0:
256,98,71734,1,0,1:2:0:0:
432,94,71834,1,0,1:2:0:0:
98,344,71934,6,0,P|22:274|96:204,1,230.99999295044,2|0,1:2|0:0,0:0:0:0:
414,344,72234,2,0,P|491:274|417:204,1,230.99999295044,2|0,1:2|0:0,0:0:0:0:
98,344,72534,2,0,P|22:274|96:204,1,230.99999295044,2|0,1:2|0:0,0:0:0:0:
418,219,72834,2,0,L|422:177,1,38.4999988250733,8|0,0:2|0:0,0:0:0:0:
40,114,73134,5,4,1:2:0:0:
279,271,73284,2,0,L|282:139,1,131.99999597168,0|8,0:0|1:2,0:0:0:0:
150,94,73584,2,0,L|83:89,1,65.9999979858399,0|0,0:2|0:2,0:0:0:0:
322,47,73734,1,0,1:2:0:0:
190,177,73884,1,0,0:2:0:0:
256,175,73959,1,0,0:2:0:0:
322,173,74034,1,8,1:2:0:0:
190,287,74184,2,0,L|257:282,1,65.9999979858399,0|0,0:2|0:2,0:0:0:0:
466,246,74334,5,0,1:2:0:0:
256,230,74484,1,0,0:2:0:0:
46,215,74634,1,8,1:2:0:0:
283,128,74784,2,0,L|216:123,1,65.9999979858399,0|0,0:2|0:2,0:0:0:0:
415,56,74934,1,0,1:2:0:0:
214,198,75084,1,0,0:2:0:0:
345,205,75234,1,8,1:2:0:0:
214,198,75384,1,0,0:2:0:0:
478,318,75534,5,0,1:2:0:0:
241,293,75684,1,0,0:2:0:0:
240,227,75759,1,0,0:2:0:0:
239,161,75834,1,8,1:2:0:0:
106,134,75984,1,0,0:2:0:0:
421,76,76134,1,0,1:2:0:0:
192,53,76284,1,0,0:2:0:0:
324,50,76434,1,8,1:2:0:0:
91,76,76584,1,0,0:2:0:0:
421,147,76734,5,0,1:2:0:0:
91,147,76884,1,0,1:2:0:0:
320,211,77034,1,8,1:2:0:0:
188,208,77184,1,0,1:2:0:0:
456,329,77334,6,0,L|465:296,1,32.99999899292,2|0,1:2|0:0,0:0:0:0:
56,329,77634,6,0,L|47:296,1,32.99999899292,2|0,1:2|0:0,0:0:0:0:
453,205,77934,5,4,1:2:0:0:
189,249,78084,1,0,0:2:0:0:
190,183,78159,1,0,0:2:0:0:
191,117,78234,1,0,1:2:0:0:
324,90,78384,1,0,0:2:0:0:
34,53,78534,1,0,1:2:0:0:
325,209,78684,1,0,0:2:0:0:
260,207,78759,1,0,0:2:0:0:
194,205,78834,1,8,1:2:0:0:
326,308,78984,2,0,L|393:303,1,65.9999979858399,0|0,0:2|1:2,0:0:0:0:
154,273,79134,5,2,1:2:0:0:
419,199,79284,1,0,0:2:0:0:
354,196,79359,1,0,0:2:0:0:
288,194,79434,1,8,1:2:0:0:
23,179,79584,1,0,0:2:0:0:
313,90,79734,1,2,1:2:0:0:
181,75,79884,1,0,0:2:0:0:
471,196,80034,1,8,1:2:0:0:
181,251,80184,2,0,L|247:248,1,65.9999979858399,0|0,1:2|1:2,0:0:0:0:
33,306,80334,6,0,L|29:240,1,65.9999979858399,6|0,1:2|1:2,0:0:0:0:
214,170,80484,2,0,L|280:167,1,65.9999979858399,0|0,1:2|1:2,0:0:0:0:
213,95,80634,2,0,L|147:92,1,65.9999979858399,10|0,1:2|1:2,0:0:0:0:
308,13,80784,2,0,L|311:79,1,65.9999979858399,0|0,1:2|1:2,0:0:0:0:
109,88,80934,5,2,1:2:0:0:
347,191,81084,2,0,L|358:224,2,32.99999899292,8|0|0,1:2|1:2|1:2,0:0:0:0:
314,177,81196,1,0,0:0:0:0:
160,163,81234,5,2,1:2:0:0:
424,305,81384,2,0,L|435:338,2,32.99999899292,8|0|0,1:2|1:2|1:2,0:0:0:0:
391,291,81496,1,0,0:0:0:0:
237,282,81534,6,0,L|72:277,1,165,2|0,1:2|0:0,0:0:0:0:
251,195,81834,2,0,L|415:190,1,165,2|0,1:2|0:0,0:0:0:0:
205,137,82134,6,0,L|211:69,1,65.9999979858399,2|0,1:2|0:2,0:0:0:0:
290,121,82284,2,0,L|296:53,1,65.9999979858399,0|0,0:2|0:2,0:0:0:0:
84,219,82434,2,0,L|281:203,1,197.99999395752,8|0,0:2|0:2,0:0:0:0:
40,114,82734,5,4,1:2:0:0:
279,271,82884,2,0,P|302:209|283:149,1,131.99999597168,0|8,0:0|1:2,0:0:0:0:
150,94,83184,2,0,L|83:89,1,65.9999979858399,0|0,0:2|0:2,0:0:0:0:
322,47,83334,1,0,1:2:0:0:
190,177,83484,1,0,0:2:0:0:
256,175,83559,1,0,0:2:0:0:
322,173,83634,1,8,1:2:0:0:
190,287,83784,2,0,L|257:282,1,65.9999979858399,0|0,0:2|0:0,0:0:0:0:
466,246,83934,5,0,1:2:0:0:
256,230,84084,1,0,0:2:0:0:
46,215,84234,1,8,1:2:0:0:
283,128,84384,2,0,L|216:123,1,65.9999979858399,0|0,0:2|0:2,0:0:0:0:
415,56,84534,1,0,1:2:0:0:
214,198,84684,1,0,0:2:0:0:
345,205,84834,1,8,1:2:0:0:
214,198,84984,1,0,0:2:0:0:
478,318,85134,5,0,1:2:0:0:
241,293,85284,1,0,0:2:0:0:
240,227,85359,1,0,0:2:0:0:
239,161,85434,1,8,1:2:0:0:
106,134,85584,1,0,0:2:0:0:
421,76,85734,1,0,1:2:0:0:
192,53,85884,1,0,0:2:0:0:
324,50,86034,1,8,1:2:0:0:
91,76,86184,1,0,0:2:0:0:
421,147,86334,5,0,1:2:0:0:
91,147,86484,1,0,1:2:0:0:
320,211,86634,1,8,1:2:0:0:
188,208,86784,1,0,1:2:0:0:
456,329,86934,6,0,L|465:296,1,32.99999899292,2|0,1:2|0:0,0:0:0:0:
56,329,87234,6,0,L|47:296,1,32.99999899292,2|0,1:2|0:0,0:0:0:0:
453,205,87534,5,4,1:2:0:0:
189,249,87684,1,0,0:2:0:0:
190,183,87759,1,0,0:2:0:0:
191,117,87834,1,8,1:2:0:0:
324,90,87984,1,0,0:2:0:0:
34,53,88134,1,0,1:2:0:0:
325,209,88284,1,0,0:2:0:0:
260,207,88359,1,0,0:2:0:0:
194,205,88434,1,8,1:2:0:0:
326,308,88584,2,0,L|393:303,1,65.9999979858399,0|0,0:2|1:2,0:0:0:0:
154,273,88734,5,2,1:2:0:0:
419,199,88884,1,0,0:2:0:0:
354,196,88959,1,0,0:2:0:0:
288,194,89034,1,8,1:2:0:0:
23,179,89184,1,0,0:2:0:0:
313,90,89334,1,2,1:2:0:0:
181,75,89484,1,0,0:2:0:0:
471,196,89634,1,10,1:2:0:0:
181,251,89784,2,0,L|247:248,1,65.9999979858399,0|0,1:2|1:2,0:0:0:0:
33,306,89934,6,0,L|29:240,1,65.9999979858399,6|0,1:2|1:2,0:0:0:0:
214,170,90084,2,0,L|280:167,1,65.9999979858399,0|0,1:2|1:2,0:0:0:0:
333,127,90234,2,0,L|330:61,1,65.9999979858399,10|0,1:2|1:2,0:0:0:0:
120,253,90384,2,0,L|186:250,1,65.9999979858399,0|0,1:2|1:2,0:0:0:0:
403,88,90534,5,2,1:2:0:0:
165,191,90684,2,0,L|154:224,2,32.99999899292,8|0|0,1:2|1:2|1:2,0:0:0:0:
198,177,90796,1,0,0:0:0:0:
352,163,90834,5,2,1:2:0:0:
88,305,90984,2,0,L|77:338,2,32.99999899292,8|0|0,1:2|1:2|1:2,0:0:0:0:
121,291,91096,1,0,0:0:0:0:
275,282,91134,6,0,L|440:277,1,165,2|0,1:2|0:0,0:0:0:0:
261,195,91434,2,0,L|97:190,1,165,2|0,1:2|0:0,0:0:0:0:
307,137,91734,6,0,L|301:69,1,65.9999979858399,2|0,1:2|0:2,0:0:0:0:
222,121,91884,2,0,L|216:53,1,65.9999979858399,0|0,0:2|0:2,0:0:0:0:
428,219,92034,2,0,L|231:203,1,197.99999395752,8|0,0:2|0:2,0:0:0:0:
472,114,92334,5,4,1:2:0:0:
88,278,94584,5,2,1:2:0:0:
420,261,94734,1,2,1:2:0:0:
203,227,96234,5,0,1:2:0:0:
218,185,96284,1,0,1:2:0:0:
255,160,96334,1,0,1:2:0:0:
308,153,96384,1,0,1:2:0:0:
215,134,96459,1,0,1:2:0:0:
426,332,96534,6,0,L|430:201,1,131.99999597168,2|0,1:2|0:2,0:0:0:0:
364,190,96759,1,2,1:2:0:0:
151,132,96834,2,0,L|220:128,1,65.9999979858399,0|0,0:0|0:2,0:0:0:0:
365,117,96984,2,0,L|434:113,1,65.9999979858399,2|0,1:2|0:2,0:0:0:0:
176,242,97134,5,6,1:2:0:0:
307,248,97284,1,0,0:2:0:0:
176,242,97434,1,8,0:2:0:0:
440,307,97584,6,0,L|436:241,1,65.9999979858399,2|0,1:2|0:2,0:0:0:0:
357,274,97734,2,0,L|353:208,1,65.9999979858399,0|0,0:2|0:2,0:0:0:0:
274,246,97884,2,0,L|270:180,1,65.9999979858399,0|0,0:2|0:2,0:0:0:0:
481,98,98034,5,2,1:2:0:0:
349,183,98184,1,0,0:2:0:0:
414,181,98259,1,0,0:2:0:0:
480,180,98334,1,0,0:2:0:0:
189,303,98484,5,2,1:2:0:0:
480,284,98634,1,8,0:2:0:0:
374,269,98784,2,0,L|372:203,1,65.9999979858399,0|0,0:2|0:2,0:0:0:0:
186,137,98934,6,0,L|251:134,1,65.9999979858399,2|0,1:2|0:2,0:0:0:0:
317,67,99084,2,0,L|252:64,1,65.9999979858399,0|0,0:2|0:2,0:0:0:0:
64,87,99234,5,2,1:2:0:0:
328,233,99384,2,0,L|393:230,1,65.9999979858399,0|0,0:2|0:2,0:0:0:0:
206,177,99534,5,2,1:2:0:0:
470,341,99684,1,0,0:2:0:0:
338,331,99834,1,8,0:2:0:0:
74,303,99984,1,2,1:2:0:0:
339,231,100134,1,8,0:2:0:0:
234,223,100284,6,0,L|218:223,4,16.49999949646,0|0|0|0|0,1:2|0:0|1:2|0:0|1:2,0:0:0:0:
456,137,100434,5,10,1:2:0:0:
325,131,100509,5,8,1:2:0:0:
194,125,100584,5,8,1:2:0:0:
63,120,100659,5,8,1:2:0:0:
414,344,100734,6,0,P|490:274|416:204,1,230.99999295044,10|0,1:2|0:0,0:0:0:0:
98,344,101034,2,0,P|22:274|96:204,1,230.99999295044,10|0,1:2|0:0,0:0:0:0:
414,204,101334,5,10,1:2:0:0:
282,103,101484,1,10,1:2:0:0:
361,99,101559,1,10,1:2:0:0:
174,185,101634,2,0,L|7:177,1,165,0|0,0:0|0:0,0:0:0:0:
410,323,101934,6,0,P|450:311|410:203,1,197.99999395752,4|0,1:2|0:2,0:0:0:0:
322,145,102234,1,8,1:2:0:0:
382,141,102309,1,0,0:2:0:0:
322,145,102384,1,0,0:2:0:0:
382,141,102459,1,0,0:2:0:0:
206,268,102534,1,0,1:2:0:0:
311,260,102684,1,0,0:2:0:0:
47,330,102834,2,0,L|42:196,1,131.99999597168,8|0,1:2|0:2,0:0:0:0:
295,81,103134,5,0,1:2:0:0:
163,88,103284,1,0,0:2:0:0:
405,143,103434,1,8,1:2:0:0:
163,213,103584,1,0,0:2:0:0:
228,209,103659,1,0,0:2:0:0:
370,200,103734,1,0,1:2:0:0:
139,292,103884,1,0,0:2:0:0:
204,288,103959,1,0,0:2:0:0:
346,279,104034,1,8,1:2:0:0:
115,145,104184,1,0,0:2:0:0:
180,141,104259,1,0,0:2:0:0:
345,63,104334,5,4,1:2:0:0:
214,55,104484,1,0,0:2:0:0:
491,187,104634,2,0,L|358:182,1,131.99999597168,8|0,1:2|0:2,0:0:0:0:
82,360,104934,2,0,L|77:225,1,131.99999597168,0|0,1:2|0:2,0:0:0:0:
430,360,105234,2,0,L|434:227,1,131.99999597168,8|0,1:2|0:2,0:0:0:0:
214,187,105534,6,0,L|217:120,1,65.9999979858399,2|0,1:2|0:2,0:0:0:0:
296,179,105684,2,0,L|299:112,1,65.9999979858399,0|0,0:2|0:2,0:0:0:0:
114,308,105834,2,0,L|154:255,1,65.9999979858399,8|0,1:2|0:2,0:0:0:0:
341,232,105984,2,0,L|410:226,1,65.9999979858399,0|0,0:2|0:2,0:0:0:0:
195,350,106134,6,0,L|192:283,1,65.9999979858399,2|2,1:2|1:2,0:0:0:0:
260,266,106284,1,0,0:2:0:0:
101,240,106359,1,2,1:2:0:0:
262,188,106434,2,0,L|330:182,1,65.9999979858399,2|0,1:2|0:2,0:0:0:0:
101,157,106584,2,0,L|33:151,1,65.9999979858399,0|0,1:2|0:2,0:0:0:0:
327,111,106734,6,0,L|330:44,1,65.9999979858399,6|0,1:2|1:2,0:0:0:0:
245,119,106884,2,0,L|248:52,1,65.9999979858399,0|0,1:2|1:2,0:0:0:0:
460,28,107034,1,0,1:2:0:0:
223,266,107184,6,0,L|157:261,1,65.9999979858399,2|0,1:2|1:2,0:0:0:0:
223,191,107334,2,0,L|289:186,1,65.9999979858399,0|0,1:2|1:2,0:0:0:0:
74,127,107484,1,0,1:2:0:0:
364,71,107634,6,0,L|298:66,1,65.9999979858399,2|0,1:2|1:2,0:0:0:0:
140,46,107784,2,0,L|74:41,1,65.9999979858399,0|0,1:2|1:2,0:0:0:0:
292,226,107934,6,0,L|358:221,1,65.9999979858399,2|0,1:2|1:2,0:0:0:0:
292,151,108084,2,0,L|226:146,1,65.9999979858399,0|0,1:2|1:2,0:0:0:0:
441,87,108234,1,0,1:2:0:0:
204,359,108384,6,0,L|201:292,1,65.9999979858399,2|0,1:2|1:2,0:0:0:0:
286,367,108534,2,0,L|283:300,1,65.9999979858399,0|0,1:2|1:2,0:0:0:0:
71,276,108684,1,0,1:2:0:0:
335,221,108834,6,0,L|401:216,1,65.9999979858399,2|0,1:2|1:2,0:0:0:0:
147,145,108984,2,0,L|81:140,1,65.9999979858399,0|0,1:2|1:2,0:0:0:0:
398,136,109134,5,2,1:2:0:0:
178,289,109284,1,0,1:2:0:0:
230,286,109334,1,0,1:2:0:0:
282,283,109384,1,0,1:2:0:0:
414,276,109434,5,2,1:2:0:0:
128,206,109584,1,0,1:2:0:0:
180,203,109634,1,0,1:2:0:0:
232,200,109684,1,0,1:2:0:0:
364,193,109734,5,2,1:2:0:0:
78,129,109884,1,2,1:2:0:0:
113,126,109921,1,0,1:2:0:0:
149,125,109959,1,0,1:2:0:0:
185,124,109996,1,0,0:0:0:0:
322,122,110034,5,2,1:2:0:0:
36,47,110184,1,2,1:2:0:0:
71,44,110221,1,0,1:2:0:0:
107,43,110259,1,0,1:2:0:0:
143,42,110296,1,0,0:0:0:0:
280,35,110334,6,0,L|347:33,1,65.9999979858399,2|0,1:2|0:2,0:0:0:0:
161,81,110484,2,0,L|94:79,1,65.9999979858399,0|0,0:2|0:2,0:0:0:0:
372,125,110634,2,0,L|439:123,1,65.9999979858399,2|0,1:2|0:2,0:0:0:0:
121,166,110784,2,0,L|54:164,1,65.9999979858399,0|0,0:2|0:2,0:0:0:0:
412,204,110934,6,0,L|479:202,2,65.9999979858399,2|0|0,1:2|0:2|0:2,0:0:0:0:
253,192,111159,1,2,1:2:0:0:
412,120,111234,2,0,L|345:118,1,65.9999979858399,0|0,0:2|0:2,0:0:0:0:
187,114,111384,2,0,L|120:112,1,65.9999979858399,2|0,1:2|0:2,0:0:0:0:
412,294,111534,5,8,1:2:0:0:
148,240,111684,1,0,1:2:0:0:
281,230,111834,1,0,1:2:0:0:
16,181,111984,5,8,1:2:0:0:
280,127,112134,1,0,1:2:0:0:
147,117,112284,1,0,1:2:0:0:
411,42,112434,5,8,1:2:0:0:
343,45,112509,1,0,1:2:0:0:
38,74,112584,1,12,1:2:0:0:
