osu file format v14

[General]
AudioFilename: audio.mp3
AudioLeadIn: 0
PreviewTime: 73134
Countdown: 0
SampleSet: Soft
StackLeniency: 0.7
Mode: 2
LetterboxInBreaks: 0
WidescreenStoryboard: 0

[Editor]
DistanceSpacing: 1.1
BeatDivisor: 4
GridSize: 4
TimelineZoom: 2.699999

[Metadata]
Title:Toono Gensou Monogatari (MRM REMIX)
TitleUnicode:遠野幻想物語 (MRM REMIX)
Artist:Morimori Atsushi
ArtistUnicode:モリモリあつし
Creator:[_-Kukkai-_]
Version:Deluge
Source:東方妖々夢 ~ Perfect Cherry Blossom.
Tags:Nelly TH7 上海アリス幻樂団 Team Shanghai Alice J-Core hardcore FLOOR落選供養 Rakusen Kuyou 東方幻鍵音 LOTUS GROOVE Genkenon mappers' guild mg featured artist fa zun 東方project chen 橙 video game the fantastic legend of tohno touhou youyoumu instrumental electronic
BeatmapID:3026892
BeatmapSetID:1474955

[Difficulty]
HPDrainRate:6
CircleSize:4.5
OverallDifficulty:9.6
ApproachRate:9.6
SliderMultiplier:2
SliderTickRate:2

[Events]
//Background and Video events
0,0,"bg.jpg",0,0
//Break Periods
2,92534,94075
2,94934,95725
//Storyboard Layer 0 (Background)
//Storyboard Layer 1 (Fail)
//Storyboard Layer 2 (Pass)
//Storyboard Layer 3 (Foreground)
//Storyboard Layer 4 (Overlay)
//Storyboard Sound Samples

[TimingPoints]
1134,300,4,2,1,75,1,0
5934,-100,4,2,2,75,0,0
9534,-45.4545454545455,4,2,2,75,0,0
9684,-100,4,2,2,75,0,0
9834,-45.4545454545455,4,2,2,75,0,0
9984,-100,4,2,2,75,0,0
10134,-45.4545454545455,4,2,2,75,0,0
10284,-100,4,2,2,75,0,0
10434,-45.4545454545455,4,2,2,75,0,0
10584,-100,4,2,2,75,0,0
10734,-100,4,2,2,75,0,0
15534,-90.9090909090909,4,2,2,75,0,0
25134,-90.9090909090909,4,2,2,75,0,0
26034,-90.9090909090909,4,2,2,75,0,0
26334,-90.9090909090909,4,2,2,75,0,0
27234,-90.9090909090909,4,2,2,75,0,0
27534,-90.9090909090909,4,2,2,75,0,0
34734,-90.9090909090909,4,2,2,75,0,0
35034,-90.9090909090909,4,2,0,75,0,0
37134,-90.9090909090909,4,2,2,75,0,0
37434,-90.9090909090909,4,2,0,75,0,0
38184,-83.3333333333333,4,2,2,75,0,0
38334,-83.3333333333333,4,2,2,20,0,0
38484,-83.3333333333333,4,2,2,75,0,0
38634,-83.3333333333333,4,2,2,20,0,0
38784,-83.3333333333333,4,2,2,75,0,0
38934,-83.3333333333333,4,2,2,20,0,0
39084,-83.3333333333333,4,2,2,75,0,0
39234,-83.3333333333333,4,2,2,20,0,0
39384,-83.3333333333333,4,2,2,75,0,0
39534,-90.9090909090909,4,2,2,75,0,0
42984,-83.3333333333333,4,2,2,75,0,0
43134,-83.3333333333333,4,2,2,20,0,0
43284,-83.3333333333333,4,2,2,75,0,0
43434,-83.3333333333333,4,2,2,20,0,0
43584,-83.3333333333333,4,2,2,75,0,0
43734,-83.3333333333333,4,2,2,20,0,0
43884,-83.3333333333333,4,2,2,75,0,0
44034,-83.3333333333333,4,2,2,20,0,0
44184,-83.3333333333333,4,2,2,75,0,0
44334,-90.9090909090909,4,2,2,75,0,0
53934,-90.9090909090909,4,2,2,75,0,0
62334,-90.9090909090909,4,2,0,75,0,0
63234,-90.9090909090909,4,2,2,75,0,0
71934,-83.3333333333333,4,2,2,75,0,0
73134,-83.3333333333333,4,2,2,75,0,1
73434,-83.3333333333333,4,2,2,75,0,1
73734,-45.4545454545455,4,2,2,75,0,1
73884,-83.3333333333333,4,2,2,75,0,1
74034,-45.4545454545455,4,2,2,75,0,1
74184,-83.3333333333333,4,2,2,75,0,1
74334,-83.3333333333333,4,2,2,75,0,1
75534,-45.4545454545455,4,2,2,75,0,1
75684,-83.3333333333333,4,2,2,75,0,1
75834,-45.4545454545455,4,2,2,75,0,1
75984,-83.3333333333333,4,2,2,75,0,1
76134,-83.3333333333333,4,2,2,75,0,1
77334,-25,4,2,2,75,0,0
77409,-25,4,2,2,10,0,0
77634,-25,4,2,2,75,0,0
77709,-25,4,2,2,10,0,0
77934,-45.4545454545455,4,2,2,75,0,1
78084,-83.3333333333333,4,2,2,75,0,1
78234,-45.4545454545455,4,2,2,75,0,1
78384,-83.3333333333333,4,2,2,75,0,1
78534,-45.4545454545455,4,2,2,75,0,1
78684,-83.3333333333333,4,2,2,75,0,1
78834,-45.4545454545455,4,2,2,75,0,1
78984,-83.3333333333333,4,2,2,75,0,1
79134,-45.4545454545455,4,2,2,75,0,1
79284,-83.3333333333333,4,2,2,75,0,1
79434,-45.4545454545455,4,2,2,75,0,1
79584,-83.3333333333333,4,2,2,75,0,1
79734,-83.3333333333333,4,2,2,75,0,1
81534,-45.4545454545455,4,2,2,75,0,0
82134,-83.3333333333333,4,2,2,75,0,0
82734,-83.3333333333333,4,2,2,75,0,1
83034,-83.3333333333333,4,2,2,75,0,1
83334,-45.4545454545455,4,2,2,75,0,1
83484,-83.3333333333333,4,2,2,75,0,1
83634,-45.4545454545455,4,2,2,75,0,1
83784,-83.3333333333333,4,2,2,75,0,1
83934,-83.3333333333333,4,2,2,75,0,1
85134,-45.4545454545455,4,2,2,75,0,1
85284,-83.3333333333333,4,2,2,75,0,1
85434,-45.4545454545455,4,2,2,75,0,1
85584,-83.3333333333333,4,2,2,75,0,1
85734,-83.3333333333333,4,2,2,75,0,1
86934,-25,4,2,2,75,0,0
87009,-25,4,2,2,10,0,0
87234,-25,4,2,2,75,0,0
87309,-25,4,2,2,10,0,0
87534,-45.4545454545455,4,2,2,75,0,1
87684,-83.3333333333333,4,2,2,75,0,1
87834,-45.4545454545455,4,2,2,75,0,1
87984,-83.3333333333333,4,2,2,75,0,1
88134,-45.4545454545455,4,2,2,75,0,1
88284,-83.3333333333333,4,2,2,75,0,1
88434,-45.4545454545455,4,2,2,75,0,1
88584,-83.3333333333333,4,2,2,75,0,1
88734,-45.4545454545455,4,2,2,75,0,1
88884,-83.3333333333333,4,2,2,75,0,1
89034,-45.4545454545455,4,2,2,75,0,1
89184,-83.3333333333333,4,2,2,75,0,1
91134,-45.4545454545455,4,2,2,75,0,0
91734,-83.3333333333333,4,2,2,75,0,0
92334,-83.3333333333333,4,2,2,75,0,0
97134,-83.3333333333333,4,2,1,75,0,0
100734,-83.3333333333333,4,2,1,75,0,0
100884,-83.3333333333333,4,2,1,10,0,0
101034,-83.3333333333333,4,2,1,75,0,0
101184,-83.3333333333333,4,2,1,10,0,0
101334,-83.3333333333333,4,2,1,75,0,0
101934,-83.3333333333333,4,2,2,75,0,1
111534,-83.3333333333333,4,2,2,74,0,0
112734,-83.3333333333333,4,2,2,73,0,0
113034,-83.3333333333333,4,2,2,72,0,0
113334,-83.3333333333333,4,2,2,71,0,0
113634,-83.3333333333333,4,2,2,70,0,0
113934,-83.3333333333333,4,2,2,65,0,0
114234,-83.3333333333333,4,2,2,60,0,0
114534,-83.3333333333333,4,2,2,55,0,0
114834,-83.3333333333333,4,2,2,50,0,0
115134,-83.3333333333333,4,2,2,45,0,0
115434,-83.3333333333333,4,2,2,40,0,0
115734,-83.3333333333333,4,2,2,35,0,0
116034,-83.3333333333333,4,2,2,30,0,0
116334,-83.3333333333333,4,2,2,25,0,0
116634,-83.3333333333333,4,2,2,20,0,0
116934,-83.3333333333333,4,2,2,15,0,0
117234,-83.3333333333333,4,2,2,10,0,0
117534,-83.3333333333333,4,2,2,5,0,0

[Colours]
Combo1 : 255,192,2
Combo2 : 95,188,134
Combo3 : 198,87,96

[HitObjects]
152,352,1134,6,0,L|152:228,1,100,4|0,1:2|0:2,0:0:0:0:
272,252,1434,2,0,L|272:140,1,100,0|0,0:2|0:2,0:0:0:0:
392,144,1734,2,0,L|392:32,1,100,8|0,0:2|0:2,0:0:0:0:
252,48,2034,1,0,0:2:0:0:
392,44,2184,1,0,0:2:0:0:
152,352,2334,6,0,P|104:328|168:228,1,200,0|0,1:2|0:2,0:0:0:0:
376,160,2784,2,0,L|152:160,1,200,0|0,0:2|0:2,0:0:0:0:
296,160,3234,1,0,0:2:0:0:
416,160,3384,2,0,L|416:88,1,50,0|0,1:2|0:2,0:0:0:0:
216,336,3534,5,4,1:2:0:0:
116,336,3684,1,0,0:2:0:0:
227,335,3834,1,0,0:2:0:0:
336,336,3984,1,0,0:2:0:0:
216,336,4134,1,8,0:2:0:0:
216,236,4284,1,0,0:2:0:0:
356,235,4434,1,0,0:2:0:0:
216,232,4584,1,0,0:2:0:0:
440,240,4734,6,0,P|500:172|416:116,1,200,0|0,1:0|1:0,0:0:0:0:
300,116,5109,1,0,1:2:0:0:
168,120,5184,1,0,1:2:0:0:
212,120,5259,1,0,1:0:0:0:
428,48,5334,1,8,0:2:0:0:
212,120,5484,1,8,0:2:0:0:
428,48,5634,2,0,L|368:48,1,50,8|8,0:2|0:2,0:0:0:0:
164,40,5784,2,0,L|216:40,1,50,8|8,0:2|0:2,0:0:0:0:
364,340,5934,6,0,P|392:288|352:260,1,100,4|0,1:2|0:2,0:0:0:0:
176,256,6159,2,0,L|112:256,2,50,0|8|0,0:2|1:2|0:2,0:0:0:0:
360,156,6384,1,0,0:2:0:0:
258,153,6534,1,0,1:2:0:0:
360,156,6684,1,0,0:2:0:0:
100,332,6834,2,0,L|100:212,1,100,8|0,1:2|0:2,0:0:0:0:
320,231,7134,5,0,1:2:0:0:
104,232,7284,1,0,0:2:0:0:
358,181,7434,1,8,1:2:0:0:
205,180,7584,1,0,0:2:0:0:
428,355,7734,5,2,1:2:0:0:
469,317,7809,1,0,0:2:0:0:
427,268,7884,1,0,0:2:0:0:
367,267,7959,1,0,0:2:0:0:
211,96,8034,1,10,1:2:0:0:
268,97,8109,1,0,0:2:0:0:
325,97,8184,1,0,0:2:0:0:
103,215,8334,5,4,1:2:0:0:
223,215,8484,1,0,1:2:0:0:
342,217,8634,1,8,1:2:0:0:
223,215,8784,1,0,1:2:0:0:
163,216,8859,1,0,1:2:0:0:
369,145,8934,1,0,1:2:0:0:
247,145,9084,1,0,1:2:0:0:
369,145,9234,1,8,1:2:0:0:
489,72,9384,1,0,1:2:0:0:
428,73,9459,1,0,1:2:0:0:
177,262,9534,6,0,L|401:263,1,220.000006713867,2|8,1:2|1:2,0:0:0:0:
437,263,9734,1,0,1:2:0:0:
396,262,9784,1,0,1:2:0:0:
148,204,9834,6,0,L|372:205,1,220.000006713867,2|8,1:2|1:2,0:0:0:0:
408,205,10034,1,0,1:2:0:0:
367,204,10084,1,0,1:2:0:0:
115,137,10134,6,0,L|359:137,1,220.000006713867,2|8,1:2|1:2,0:0:0:0:
365,136,10321,1,0,1:2:0:0:
395,136,10359,1,0,1:2:0:0:
365,136,10396,1,0,1:2:0:0:
335,137,10434,6,0,L|91:137,1,220.000006713867,2|8,1:2|1:2,0:0:0:0:
82,137,10621,1,0,1:2:0:0:
82,137,10659,1,0,1:2:0:0:
115,137,10696,1,0,1:2:0:0:
301,360,10734,6,0,P|354:326|284:234,1,200,4|0,1:2|0:2,0:0:0:0:
173,234,11184,2,0,L|390:234,1,200,0|0,0:2|0:2,0:0:0:0:
253,229,11634,1,8,1:2:0:0:
254,169,11709,1,0,1:2:0:0:
419,169,11784,1,0,1:2:0:0:
369,169,11859,1,0,1:2:0:0:
143,356,11934,6,0,P|87:333|134:229,1,200,6|0,1:2|0:2,0:0:0:0:
368,358,12384,2,0,P|425:320|344:244,1,200,2|0,1:2|0:2,0:0:0:0:
119,231,12834,2,0,L|121:122,1,100,10|0,1:2|0:2,0:0:0:0:
343,125,13134,6,0,L|237:123,1,100,6|0,1:2|0:2,0:0:0:0:
66,347,13359,2,0,L|181:349,1,100,2|0,1:2|0:2,0:0:0:0:
383,302,13584,2,0,L|397:240,1,50,2|0,1:2|0:2,0:0:0:0:
212,239,13734,2,0,L|85:238,1,100,2|0,1:2|0:2,0:0:0:0:
299,183,13959,2,0,L|442:184,1,100,2|0,1:2|0:2,0:0:0:0:
140,102,14184,2,0,L|72:67,1,50,2|0,1:2|0:2,0:0:0:0:
316,360,14334,6,0,P|422:347|480:313,1,150,2|0,1:2|0:2,0:0:0:0:
241,304,14634,2,0,P|168:293|96:248,1,150,2|0,1:2|0:2,0:0:0:0:
317,237,14934,2,0,P|361:204|301:135,1,150,2|0,1:2|0:2,0:0:0:0:
141,132,15234,1,0,1:2:0:0:
180,132,15284,1,0,1:2:0:0:
219,133,15334,1,0,1:2:0:0:
258,133,15384,1,0,1:2:0:0:
320,134,15459,1,0,1:2:0:0:
135,351,15534,6,0,P|64:278|148:216,1,220.000006713867,4|8,1:2|1:2,0:0:0:0:
188,216,15909,1,0,0:2:0:0:
134,214,15984,1,0,0:2:0:0:
80,212,16059,1,0,0:2:0:0:
249,174,16134,1,0,1:2:0:0:
304,176,16209,1,0,0:2:0:0:
141,132,16284,1,0,0:2:0:0:
141,132,16359,1,0,0:2:0:0:
317,93,16434,2,0,L|444:92,1,110.000003356934,8|0,1:2|0:2,0:0:0:0:
195,350,16734,5,0,1:2:0:0:
304,352,16884,1,0,0:2:0:0:
194,349,17034,1,8,1:2:0:0:
459,242,17184,2,0,L|316:240,1,110.000003356934,0|0,0:2|1:2,0:0:0:0:
76,244,17484,2,0,L|208:244,1,110.000003356934,0|8,0:2|1:2,0:0:0:0:
455,174,17784,1,0,0:2:0:0:
195,242,17934,6,0,L|72:240,1,110.000003356934,0|0,1:2|0:2,0:0:0:0:
375,148,18234,1,8,1:2:0:0:
429,123,18309,1,0,0:0:0:0:
483,96,18384,1,0,0:2:0:0:
244,81,18534,1,0,1:2:0:0:
362,64,18684,1,0,0:2:0:0:
129,338,18834,1,8,1:2:0:0:
264,340,18984,1,0,0:2:0:0:
36,271,19134,5,0,1:2:0:0:
28,208,19209,1,0,0:2:0:0:
28,208,19284,1,0,0:2:0:0:
40,148,19359,1,0,0:2:0:0:
100,136,19434,1,8,1:2:0:0:
160,124,19509,1,0,0:2:0:0:
220,112,19584,1,0,0:2:0:0:
280,96,19659,1,0,0:2:0:0:
55,363,19734,6,0,L|56:184,1,165.000005035401,2|0,1:2|0:2,0:0:0:0:
294,366,20034,2,0,L|292:172,1,165.000005035401,2|0,1:2|0:2,0:0:0:0:
62,109,20334,6,0,L|304:108,1,220.000006713867,4|8,1:2|1:2,0:0:0:0:
336,108,20709,1,0,0:2:0:0:
281,108,20784,1,0,0:2:0:0:
281,108,20859,1,0,0:2:0:0:
456,268,20934,2,0,L|385:268,1,55.0000016784668,0|0,1:2|0:2,0:0:0:0:
216,268,21084,2,0,L|216:192,1,55.0000016784668,0|0,0:2|0:2,0:0:0:0:
379,198,21234,2,0,L|512:200,1,110.000003356934,8|0,1:2|0:2,0:0:0:0:
212,140,21534,5,0,1:2:0:0:
348,140,21684,2,0,L|348:16,1,110.000003356934,0|8,0:2|1:2,0:0:0:0:
128,340,21984,2,0,L|16:340,1,110.000003356934,0|0,0:2|1:2,0:0:0:0:
268,253,22284,2,0,L|144:256,1,110.000003356934,0|8,0:2|1:2,0:0:0:0:
397,193,22584,1,0,0:2:0:0:
113,186,22734,6,0,L|256:188,1,110.000003356934,0|0,1:2|0:2,0:0:0:0:
485,193,23034,1,8,1:2:0:0:
497,131,23109,1,0,0:0:0:0:
485,73,23184,1,0,0:2:0:0:
176,78,23334,1,0,1:2:0:0:
68,80,23484,1,0,0:2:0:0:
290,266,23634,1,8,1:2:0:0:
180,268,23784,1,0,0:2:0:0:
417,153,23934,5,0,1:2:0:0:
298,154,24084,1,0,0:2:0:0:
444,89,24234,1,8,1:2:0:0:
202,87,24384,1,0,0:2:0:0:
469,329,24534,1,2,1:2:0:0:
360,332,24684,2,0,L|287:332,1,55.0000016784668,8|8,0:3|0:3,0:0:0:0:
360,332,24834,2,0,L|500:332,1,110.000003356934,8|8,0:3|0:3,0:0:0:0:
163,325,25134,6,0,L|352:328,1,165.000005035401,4|0,1:2|0:2,0:0:0:0:
163,325,25434,2,0,L|336:328,1,165.000005035401,2|0,1:2|0:2,0:0:0:0:
163,325,25734,2,0,L|344:328,1,165.000005035401,2|0,1:2|0:2,0:0:0:0:
121,329,26034,6,0,P|68:292|152:232,1,165.000005035401,8|0,1:2|0:2,0:0:0:0:
335,175,26334,6,0,L|152:176,1,165.000005035401,2|0,1:2|0:2,0:0:0:0:
335,175,26634,2,0,L|148:172,1,165.000005035401,2|0,1:2|0:2,0:0:0:0:
335,175,26934,2,0,L|148:176,1,165.000005035401,2|0,1:2|0:2,0:0:0:0:
382,360,27234,6,0,P|432:320|365:268,1,165.000005035401,8|0,1:2|0:2,0:0:0:0:
193,260,27534,6,0,L|404:260,1,165.000005035401,2|0,1:2|0:2,0:0:0:0:
156,203,27834,6,0,P|104:160|186:106,1,165.000005035401,8|0,1:2|0:2,0:0:0:0:
370,52,28134,6,0,L|184:52,1,165.000005035401,2|0,1:2|0:2,0:0:0:0:
412,202,28434,6,0,P|464:168|392:112,1,165.000005035401,8|0,1:2|0:2,0:0:0:0:
199,353,28734,6,0,P|117:343|28:276,1,165.000005035401,2|0,1:2|0:2,0:0:0:0:
264,280,29034,2,0,P|363:264|444:192,1,165.000005035401,8|0,1:2|0:2,0:0:0:0:
197,198,29334,6,0,P|148:168|225:97,1,165.000005035401,2|0,1:2|0:2,0:0:0:0:
477,358,29634,2,0,B|476:248|476:248|392:248,1,165.000005035401,2|0,1:2|0:2,0:0:0:0:
241,270,29934,6,0,L|240:196,1,55.0000016784668,4|0,1:2|0:2,0:0:0:0:
304,212,30084,2,0,L|304:124,1,55.0000016784668,8|0,1:2|0:2,0:0:0:0:
136,151,30234,2,0,L|136:88,1,55.0000016784668,0|0,1:2|0:2,0:0:0:0:
192,96,30384,2,0,L|272:96,1,55.0000016784668,8|0,1:2|0:2,0:0:0:0:
106,72,30534,5,0,1:2:0:0:
52,72,30609,1,0,0:2:0:0:
52,72,30684,1,8,1:2:0:0:
106,72,30759,1,0,0:2:0:0:
262,351,30834,2,0,L|264:276,1,55.0000016784668,0|0,1:2|0:2,0:0:0:0:
200,296,30984,2,0,L|200:212,1,55.0000016784668,8|0,1:2|0:2,0:0:0:0:
374,175,31134,6,0,L|280:176,1,55.0000016784668,4|0,1:2|0:2,0:0:0:0:
264,176,31284,2,0,L|264:96,1,55.0000016784668,8|0,1:2|0:2,0:0:0:0:
416,108,31434,2,0,L|416:32,1,55.0000016784668,2|0,1:2|0:2,0:0:0:0:
242,55,31584,2,0,L|152:52,1,55.0000016784668,8|0,1:2|0:2,0:0:0:0:
364,254,31734,6,0,L|364:184,1,55.0000016784668,2|0,1:2|0:2,0:0:0:0:
190,211,31884,2,0,L|104:208,1,55.0000016784668,8|0,1:2|0:2,0:0:0:0:
315,202,32034,2,0,L|412:204,1,55.0000016784668,2|0,1:2|0:2,0:0:0:0:
162,145,32184,2,0,L|236:144,1,55.0000016784668,8|0,1:2|0:2,0:0:0:0:
391,314,32334,6,0,L|464:312,1,55.0000016784668,2|0,1:2|1:2,0:0:0:0:
273,313,32484,2,0,L|192:312,1,55.0000016784668,8|0,1:2|1:2,0:0:0:0:
37,309,32634,2,0,L|120:308,1,55.0000016784668,2|0,1:2|1:2,0:0:0:0:
279,253,32784,2,0,L|344:252,1,55.0000016784668,8|0,1:2|1:2,0:0:0:0:
147,255,32934,6,0,L|144:184,1,55.0000016784668,2|0,1:2|0:2,0:0:0:0:
352,132,33084,2,0,L|396:132,2,27.5000008392334,8|0|0,1:2|1:2|1:2,0:0:0:0:
145,75,33234,2,0,L|72:76,1,55.0000016784668,2|0,1:2|0:2,0:0:0:0:
264,33,33384,1,8,1:2:0:0:
292,36,33421,1,0,1:2:0:0:
320,36,33459,1,0,1:2:0:0:
141,340,33534,6,0,L|140:260,1,55.0000016784668,2|0,1:2|0:2,0:0:0:0:
369,300,33684,2,0,L|288:300,1,55.0000016784668,2|0,1:2|0:2,0:0:0:0:
140,241,33834,2,0,L|208:240,1,55.0000016784668,2|0,1:2|0:2,0:0:0:0:
400,184,33984,2,0,L|324:184,1,55.0000016784668,2|0,1:2|0:2,0:0:0:0:
182,341,34134,6,0,L|184:272,1,55.0000016784668,2|0,1:2|0:2,0:0:0:0:
316,223,34284,1,0,0:2:0:0:
316,223,34359,1,0,0:2:0:0:
140,184,34434,1,2,1:2:0:0:
82,119,34509,1,0,0:2:0:0:
82,119,34584,1,0,0:2:0:0:
142,121,34659,1,0,0:2:0:0:
380,355,34734,6,0,P|422:282|368:160,1,220.000006713867,4|0,1:2|0:2,0:0:0:0:
264,160,35184,1,2,0:2:0:0:
144,360,35334,2,0,P|108:296|160:160,1,220.000006713867,2|0,0:2|0:2,0:0:0:0:
264,168,35784,1,2,0:2:0:0:
376,351,35934,6,0,L|160:216,1,220.000006713867,2|2,0:2|0:2,0:0:0:0:
140,208,36309,1,0,0:2:0:0:
189,234,36384,1,0,0:2:0:0:
305,231,36534,2,0,L|500:104,1,220.000006713867,2|2,0:2|0:2,0:0:0:0:
94,364,37134,6,0,P|31:321|112:220,1,220.000006713867,4|2,1:2|0:2,0:0:0:0:
236,220,37584,1,2,0:2:0:0:
27,149,37734,2,0,L|100:148,1,55.0000016784668,2|0,1:2|1:2,0:0:0:0:
298,146,37884,2,0,L|376:148,1,55.0000016784668,2|0,1:2|1:2,0:0:0:0:
141,70,38034,2,0,L|216:72,1,55.0000016784668,2|0,1:2|1:2,0:0:0:0:
477,353,38184,6,0,L|487:208,1,119.999996337891,2|0,1:2|0:2,0:0:0:0:
35,353,38484,6,0,L|25:208,1,119.999996337891,2|0,1:2|0:2,0:0:0:0:
477,353,38784,6,0,L|487:208,1,119.999996337891,2|0,1:2|0:2,0:0:0:0:
35,353,39084,6,0,L|25:208,1,119.999996337891,2|0,1:2|0:2,0:0:0:0:
485,208,39384,5,2,1:2:0:0:
257,117,39534,6,0,L|128:116,1,110.000003356934,4|0,1:2|0:2,0:0:0:0:
257,117,39834,2,0,L|344:116,1,55.0000016784668,8|0,1:2|0:2,0:0:0:0:
125,115,39984,1,0,0:2:0:0:
364,344,40134,2,0,L|364:208,1,110.000003356934,0|0,1:2|0:2,0:0:0:0:
252,228,40434,2,0,L|184:228,1,55.0000016784668,8|0,1:2|0:2,0:0:0:0:
352,168,40584,1,0,0:2:0:0:
108,304,40734,6,0,L|226:304,1,110.000003356934,0|0,1:2|0:2,0:0:0:0:
470,300,41034,1,8,1:2:0:0:
416,300,41109,1,0,0:2:0:0:
360,300,41184,1,0,0:2:0:0:
108,304,41334,2,0,L|100:173,1,110.000003356934,0|0,1:2|0:2,0:0:0:0:
352,168,41634,2,0,L|361:36,1,110.000003356934,8|0,1:2|0:2,0:0:0:0:
122,358,41934,6,0,L|324:356,1,165.000005035401,4|0,1:2|0:2,0:0:0:0:
124,248,42234,2,0,L|44:248,1,55.0000016784668,8|0,1:2|0:2,0:0:0:0:
251,251,42384,2,0,L|324:252,1,55.0000016784668,0|0,0:2|0:2,0:0:0:0:
491,185,42534,2,0,L|416:184,1,55.0000016784668,0|0,1:2|0:2,0:0:0:0:
244,188,42684,2,0,L|245:104,1,55.0000016784668,0|0,0:2|0:2,0:0:0:0:
436,184,42834,2,0,L|376:184,1,55.0000016784668,8|0,1:2|0:2,0:0:0:0:
25,359,42984,6,0,L|58:213,1,119.999996337891,2|0,1:2|0:2,0:0:0:0:
487,359,43284,6,0,L|454:213,1,119.999996337891,2|0,1:2|0:2,0:0:0:0:
25,359,43584,6,0,L|58:213,1,119.999996337891,2|0,1:2|0:2,0:0:0:0:
487,359,43884,6,0,L|454:213,1,119.999996337891,2|0,1:2|0:2,0:0:0:0:
25,359,44184,5,2,1:2:0:0:
341,181,44334,6,0,L|196:180,1,110.000003356934,4|0,1:2|0:2,0:0:0:0:
120,180,44634,2,0,L|208:180,1,55.0000016784668,8|0,1:2|0:2,0:0:0:0:
377,117,44784,1,0,0:2:0:0:
132,355,44934,2,0,L|132:224,1,110.000003356934,0|0,1:2|0:2,0:0:0:0:
244,240,45234,2,0,L|312:240,1,55.0000016784668,8|0,1:2|0:2,0:0:0:0:
97,131,45384,1,0,0:2:0:0:
332,128,45534,6,0,L|468:129,1,110.000003356934,0|0,1:2|0:2,0:0:0:0:
204,56,45834,1,8,1:2:0:0:
150,55,45909,1,0,0:2:0:0:
94,55,45984,1,0,0:2:0:0:
316,352,46134,2,0,L|183:353,1,110.000003356934,0|0,1:2|0:2,0:0:0:0:
440,344,46434,2,0,L|464:204,1,110.000003356934,8|0,1:2|0:2,0:0:0:0:
153,220,46734,6,0,P|100:184|168:124,1,165.000005035401,4|0,1:2|0:2,0:0:0:0:
323,116,47034,2,0,L|392:116,1,55.0000016784668,8|0,1:2|0:2,0:0:0:0:
236,51,47184,2,0,L|164:52,1,55.0000016784668,0|0,0:2|0:2,0:0:0:0:
393,301,47334,2,0,L|392:208,1,55.0000016784668,0|0,1:2|0:2,0:0:0:0:
238,241,47484,2,0,L|148:240,1,55.0000016784668,0|0,0:2|0:2,0:0:0:0:
21,246,47634,2,0,L|96:244,1,55.0000016784668,8|0,1:2|0:2,0:0:0:0:
294,242,47784,2,0,L|380:240,1,55.0000016784668,0|0,0:2|0:2,0:0:0:0:
156,228,47934,5,2,1:2:0:0:
48,228,48084,2,0,L|48:160,1,55.0000016784668,0|0,0:2|0:2,0:0:0:0:
248,179,48234,1,10,1:2:0:0:
140,180,48384,2,0,L|140:108,1,55.0000016784668,0|0,0:2|0:2,0:0:0:0:
344,109,48534,1,2,1:2:0:0:
236,108,48684,2,0,L|236:36,1,55.0000016784668,0|0,0:2|0:2,0:0:0:0:
416,45,48834,1,10,1:2:0:0:
127,47,48984,2,0,L|188:48,1,55.0000016784668,0|0,0:2|0:2,0:0:0:0:
369,347,49134,6,0,L|368:268,1,55.0000016784668,4|0,1:2|0:2,0:0:0:0:
312,296,49284,1,8,1:2:0:0:
256,292,49359,1,0,0:2:0:0:
416,215,49434,2,0,L|416:136,1,55.0000016784668,2|0,1:2|0:2,0:0:0:0:
247,158,49584,1,8,1:2:0:0:
192,160,49659,1,0,0:2:0:0:
326,109,49734,5,0,1:2:0:0:
380,112,49809,1,0,0:2:0:0:
380,112,49884,1,8,1:2:0:0:
326,109,49959,1,0,0:2:0:0:
144,216,50034,2,0,L|144:132,1,55.0000016784668,2|0,1:2|0:2,0:0:0:0:
329,218,50184,1,8,1:2:0:0:
329,152,50259,1,0,0:2:0:0:
116,33,50334,5,4,1:2:0:0:
172,32,50409,1,0,0:2:0:0:
228,32,50484,1,8,1:2:0:0:
284,32,50559,1,0,0:2:0:0:
85,134,50634,1,2,1:2:0:0:
144,136,50709,1,0,0:2:0:0:
144,136,50784,1,8,1:2:0:0:
85,134,50859,1,0,0:2:0:0:
265,362,50934,6,0,L|264:268,1,55.0000016784668,2|0,1:2|0:2,0:0:0:0:
204,308,51084,1,8,1:2:0:0:
204,308,51159,1,0,0:2:0:0:
384,180,51234,1,2,1:2:0:0:
324,180,51309,1,0,0:0:0:0:
384,180,51384,1,8,1:2:0:0:
324,180,51459,1,0,0:2:0:0:
135,180,51534,6,0,L|232:179,1,55.0000016784668,6|0,1:2|1:2,0:0:0:0:
344,88,51684,2,0,L|272:88,1,55.0000016784668,8|0,1:2|1:2,0:0:0:0:
104,296,51834,2,0,L|104:236,1,55.0000016784668,2|0,1:2|1:2,0:0:0:0:
260,248,51984,2,0,L|341:247,1,55.0000016784668,8|0,1:2|1:2,0:0:0:0:
144,211,52134,6,0,L|60:208,1,55.0000016784668,2|0,1:2|0:2,0:0:0:0:
307,211,52284,1,8,1:2:0:0:
337,211,52321,1,0,1:2:0:0:
307,211,52359,1,0,1:2:0:0:
73,127,52434,2,0,L|152:128,1,55.0000016784668,2|0,1:2|0:2,0:0:0:0:
287,128,52584,1,8,1:2:0:0:
317,128,52621,1,0,1:2:0:0:
287,128,52659,1,0,1:2:0:0:
62,360,52734,6,0,P|40:300|91:260,1,110.000003356934,2|0,1:2|0:2,0:0:0:0:
273,273,52959,2,0,L|428:272,1,110.000003356934,2|0,1:2|0:2,0:0:0:0:
191,192,53184,2,0,L|44:192,1,110.000003356934,2|0,1:2|0:2,0:0:0:0:
309,153,53409,2,0,P|340:96|282:65,1,110.000003356934,2|0,1:2|0:2,0:0:0:0:
133,62,53634,2,0,L|64:60,1,55.0000016784668,2|0,1:2|0:2,0:0:0:0:
280,28,53784,2,0,L|348:28,1,55.0000016784668,2|0,1:2|0:2,0:0:0:0:
104,350,53934,6,0,P|64:284|140:249,1,146.666671142578,0|0,1:2|0:2,0:0:0:0:
309,240,54234,1,2,0:2:0:0:
384,240,54334,1,0,0:2:0:0:
309,240,54434,1,0,0:2:0:0:
143,243,54534,1,8,1:2:0:0:
68,244,54634,1,0,0:2:0:0:
68,244,54734,1,0,0:2:0:0:
309,168,54834,1,2,0:2:0:0:
236,168,54934,1,0,0:2:0:0:
164,172,55034,1,0,0:2:0:0:
344,341,55134,6,0,L|504:340,1,146.666671142578,0|0,1:2|0:2,0:0:0:0:
295,264,55434,1,2,0:2:0:0:
220,264,55534,1,0,0:2:0:0:
220,264,55634,1,0,0:2:0:0:
383,123,55734,1,8,1:2:0:0:
308,124,55834,1,0,0:2:0:0:
236,124,55934,1,0,0:2:0:0:
403,43,56034,1,2,0:2:0:0:
476,44,56134,1,0,0:2:0:0:
403,43,56234,1,0,0:2:0:0:
178,355,56334,6,0,L|8:356,1,146.666671142578,0|0,1:2|0:2,0:0:0:0:
286,292,56634,1,2,0:2:0:0:
288,212,56734,1,0,0:2:0:0:
216,212,56834,1,0,0:2:0:0:
35,212,56934,1,8,1:2:0:0:
35,132,57034,1,0,0:2:0:0:
108,132,57134,1,0,0:2:0:0:
344,138,57234,1,2,0:2:0:0:
416,136,57334,1,0,0:2:0:0:
345,140,57434,1,0,0:2:0:0:
143,346,57534,6,0,L|324:348,1,146.666671142578,0|0,1:2|0:2,0:0:0:0:
100,273,57834,2,0,P|53:215|116:176,1,146.666671142578,2|0,0:2|0:2,0:0:0:0:
314,177,58134,2,0,B|424:176|424:176|424:120,1,146.666671142578,10|0,1:2|0:2,0:0:0:0:
196,95,58434,2,0,B|84:92|84:92|84:40,1,146.666671142578,2|0,0:2|0:2,0:0:0:0:
329,348,58734,6,0,P|364:268|306:246,1,146.666671142578,4|0,1:2|0:2,0:0:0:0:
133,180,59034,1,2,0:2:0:0:
208,180,59134,1,0,0:2:0:0:
280,180,59234,1,0,0:2:0:0:
114,113,59334,1,8,1:2:0:0:
40,112,59434,1,0,0:2:0:0:
40,112,59534,1,0,0:2:0:0:
262,314,59634,1,2,0:2:0:0:
188,316,59734,1,0,0:2:0:0:
116,316,59834,1,0,0:2:0:0:
317,243,59934,6,0,L|484:244,1,146.666671142578,0|0,1:2|0:2,0:0:0:0:
253,175,60234,1,2,0:2:0:0:
252,95,60334,1,0,0:2:0:0:
324,96,60434,1,0,0:2:0:0:
122,93,60534,1,8,1:2:0:0:
48,96,60634,1,0,0:2:0:0:
123,93,60734,1,0,0:2:0:0:
328,273,60834,1,2,0:2:0:0:
400,272,60934,1,0,0:2:0:0:
329,271,61034,1,0,0:2:0:0:
139,210,61134,6,0,L|320:208,1,146.666671142578,0|0,1:2|0:2,0:0:0:0:
82,144,61434,1,2,0:2:0:0:
8,144,61534,1,0,0:2:0:0:
82,140,61634,1,0,0:2:0:0:
291,76,61734,1,8,1:2:0:0:
216,72,61834,1,0,0:2:0:0:
144,76,61934,1,0,0:2:0:0:
338,180,62034,1,2,0:2:0:0:
412,180,62134,1,0,0:2:0:0:
339,178,62234,1,0,0:2:0:0:
125,351,62334,5,2,0:2:0:0:
285,351,62534,2,0,L|176:352,1,73.3333355712891,2|2,0:2|0:2,0:0:0:0:
365,351,62834,1,2,0:2:0:0:
131,188,62934,1,2,0:2:0:0:
204,188,63034,1,2,0:2:0:0:
131,190,63134,1,2,0:2:0:0:
348,116,63234,2,0,L|144:116,1,146.666671142578,2|0,1:2|0:2,0:0:0:0:
412,354,63534,6,0,P|456:304|406:252,1,146.666671142578,4|0,1:2|0:2,0:0:0:0:
215,251,63834,1,10,1:2:0:0:
214,171,63934,1,0,0:2:0:0:
288,172,64034,1,0,0:2:0:0:
120,108,64134,1,0,0:2:0:0:
48,108,64234,1,0,0:2:0:0:
235,105,64334,1,0,1:2:0:0:
79,40,64434,1,10,1:2:0:0:
152,40,64534,1,0,0:2:0:0:
224,40,64634,1,0,0:2:0:0:
44,358,64734,6,0,B|44:248|44:248|140:248,1,146.666671142578,0|0,1:2|0:2,0:0:0:0:
304,168,65034,1,10,1:2:0:0:
232,168,65134,1,0,0:2:0:0:
160,168,65234,1,0,0:2:0:0:
336,349,65334,1,0,0:2:0:0:
336,269,65434,1,0,0:2:0:0:
168,270,65534,1,0,1:2:0:0:
383,197,65634,1,10,1:2:0:0:
456,196,65734,1,0,0:2:0:0:
383,197,65834,1,0,0:2:0:0:
201,133,65934,6,0,L|376:132,1,146.666671142578,4|0,1:2|0:2,0:0:0:0:
132,75,66234,1,10,1:2:0:0:
204,76,66334,1,0,0:2:0:0:
131,75,66434,1,0,0:2:0:0:
350,310,66534,1,0,0:2:0:0:
276,308,66634,1,0,0:2:0:0:
457,246,66734,1,0,1:2:0:0:
245,241,66834,1,10,1:2:0:0:
320,240,66934,1,0,0:2:0:0:
392,240,67034,1,0,0:2:0:0:
194,158,67134,6,0,L|24:156,1,146.666671142578,2|0,1:2|0:2,0:0:0:0:
221,331,67434,2,0,L|408:328,1,146.666671142578,2|0,1:2|0:2,0:0:0:0:
146,219,67734,1,10,0:2:0:0:
220,220,67834,1,0,0:2:0:0:
145,221,67934,1,0,1:2:0:0:
357,129,68034,1,10,1:2:0:0:
284,128,68134,1,0,0:2:0:0:
212,128,68234,1,0,0:2:0:0:
397,346,68334,6,0,P|440:288|372:260,1,146.666671142578,4|0,1:2|0:2,0:0:0:0:
205,233,68634,1,10,1:2:0:0:
280,236,68734,1,0,0:2:0:0:
120,168,68834,1,0,1:2:0:0:
313,152,68934,1,8,1:2:0:0:
312,72,69034,1,0,0:2:0:0:
152,72,69134,1,0,1:2:0:0:
379,109,69234,1,10,1:2:0:0:
304,108,69334,1,0,1:2:0:0:
378,108,69434,1,0,1:2:0:0:
184,338,69534,6,0,L|356:340,1,146.666671142578,4|0,1:2|0:2,0:0:0:0:
132,274,69834,1,10,1:2:0:0:
130,194,69934,1,0,0:2:0:0:
340,195,70034,1,0,1:2:0:0:
159,120,70134,1,8,1:2:0:0:
232,120,70234,1,0,0:2:0:0:
61,60,70334,1,0,1:2:0:0:
286,58,70434,1,10,1:2:0:0:
212,56,70534,1,0,1:2:0:0:
140,56,70634,1,0,1:2:0:0:
403,265,70734,5,4,1:2:0:0:
328,264,70834,1,0,1:2:0:0:
403,265,70934,1,0,1:2:0:0:
183,200,71034,1,10,1:2:0:0:
256,200,71134,1,0,1:2:0:0:
328,196,71234,1,0,1:2:0:0:
114,131,71334,1,8,1:2:0:0:
188,132,71434,1,0,1:2:0:0:
114,131,71534,1,0,1:2:0:0:
311,331,71634,1,10,1:2:0:0:
236,332,71734,1,0,1:2:0:0:
424,274,71834,1,0,1:2:0:0:
188,153,71934,6,0,L|375:153,1,159.999995117188,2|0,1:2|0:2,0:0:0:0:
148,95,72234,2,0,L|337:95,1,159.999995117188,2|0,1:2|0:2,0:0:0:0:
109,42,72534,2,0,L|300:42,1,159.999995117188,2|0,1:2|0:2,0:0:0:0:
90,356,72834,2,0,P|35:299|100:228,1,179.999994506836,8|0,0:2|0:2,0:0:0:0:
368,172,73134,6,0,L|104:172,1,239.999992675781,4|8,1:2|1:2,0:0:0:0:
392,272,73584,2,0,L|448:220,1,59.9999981689454,0|0,0:2|0:2,0:0:0:0:
392,272,73734,2,0,L|156:272,1,220.000006713867,0|0,1:2|0:2,0:0:0:0:
124,272,73959,1,0,0:2:0:0:
172,272,74034,2,0,L|416:272,1,220.000006713867,8|0,1:2|0:2,0:0:0:0:
440,272,74259,1,0,0:2:0:0:
248,176,74334,5,0,1:2:0:0:
368,176,74484,1,0,0:2:0:0:
104,176,74634,1,8,1:2:0:0:
368,176,74784,1,0,0:2:0:0:
308,176,74859,1,0,0:2:0:0:
135,94,74934,1,0,1:2:0:0:
255,94,75084,1,0,0:2:0:0:
21,44,75234,1,8,1:2:0:0:
257,39,75384,1,0,0:2:0:0:
21,44,75534,6,0,L|303:44,1,220.000006713867,0|0,1:2|0:2,0:0:0:0:
288,44,75759,1,0,0:2:0:0:
241,44,75834,2,0,L|481:44,1,220.000006713867,8|0,1:2|0:2,0:0:0:0:
217,340,76134,1,0,1:2:0:0:
97,341,76284,1,0,0:2:0:0:
339,248,76434,1,8,1:2:0:0:
97,341,76584,1,0,0:2:0:0:
349,153,76734,5,0,1:2:0:0:
229,157,76884,1,0,1:2:0:0:
468,89,77034,1,8,1:2:0:0:
348,91,77184,1,0,1:2:0:0:
35,338,77334,6,0,B|434:334|434:334|431:61,1,600,2|0,1:2|0:2,0:0:0:0:
431,133,77634,2,0,B|34:135|34:135|34:351,1,600,2|0,1:2|0:2,0:0:0:0:
244,344,77934,6,0,L|490:344,1,220.000006713867,4|0,1:2|0:2,0:0:0:0:
496,344,78159,1,0,0:2:0:0:
464,344,78234,1,0,1:2:0:0:
257,347,78384,1,0,0:2:0:0:
37,347,78534,6,0,L|311:347,1,220.000006713867,0|0,1:2|0:2,0:0:0:0:
304,348,78759,1,0,0:2:0:0:
257,347,78834,2,0,L|9:348,1,220.000006713867,8|0,1:2|0:2,0:0:0:0:
257,272,79059,1,0,1:2:0:0:
481,209,79134,6,0,L|202:209,1,220.000006713867,2|0,1:2|0:2,0:0:0:0:
212,208,79359,1,0,0:2:0:0:
261,209,79434,1,8,1:2:0:0:
483,208,79584,1,0,0:2:0:0:
247,138,79734,5,2,1:2:0:0:
366,139,79884,1,0,0:2:0:0:
126,68,80034,1,8,1:2:0:0:
366,139,80184,1,0,1:2:0:0:
306,141,80259,1,0,1:2:0:0:
154,336,80334,6,0,L|155:240,1,59.9999981689454,6|0,1:2|1:2,0:0:0:0:
215,277,80484,2,0,L|313:277,1,59.9999981689454,0|0,1:2|1:2,0:0:0:0:
95,200,80634,2,0,L|197:200,1,59.9999981689454,10|0,1:2|1:2,0:0:0:0:
335,244,80784,2,0,L|335:167,1,59.9999981689454,0|0,1:2|1:2,0:0:0:0:
128,123,80934,6,0,L|48:123,1,59.9999981689454,2|0,1:2|0:2,0:0:0:0:
247,122,81084,1,8,1:2:0:0:
277,122,81121,1,0,1:2:0:0:
307,122,81159,1,0,1:2:0:0:
125,302,81234,2,0,L|48:304,1,59.9999981689454,2|0,1:2|0:2,0:0:0:0:
301,188,81384,2,0,L|342:188,2,29.9999990844727,8|0|0,1:2|1:2|1:2,0:0:0:0:
29,52,81534,6,0,L|500:51,2,440.000013427735,2|2|2,1:2|1:2|1:2,0:0:0:0:
86,49,82209,1,0,0:2:0:0:
29,52,82284,1,0,0:2:0:0:
86,49,82359,1,0,0:2:0:0:
266,250,82434,2,0,P|320:197|235:141,1,179.999994506836,8|0,0:2|0:2,0:0:0:0:
77,98,82734,6,0,L|328:96,1,239.999992675781,4|8,1:2|1:2,0:0:0:0:
37,271,83184,2,0,L|108:221,1,59.9999981689454,0|0,0:2|0:2,0:0:0:0:
37,271,83334,2,0,L|289:271,1,220.000006713867,0|0,1:2|0:2,0:0:0:0:
304,272,83559,1,0,0:2:0:0:
257,271,83634,2,0,L|489:271,1,220.000006713867,8|0,1:2|0:2,0:0:0:0:
206,189,83934,5,0,1:2:0:0:
202,69,84084,1,0,0:2:0:0:
445,71,84234,1,8,1:2:0:0:
202,69,84384,1,0,0:2:0:0:
152,68,84459,1,0,0:2:0:0:
316,349,84534,1,0,1:2:0:0:
435,348,84684,1,0,0:2:0:0:
197,280,84834,1,8,1:2:0:0:
435,348,84984,1,0,0:2:0:0:
103,201,85134,6,0,L|370:202,1,220.000006713867,0|0,1:2|0:2,0:0:0:0:
372,200,85359,1,0,0:2:0:0:
322,201,85434,2,0,L|90:200,1,220.000006713867,8|0,1:2|0:2,0:0:0:0:
343,116,85734,1,0,1:2:0:0:
462,118,85884,1,0,0:2:0:0:
164,129,86034,1,8,1:2:0:0:
44,126,86184,1,0,0:2:0:0:
285,330,86334,5,0,1:2:0:0:
153,330,86484,1,0,1:2:0:0:
386,262,86634,1,8,1:2:0:0:
254,262,86784,1,0,1:2:0:0:
472,317,86934,6,0,B|70:319|70:319|70:98,1,600,2|0,1:2|0:2,0:0:0:0:
71,320,87234,2,0,B|473:322|473:322|473:96,1,600,2|0,1:2|0:2,0:0:0:0:
264,84,87534,6,0,L|-1:85,1,220.000006713867,4|0,1:2|0:2,0:0:0:0:
8,84,87759,1,0,0:2:0:0:
44,84,87834,1,8,1:2:0:0:
252,76,87984,1,0,0:2:0:0:
458,122,88134,2,0,L|229:122,1,220.000006713867,0|0,1:2|0:2,0:0:0:0:
188,120,88359,1,0,0:2:0:0:
238,122,88434,2,0,L|478:123,1,220.000006713867,8|0,1:2|0:2,0:0:0:0:
238,122,88659,1,0,1:2:0:0:
19,122,88734,6,0,L|263:122,1,220.000006713867,2|0,1:2|0:2,0:0:0:0:
288,120,88959,1,0,0:2:0:0:
238,122,89034,1,8,1:2:0:0:
20,122,89184,1,0,0:2:0:0:
299,195,89334,1,2,1:2:0:0:
179,197,89484,1,0,0:2:0:0:
417,123,89634,1,10,1:2:0:0:
179,197,89784,2,0,L|179:118,1,59.9999981689454,0|0,1:2|1:2,0:0:0:0:
366,359,89934,6,0,L|470:359,1,59.9999981689454,6|0,1:2|1:2,0:0:0:0:
237,316,90084,2,0,L|237:238,1,59.9999981689454,0|0,1:2|1:2,0:0:0:0:
402,249,90234,2,0,L|481:249,1,59.9999981689454,10|0,1:2|1:2,0:0:0:0:
297,256,90384,2,0,L|208:256,1,59.9999981689454,0|0,1:2|1:2,0:0:0:0:
391,190,90534,6,0,L|393:105,1,59.9999981689454,2|0,1:2|0:2,0:0:0:0:
213,76,90684,2,0,L|171:76,2,29.9999990844727,8|0|0,1:2|1:2|1:2,0:0:0:0:
404,47,90834,2,0,L|331:47,1,59.9999981689454,2|0,1:2|0:2,0:0:0:0:
139,161,90984,2,0,L|138:110,1,29.9999990844727,8|0,1:2|1:2,0:0:0:0:
169,133,91059,1,0,1:2:0:0:
479,128,91134,6,0,L|30:128,2,440.000013427735,2|2|2,1:2|1:2|1:2,0:0:0:0:
424,128,91809,1,0,0:2:0:0:
479,128,91884,1,0,0:2:0:0:
424,128,91959,1,0,0:2:0:0:
243,332,92034,2,0,P|181:291|256:247,1,179.999994506836,8|0,0:2|0:2,0:0:0:0:
442,244,92334,5,4,1:2:0:0:
172,217,94584,5,2,1:2:0:0:
410,215,94734,1,2,1:2:0:0:
339,193,96234,5,0,1:2:0:0:
299,194,96284,1,0,1:2:0:0:
259,195,96334,1,0,1:2:0:0:
219,196,96384,1,0,1:2:0:0:
159,198,96459,1,0,1:2:0:0:
363,329,96534,6,0,L|496:329,1,119.999996337891,2|0,1:2|0:2,0:0:0:0:
291,280,96759,2,0,L|146:280,1,119.999996337891,2|0,1:2|0:2,0:0:0:0:
362,227,96984,2,0,L|281:226,1,59.9999981689454,2|0,1:2|0:2,0:0:0:0:
69,148,97134,5,6,1:2:0:0:
188,148,97284,1,0,0:2:0:0:
69,148,97434,1,8,0:2:0:0:
319,341,97584,5,2,1:2:0:0:
319,281,97659,1,0,0:2:0:0:
259,283,97734,1,0,0:2:0:0:
260,223,97809,1,0,0:2:0:0:
319,223,97884,1,0,0:2:0:0:
378,222,97959,1,0,0:2:0:0:
172,90,98034,5,2,1:2:0:0:
291,88,98184,1,0,0:2:0:0:
231,91,98259,1,0,0:2:0:0:
171,91,98334,1,0,0:2:0:0:
434,130,98484,5,2,1:2:0:0:
314,130,98634,1,8,0:2:0:0:
434,130,98784,1,0,0:2:0:0:
374,132,98859,1,0,0:2:0:0:
179,336,98934,5,2,1:2:0:0:
119,336,99009,1,0,0:2:0:0:
119,336,99084,1,0,0:2:0:0:
179,336,99159,1,0,0:2:0:0:
346,241,99234,5,2,1:2:0:0:
226,243,99384,1,0,0:2:0:0:
166,243,99459,1,0,0:2:0:0:
377,165,99534,5,2,1:2:0:0:
257,167,99684,1,0,0:2:0:0:
377,165,99834,1,8,0:2:0:0:
137,102,99984,5,2,1:2:0:0:
256,100,100134,1,8,0:2:0:0:
21,61,100284,1,0,1:2:0:0:
21,61,100321,1,0,1:2:0:0:
21,61,100359,1,0,1:2:0:0:
206,239,100434,5,10,1:2:0:0:
345,240,100509,1,8,1:2:0:0:
483,239,100584,1,8,1:2:0:0:
345,240,100659,1,8,1:2:0:0:
31,356,100734,6,0,L|31:217,1,119.999996337891,10|0,1:2|0:2,0:0:0:0:
483,359,101034,6,0,L|483:220,1,119.999996337891,10|0,1:2|0:2,0:0:0:0:
31,356,101334,6,0,L|32:221,1,119.999996337891,10|10,1:2|1:2,0:0:0:0:
239,229,101559,1,10,1:2:0:0:
444,229,101634,2,0,P|494:182|413:108,1,179.999994506836,0|0,0:0|0:0,0:0:0:0:
184,342,101934,6,0,L|365:342,1,179.999994506836,4|0,1:2|0:2,0:0:0:0:
184,253,102234,1,8,1:2:0:0:
127,253,102309,1,0,0:2:0:0:
105,201,102384,1,0,0:2:0:0:
145,161,102459,1,0,0:2:0:0:
305,151,102534,2,0,L|380:153,1,59.9999981689454,0|0,1:2|0:2,0:0:0:0:
203,115,102684,2,0,L|203:35,1,59.9999981689454,0|0,0:2|0:2,0:0:0:0:
375,314,102834,2,0,L|500:314,1,119.999996337891,8|0,1:2|0:2,0:0:0:0:
206,246,103134,5,0,1:2:0:0:
343,243,103284,2,0,L|345:149,1,59.9999981689454,0|0,0:2|0:2,0:0:0:0:
177,151,103434,2,0,L|102:152,2,59.9999981689454,8|0|0,1:2|0:2|0:2,0:0:0:0:
343,98,103659,2,0,L|425:98,2,59.9999981689454,0|0|0,0:2|1:2|0:2,0:0:0:0:
179,86,103884,2,0,L|101:87,2,59.9999981689454,0|0|8,0:2|0:2|1:2,0:0:0:0:
238,85,104109,1,0,0:2:0:0:
419,91,104184,2,0,L|419:15,1,59.9999981689454,0|0,0:2|0:2,0:0:0:0:
186,338,104334,6,0,L|32:340,1,119.999996337891,4|0,1:2|0:2,0:0:0:0:
397,261,104634,2,0,L|475:260,1,59.9999981689454,8|0,1:2|0:2,0:0:0:0:
273,267,104784,2,0,L|204:268,1,59.9999981689454,0|0,0:2|0:2,0:0:0:0:
32,268,104934,6,0,L|114:268,1,59.9999981689454,0|0,1:2|0:2,0:0:0:0:
272,176,105084,2,0,L|340:176,1,59.9999981689454,0|0,0:2|0:2,0:0:0:0:
148,116,105234,2,0,L|225:116,1,59.9999981689454,8|0,1:2|0:2,0:0:0:0:
388,52,105384,2,0,L|279:51,1,59.9999981689454,0|0,0:2|0:2,0:0:0:0:
148,232,105534,5,2,1:2:0:0:
87,259,105609,1,0,0:2:0:0:
35,281,105684,1,0,0:2:0:0:
87,259,105759,1,0,0:2:0:0:
328,248,105834,2,0,L|252:248,1,59.9999981689454,8|0,1:2|0:2,0:0:0:0:
77,127,105984,2,0,L|171:127,1,59.9999981689454,0|0,0:2|0:2,0:0:0:0:
292,131,106134,5,2,1:2:0:0:
137,127,106209,2,0,L|137:43,1,59.9999981689454,2|0,1:2|0:2,0:0:0:0:
292,72,106359,1,2,1:2:0:0:
137,67,106434,2,0,L|52:67,1,59.9999981689454,2|0,1:2|0:2,0:0:0:0:
278,80,106584,2,0,L|356:80,1,59.9999981689454,0|0,1:2|0:2,0:0:0:0:
137,351,106734,6,0,L|138:257,1,59.9999981689454,6|0,1:2|1:2,0:0:0:0:
212,288,106884,2,0,L|212:208,1,59.9999981689454,0|0,1:2|1:2,0:0:0:0:
20,292,107034,1,0,1:2:0:0:
274,192,107184,6,0,L|276:120,1,59.9999981689454,2|0,1:2|1:2,0:0:0:0:
200,132,107334,2,0,L|200:56,1,59.9999981689454,0|0,1:2|1:2,0:0:0:0:
392,116,107484,1,0,1:2:0:0:
153,309,107634,6,0,L|244:308,1,59.9999981689454,2|0,1:2|1:2,0:0:0:0:
268,308,107784,2,0,L|341:309,1,59.9999981689454,0|0,1:2|1:2,0:0:0:0:
168,196,107934,2,0,L|262:195,1,59.9999981689454,2|0,1:2|1:2,0:0:0:0:
372,196,108084,2,0,L|451:195,1,59.9999981689454,0|0,1:2|1:2,0:0:0:0:
252,132,108234,1,0,1:2:0:0:
467,68,108384,6,0,L|384:68,1,59.9999981689454,2|0,1:2|1:2,0:0:0:0:
225,68,108534,2,0,L|128:68,1,59.9999981689454,0|0,1:2|1:2,0:0:0:0:
345,70,108684,1,0,1:2:0:0:
101,361,108834,6,0,L|102:294,1,59.9999981689454,2|0,1:2|1:2,0:0:0:0:
292,297,108984,2,0,L|371:296,1,59.9999981689454,0|0,1:2|1:2,0:0:0:0:
152,244,109134,6,0,L|235:242,1,59.9999981689454,2|0,1:2|0:2,0:0:0:0:
372,177,109284,2,0,L|441:177,2,39.9999987792969,0|0|0,1:2|1:2|1:2,0:0:0:0:
213,126,109434,2,0,L|296:126,1,59.9999981689454,2|0,1:2|0:2,0:0:0:0:
455,68,109584,1,0,1:2:0:0:
415,68,109634,1,0,1:2:0:0:
375,68,109684,1,0,1:2:0:0:
214,64,109734,6,0,L|138:64,1,59.9999981689454,2|0,1:2|0:2,0:0:0:0:
331,15,109884,2,0,L|369:15,2,29.9999990844727,2|0|0,1:2|1:2|1:2,0:0:0:0:
145,356,110034,2,0,L|36:356,1,59.9999981689454,2|0,1:2|0:2,0:0:0:0:
327,290,110184,1,2,1:2:0:0:
357,290,110221,1,0,1:2:0:0:
387,290,110259,1,0,1:2:0:0:
209,237,110334,5,2,1:2:0:0:
149,229,110409,1,0,0:2:0:0:
99,198,110484,1,0,0:2:0:0:
65,149,110559,1,0,0:2:0:0:
281,188,110634,1,2,1:2:0:0:
340,181,110709,1,0,0:2:0:0:
392,153,110784,1,0,0:2:0:0:
431,108,110859,1,0,0:2:0:0:
208,105,110934,6,0,L|137:104,2,59.9999981689454,2|0|0,1:2|0:2|0:2,0:0:0:0:
384,38,111159,2,0,L|464:37,2,59.9999981689454,2|0|0,1:2|0:2|0:2,0:0:0:0:
161,42,111384,2,0,L|86:42,1,59.9999981689454,2|0,1:2|0:2,0:0:0:0:
355,279,111534,5,8,1:2:0:0:
248,277,111684,1,0,1:2:0:0:
470,200,111834,1,0,1:2:0:0:
194,142,111984,5,8,1:2:0:0:
302,142,112134,1,0,1:2:0:0:
50,59,112284,1,0,1:2:0:0:
317,62,112434,6,0,L|396:61,1,59.9999981689454,8|0,1:2|1:2,0:0:0:0:
84,291,112584,5,12,1:2:0:0:
256,192,112734,12,0,117534,0:2:0:0:
