osu file format v14

[General]
AudioFilename: mp3.mp3
AudioLeadIn: 0
PreviewTime: 93830
Countdown: 0
SampleSet: Normal
StackLeniency: 0.7
Mode: 0
LetterboxInBreaks: 0
WidescreenStoryboard: 0

[Editor]
DistanceSpacing: 1.1
BeatDivisor: 4
GridSize: 4
TimelineZoom: 2.4

[Metadata]
Title:Tits or get the fuck out!!
TitleUnicode:Tits or get the fuck out!!
Artist:Morimori Atsushi
ArtistUnicode:モリモリあつし
Creator:Regou
Version:Normal!!
Source:東方Project
Tags:zun 上海アリス幻樂団 team shanghai alice 東方神霊廟 ten desires. touhou shinreibyou デザイアドライブ desire drive アレンジ arrange Frey Blizs -N_a_n_a_k_o- FreeSongs -Nanako- Fantastica
BeatmapID:976028
BeatmapSetID:455022

[Difficulty]
HPDrainRate:3
CircleSize:3
OverallDifficulty:4
ApproachRate:5
SliderMultiplier:0.799999999999999
SliderTickRate:1

[Events]
//Background and Video events
0,0,"maxresdefault.jpg",0,0
//Break Periods
2,73371,76034
//Storyboard Layer 0 (Background)
//Storyboard Layer 1 (Fail)
//Storyboard Layer 2 (Pass)
//Storyboard Layer 3 (Foreground)
//Storyboard Sound Samples

[TimingPoints]
3353,272.727272727273,4,1,1,100,1,0
3353,-100,4,1,1,100,0,0
20534,-100,4,1,1,100,0,0
28443,-100,4,1,1,100,0,0
29534,-100,4,1,1,100,0,0
31171,-100,4,1,5,70,0,0
31443,-100,4,1,1,100,0,0
35534,-100,4,1,5,100,0,0
35807,-100,4,1,1,100,0,0
36080,-100,4,1,1,100,0,0
38262,-100,4,1,2,100,0,0
40443,-100,4,1,2,100,0,0
42625,-100,4,1,2,100,0,0
44807,-100,4,1,2,100,0,0
46443,-100,4,1,10,80,0,0
46989,-100,4,1,2,100,0,0
48898,-100,4,1,1,100,0,0
49171,-100,4,1,2,100,0,0
51284,-100,4,1,2,100,0,0
52989,-100,4,1,99,70,0,0
53125,-100,4,1,99,50,0,0
53262,-100,4,1,2,100,0,0
53534,-100,4,1,2,100,0,0
54080,-100,4,1,1,100,0,0
54216,-100,4,1,2,100,0,0
54625,-100,4,1,1,100,0,0
55171,-100,4,1,1,100,0,0
55443,-100,4,1,3,100,0,0
55580,-100,4,1,2,100,0,0
55716,-100,4,1,1,100,0,0
57080,-100,4,1,1,100,0,0
57353,-100,4,1,1,100,0,0
57625,-100,4,1,1,100,0,0
57898,-100,4,1,2,70,0,0
58171,-100,4,1,2,80,0,0
58443,-100,4,1,2,90,0,0
58716,-100,4,1,2,100,0,0
58989,-100,4,1,1,100,0,0
62262,-100,4,1,1,70,0,0
63080,-100,4,1,1,100,0,0
63353,-100,4,1,1,100,0,0
64171,-100,4,1,2,100,0,0
64443,-100,4,1,1,100,0,0
66080,-100,4,1,5,70,0,0
66216,-100,4,1,1,100,0,0
66625,-100,4,1,2,70,0,0
66898,-100,4,1,2,80,0,0
67171,-100,4,1,2,90,0,0
67443,-100,4,1,2,100,0,0
67716,-100,4,1,1,100,0,0
69353,-100,4,1,1,100,0,0
69830,-100,4,1,1,100,0,0
70239,-100,4,1,2,70,0,0
70443,-100,4,1,5,80,0,0
70716,-100,4,1,1,100,0,0
70853,-100,4,1,2,70,0,0
70989,-100,4,1,1,100,0,0
72080,-100,4,2,3,70,0,0
72148,-100,4,2,3,100,0,0
72898,-100,4,2,1,100,0,0
77534,-100,4,2,2,60,0,0
78216,-100,4,2,3,60,0,0
81898,-100,4,2,10,40,0,0
84080,-100,4,2,3,70,0,0
84898,-100,4,2,3,80,0,0
85716,-100,4,2,69,85,0,0
85989,-100,4,2,69,70,0,0
86125,-100,4,2,69,60,0,0
86262,-100,4,1,1,100,0,0
89534,-100,4,1,4,100,0,0
90080,-100,4,1,1,100,0,0
93898,-100,4,1,1,100,0,0
94034,-100,4,1,1,100,0,0
94171,-100,4,1,2,100,0,0
94443,-100,4,1,6,100,0,0
94580,-100,4,1,7,80,0,0
94716,-100,4,1,1,100,0,0
94989,-100,4,1,1,100,0,1
98807,-100,4,2,8,100,0,1
99216,-100,4,1,1,100,0,1
101534,-100,4,1,1,100,0,1
103989,-100,4,1,1,100,0,1
107534,-100,4,2,8,100,0,1
108080,-100,4,1,1,100,0,1
109239,-100,4,1,2,100,0,1
109443,-100,4,1,1,100,0,1
109784,-100,4,1,2,100,0,1
109989,-100,4,1,1,100,0,1
110262,-100,4,1,1,100,0,1
112443,-100,4,2,1,80,0,0
116807,-100,4,3,2,70,0,0
117353,-100,4,3,2,80,0,0
117898,-100,4,3,2,90,0,0
118443,-100,4,3,2,100,0,0
118989,-100,4,1,1,70,0,0
119534,-100,4,1,1,90,0,0
120080,-100,4,1,1,100,0,0
121171,-100,4,1,2,90,0,0
121307,-100,4,1,1,90,0,0
124716,-100,4,1,2,90,0,0
124989,-100,4,1,1,100,0,0
125534,-100,4,1,1,100,0,1
127716,-100,4,1,1,100,0,1
129898,-100,4,1,1,100,0,0

[Colours]
Combo1 : 0,128,255
Combo2 : 0,255,255
Combo3 : 128,128,255
Combo4 : 166,0,255

[HitObjects]
256,192,16443,12,4,19716,2:0:0:0:
104,344,20807,6,0,P|56:336|16:312,2,79.9999999999999,4|8|0,0:3|0:0|0:0,0:0:0:0:
88,256,21625,1,8,0:0:0:0:
172,284,21898,2,0,P|180:248|160:200,1,79.9999999999999,0|8,0:0|0:0,0:0:0:0:
88,168,22443,2,0,P|74:130|82:92,1,79.9999999999999,6|8,0:0|0:0,0:0:0:0:
96,4,22989,5,6,0:0:0:0:
184,20,23262,1,10,0:0:0:0:
168,108,23534,2,0,P|208:104|252:96,1,79.9999999999999,0|8,0:0|0:0,0:0:0:0:
280,180,24080,5,0,0:0:0:0:
192,196,24353,1,8,0:0:0:0:
208,284,24625,2,0,P|168:280|124:272,1,79.9999999999999,4|8,0:0|0:0,0:0:0:0:
148,360,25171,6,0,P|184:372|236:368,1,79.9999999999999,6|8,0:0|0:0,0:0:0:0:
292,312,25716,1,0,0:0:0:0:
276,224,25989,1,8,0:0:0:0:
324,152,26262,2,0,P|368:144|408:144,2,79.9999999999999,0|8|4,0:0|0:0|0:0,0:0:0:0:
276,224,27080,1,8,0:0:0:0:
236,144,27353,6,0,P|228:104|224:56,1,79.9999999999999,4|8,0:0|0:0,0:0:0:0:
136,52,27898,2,0,P|144:92|148:140,1,79.9999999999999,0|8,0:0|0:0,0:0:0:0:
64,160,28443,1,2,3:0:0:0:
64,160,29534,6,0,P|32:176|-20:184,2,79.9999999999999,6|10|0,0:0|0:0|0:0,0:0:0:0:
136,112,30353,1,8,0:0:0:0:
56,80,30625,2,0,P|44:28|44:-4,2,79.9999999999999,0|8|4,0:0|0:0|2:1,0:0:0:0:
228,44,31716,5,6,0:0:0:0:
256,128,31989,1,10,0:0:0:0:
232,212,32262,2,0,P|228:268|232:304,1,79.9999999999999,0|8,0:0|0:0,0:0:0:0:
256,376,32807,1,2,0:3:0:0:
480,296,33898,6,0,P|440:292|396:268,2,79.9999999999999,6|8|0,0:0|0:0|0:0,0:0:0:0:
460,212,34716,1,8,0:0:0:0:
488,128,34989,2,0,P|484:80|480:44,1,79.9999999999999,0|8,0:0|0:0,0:0:0:0:
404,8,35534,1,4,2:1:0:0:
236,60,36080,6,0,L|240:148,1,79.9999999999999,6|8,0:0|0:0,0:0:0:0:
272,220,36625,2,0,L|268:308,1,79.9999999999999,6|14,0:0|0:0,0:0:0:0:
224,376,37171,1,0,0:0:0:0:
48,292,38262,6,0,P|20:256|36:144,1,160,4|8,3:3|2:0,0:0:0:0:
160,28,39353,2,0,P|181:103|144:171,1,160,0|8,2:0|2:0,0:0:0:0:
196,340,40443,2,0,B|380:264|344:400|512:336,1,320,4|2,0:3|2:0,0:0:0:0:
456,264,41807,1,8,2:0:0:0:
480,180,42080,2,0,P|488:136|488:96,1,79.9999999999999,8|8,2:0|2:0,0:0:0:0:
424,40,42625,6,0,P|352:20|292:80,1,160,4|8,3:3|2:0,0:0:0:0:
272,248,43716,2,0,P|344:268|404:208,1,160,0|8,2:0|2:0,0:0:0:0:
240,148,44807,6,0,P|140:144|72:132,2,160,4|2|0,0:3|2:0|2:0,0:0:0:0:
304,84,46171,1,8,2:0:0:0:
248,20,46443,1,6,2:1:0:0:
248,20,46716,1,6,2:1:0:0:
176,72,46989,6,0,P|148:136|184:220,1,160,4|8,3:3|2:0,0:0:0:0:
344,284,48080,2,0,P|372:220|340:136,1,160,2|8,2:0|2:0,0:0:0:0:
252,296,49171,6,0,P|172:304|92:340,1,160,4|8,3:3|2:0,0:0:0:0:
16,304,49989,1,0,2:0:0:0:
80,244,50262,2,0,P|88:200|84:160,1,79.9999999999999,2|8,2:0|2:0,0:0:0:0:
32,96,50807,2,0,P|24:48|24:4,1,79.9999999999999,2|8,2:0|2:0,0:0:0:0:
256,192,51353,12,4,52443,2:0:0:0:
236,264,53534,6,0,P|176:268|88:212,1,160,4|8,3:0|2:0,0:0:0:0:
256,156,54625,2,0,P|316:152|404:208,1,160,4|2,3:0|3:0,0:0:0:0:
484,176,55443,1,4,2:3:0:0:
468,264,55716,6,0,P|460:320|456:352,1,79.9999999999999,4|0,1:3|0:0,0:0:0:0:
368,360,56262,1,0,0:0:0:0:
284,332,56534,1,8,0:0:0:0:
200,364,56807,6,0,P|152:372|112:372,2,79.9999999999999,6|8|4,0:0|0:0|0:0,0:0:0:0:
284,332,57625,1,8,0:0:0:0:
216,276,57898,6,0,P|208:236|204:184,1,79.9999999999999,4|8,1:1|0:2,0:0:0:0:
260,128,58443,2,0,P|254:88|244:49,1,79.9999999999999,0|8,0:0|0:2,0:0:0:0:
160,24,58989,5,6,0:0:0:0:
84,68,59262,1,8,0:0:0:0:
164,108,59534,1,2,0:3:0:0:
88,156,59807,1,8,0:0:0:0:
168,196,60080,6,0,P|100:240|24:216,1,160,2|0,1:3|0:0,0:0:0:0:
88,156,60898,1,8,0:0:0:0:
24,96,61171,2,0,P|16:56|16:12,1,79.9999999999999,4|8,0:0|0:0,0:0:0:0:
100,44,61716,2,0,P|140:36|180:36,1,79.9999999999999,0|8,1:0|0:0,0:0:0:0:
264,16,62262,6,0,B|300:152|216:128|252:252,1,240,2|10,2:1|0:0,0:0:0:0:
204,324,63353,2,0,P|152:336|108:348,2,79.9999999999999,2|2|2,3:0|3:0|3:0,0:0:0:0:
292,328,64171,1,0,3:0:0:0:
372,364,64443,6,0,P|424:376|460:364,1,79.9999999999999,4|8,0:0|0:0,0:0:0:0:
504,300,64989,1,0,0:0:0:0:
464,220,65262,1,8,0:0:0:0:
492,136,65534,2,0,P|492:96|488:48,2,79.9999999999999,0|8|4,0:0|0:0|2:1,0:0:0:0:
328,208,66625,6,0,P|280:220|240:216,1,79.9999999999999,4|8,1:0|0:2,0:0:0:0:
164,192,67171,2,0,P|132:164|112:120,1,79.9999999999999,0|0,0:0|0:0,0:0:0:0:
96,44,67716,1,2,0:3:0:0:
96,44,68807,6,0,P|44:52|8:52,2,79.9999999999999,6|8|2,0:0|0:0|3:3,0:0:0:0:
180,16,69625,1,8,0:0:0:0:
168,104,69898,2,0,P|168:156|176:188,1,79.9999999999999,4|8,0:0|0:0,0:0:0:0:
220,260,70443,2,0,P|221:299|213:339,1,79.9999999999999,4|8,2:1|1:1,0:0:0:0:
128,364,70989,6,0,P|60:360|80:168,1,320,4|4,0:0|2:0,0:0:0:0:
256,192,73171,5,2,3:0:0:0:
32,332,77534,5,4,2:1:0:0:
32,332,78625,6,0,P|100:320|192:356,1,160
264,312,79443,1,2,0:0:0:0:
344,344,79716,1,0,0:0:0:0:
512,180,80807,6,0,P|444:168|352:204,1,160,0|0,0:0|0:0,0:0:0:0:
280,160,81625,1,2,0:0:0:0:
200,200,81898,6,0,P|192:136|272:72,1,160,0|0,0:0|0:0,0:0:0:0:
336,36,82716,1,0,0:0:0:0:
348,124,82989,2,0,P|352:184|360:300,1,160,0|0,0:0|0:0,0:0:0:0:
372,372,83807,1,0,0:0:0:0:
288,344,84080,6,0,P|204:340|160:352,1,120,2|2,0:0|0:0,0:0:0:0:
104,236,84898,2,0,P|188:232|232:244,1,120,2|2,0:0|0:0,0:0:0:0:
304,136,85716,2,0,P|256:136|216:144,1,79.9999999999999,6|2,0:1|0:0,0:0:0:0:
156,84,86262,6,0,B|76:72|100:136|-8:112,1,160,4|0,0:0|0:0,0:0:0:0:
0,204,87080,1,8,0:0:0:0:
84,228,87353,2,0,P|88:276|88:320,1,79.9999999999999,2|8,2:1|0:2,0:0:0:0:
156,364,87898,2,0,P|204:360|236:364,1,79.9999999999999,0|8,2:0|0:2,0:0:0:0:
308,316,88443,6,0,P|384:328|456:288,1,160,4|2,2:0|2:0,0:0:0:0:
488,208,89262,1,8,0:0:0:0:
400,200,89534,2,0,P|392:156|392:120,1,79.9999999999999,12|0,2:0|0:2,0:0:0:0:
352,44,90080,2,0,P|391:36|430:40,1,79.9999999999999,2|8,2:0|0:2,0:0:0:0:
256,192,90625,12,2,93898,3:0:0:0:
456,312,94989,6,0,P|472:276|472:228,2,79.9999999999999,6|10|2,0:3|0:3|0:3,0:0:0:0:
384,260,95807,1,10,0:3:0:0:
372,348,96080,2,0,P|324:356|280:368,1,79.9999999999999,2|10,0:3|0:3,0:0:0:0:
224,308,96625,2,0,P|176:304|140:296,1,79.9999999999999,2|10,0:3|0:3,0:0:0:0:
76,352,97171,5,2,0:3:0:0:
60,264,97443,1,10,0:3:0:0:
84,180,97716,2,0,P|96:136|88:92,1,79.9999999999999,2|10,0:3|0:3,0:0:0:0:
144,32,98262,2,0,P|80:12|12:72,1,160,2|6,0:3|2:0,0:0:0:0:
16,244,99353,5,2,0:3:0:0:
92,284,99625,2,0,P|136:288|180:296,1,79.9999999999999,6|2,0:3|0:3,0:0:0:0:
252,256,100171,1,10,0:3:0:0:
240,344,100443,6,0,P|280:364|324:364,1,79.9999999999999,2|10,0:3|0:3,0:0:0:0:
400,348,100989,2,0,P|428:332|456:292,1,79.9999999999999,2|10,0:3|0:3,0:0:0:0:
460,204,101534,6,0,P|488:76|336:100,2,320,6|2|2,0:3|0:3|3:3,0:0:0:0:
372,200,103989,6,0,B|288:184|300:240|208:216,1,160,14|10,0:3|0:3,0:0:0:0:
140,260,104807,2,0,P|132:208|132:180,1,79.9999999999999,2|10,0:3|0:3,0:0:0:0:
208,136,105353,2,0,P|216:84|216:56,1,79.9999999999999,2|10,0:3|0:3,0:0:0:0:
144,8,105898,5,2,0:3:0:0:
128,96,106171,1,10,0:3:0:0:
208,136,106443,2,0,P|252:140|296:140,1,79.9999999999999,2|10,0:3|0:3,0:0:0:0:
352,200,106989,2,0,P|400:204|440:212,2,79.9999999999999,2|10|6,0:3|0:3|2:0,0:0:0:0:
300,272,107807,1,14,2:0:0:0:
332,356,108080,6,0,P|260:352|208:280,1,160,2|2,0:3|0:3,0:0:0:0:
144,228,108898,1,10,0:3:0:0:
124,312,109171,2,0,P|64:308|0:296,2,120,2|2|10,0:3|2:0|0:3,0:0:0:0:
152,228,110262,6,0,P|212:136|64:140,2,320,6|2|4,0:3|0:3|0:0,0:0:0:0:
256,192,112716,12,4,116807,0:2:0:0:
256,192,117898,5,4,0:2:0:0:
256,192,118989,6,0,P|176:208|108:172,2,160,6|2|6,0:3|2:3|0:3,0:0:0:0:
316,128,120353,1,2,2:0:0:0:
332,216,120625,2,0,P|376:208|416:208,1,79.9999999999999,2|8,0:3|0:0,0:0:0:0:
472,272,121171,5,4,0:3:0:0:
308,336,121716,1,4,0:0:0:0:
240,172,122262,1,4,0:0:0:0:
400,96,122807,1,4,0:0:0:0:
300,240,123353,5,4,0:0:0:0:
138,169,123898,1,4,0:0:0:0:
206,5,124444,1,4,0:0:0:0:
373,64,124989,1,2,0:3:0:0:
304,224,125534,6,0,P|236:272|152:272,1,160,6|2,0:3|0:3,0:0:0:0:
88,324,126353,1,10,0:3:0:0:
56,244,126625,2,0,P|48:172|32:116,2,120,6|2|10,0:3|2:0|0:3,0:0:0:0:
256,192,127716,12,4,129898,0:0:0:0:
